Викинги / Vikings (Сезон 1-3, Серии 1-29 из 29) (Киаран Доннелли, Йохан Ренк, Кен Джиротти) [2013-2015, Историческая драма, приключения, боевик, викинги, WEBDLRip-AVC 1080р] [DD5.1] [MVO] [NewStudio]

Reply to topic
 
Author
Message

Враг Нароода ®

Gender: Unknown

Longevity: 7 years

Posts: 495

Reputation: 1 [+] [-]

Враг Нароода · Post 25-Feb-2015 14:37

[Quote] 

-- --Викинги / Vikings Сезон 1-3, Серии 1-29 из 29-- --Год выпуска: 2013-2015
Выпущено: Ирландия, Канада, Irish Film Board, Take 5 Productions, World 2000 Entertainment
Жанр: Историческая драма, приключения, боевик, викинги
Продолжительность: 00:44:00
Сезон: 1-3
Серия: 1-29
Количество серий в сезоне: 29
Озвучка:Профессиональная многоголосая закадровая(NewStudio)Петр Иващенко (Гланц), Константин Погодаев, Анна Тух
Субтитры: Русские, английские--Сайт сериала:
--Режиссер: Киаран Доннелли, Йохан Ренк, Кен Джиротти--В ролях: Трэвис Фиммел, Клайв Стэнден, Кэтрин Уинник, Гэбриел Бирн, Джессалин Гилсиг, Густаф Скарсгард, Джефферсон Холл, Джордж Благден, Тадж Мерфи, Диармэйд Мурта-- Сериал рассказывает об отряде викингов Рагнара. Он восстал, чтобы стать королём племён викингов. Норвежская легенда гласит, что он был прямым потомком Одина, бога войны и воинов.-- --

ТЕХ. ДАННЫЕ:

Качество 1 сезона:WEB-DLRip-AVC 1080p
Формат: MPEG-4
Видео кодек: H264
Видео: 4779Кбит/сек,1920х1080(16.9),в 25.000кадр/сек,AVC(Baseline@L5.0)(1Ref Frames)
Аудио кодек: AAC
Аудио Russian Dolby Digital 5.1:455Кбит/сек,44.1КГц,6каналов,AAC,(Version4)(LC)--Качество 2-3 сезона:WEB-DLRip-AVC 1080p
Формат: MPEG-4
Видео кодек: H264
Видео: 5971Кбит/сек,1920х1080(16.9),в 25.000кадр/сек,AVC(Baseline@L4.0)(1Ref Frames)
Аудио кодек: AAC
Аудио Russian Dolby Digital 5.1:452Кбит/сек,48.0КГц,6каналов,AAC,(Version4)(LC)
--

Доп. информация:

Звуковая дорожка сделана путем наложения чистого голоса озвучивателей на центральный канал оригинальной дорожки. Качество идентично звуковой дорожке.
--

Список эпизодов сезонОВ

Список эпизодов 1сезона
01. Обряды / Rites of Passage
02. Гнев северян / Wrath of Northmen
03. Обездоленные / Dispossessed
04. Испытание / Trail
05. Набег / Raid
06. Погребение мертвых / Burial of the Dead
07. Королевский выкуп / A King's Ransom
08. Жертвоприношение / Sacrifice
09. Все изменится / All Change

Список эпизодов 2сезона
01. Братская война / Brother`s War
02. Вторжение / Invasion
03. Предательство / Treachery
04. Око за око / Eye for an Eye
05. Ответ кровью / Answers in Blood
06. Непрощённый / Unforgiven
07. Кровавый орёл / Blood Eagle
08. Бескостный / Boneless
09. Выбор / The Choice
10. Отче наш / The Lord's Prayer

Список эпизодов 3сезона
01 Наёмник / Mercenary
02 Странник / Wanderer
03 Путь воина / Warrior's Fate
04 Судьба Воина / Warrior's Fate
05 Узурпатор / The Usurper
06 Рождённый заново (Born Again)
07 Париж (Paris)
08 В атаку! (To the Gates!)
09 Перелом (Breaking Point)
10 Мёртвые (The Dead)
--

MediaInfo 1сезона

Общее
Полное имя : F:\К И Н О\И С Т О Р И Ч Е С К И Е\VIKINGS_-_2013_S01_RUS[NewStudio_TV]_DD5.1_x264_Nikolai.Baranov_WEB-DLRip-AVC_(1080p)\VIKINGS_-_2013_S01E01_RUS[NewStudio_TV]_DD5.1_x264_Nikolai.Baranov_WEB-DLRip-AVC_(1080p).mp4
Формат : MPEG-4
Профиль формата : Base Media
Идентификатор кодека : isom
Размер файла : 1,62 Гбайт
Продолжительность : 44 м.
Режим общего битрейта : Переменный
Общий поток : 5238 Кбит/сек
Дата кодирования : UTC 2013-04-03 22:47:32
Дата пометки : UTC 2013-04-03 22:47:32
Программа кодирования : Lavf51.12.1
Видео
Идентификатор : 1
Формат : AVC
Формат/Информация : Advanced Video Codec
Профиль формата : Baseline@L5.0
Параметр CABAC формата : Нет
Параметр ReFrames формата : 1 кадр
Параметр GOP формата : M=1, N=12
Идентификатор кодека : avc1
Идентификатор кодека/Информация : Advanced Video Coding
Продолжительность : 44 м.
Вид битрейта : Переменный
Битрейт : 4779 Кбит/сек
Максимальный битрейт : 6900 Кбит/сек
Ширина : 1920 пикселей
Высота : 1080 пикселей
Соотношение сторон : 16:9
Режим частоты кадров : Постоянный
Частота кадров : 25,000 кадров/сек
Частота кадров в оригинале : 24,000 кадра/сек
Цветовое пространство : YUV
Субдискретизация насыщенности : 4:2:0
Битовая глубина : 8 бит
Тип развёртки : Прогрессивная
Бит/(Пиксели*Кадры) : 0.092
Размер потока : 1,47 Гбайт (91%)
Дата кодирования : UTC 2013-04-03 22:47:32
Дата пометки : UTC 2013-04-03 22:47:32
Аудио
Идентификатор : 2
Формат : AAC
Формат/Информация : Advanced Audio Codec
Профиль формата : LC
Идентификатор кодека : 40
Продолжительность : 44 м.
Вид битрейта : Переменный
Битрейт : 455 Кбит/сек
Каналы : 6 каналов
Расположение каналов : Front: L C R, Side: L R, LFE
Частота : 44,1 КГц
Метод сжатия : С потерями
Размер потока : 144 Мбайт (9%)
Дата кодирования : UTC 2013-04-03 22:47:32
Дата пометки : UTC 2013-04-03 22:47:32
--

MediaInfo 2сезона

General
Полное имя : F:\К И Н О\И С Т О Р И Ч Е С К И Е\Викинги\VIKINGS_S01_-_S02_RUS[NewStudio_TV]_DD5.1_x264_Nikolai.Baranov_WEB-DLRip-AVC_(1080p)\S02\VIKINGS_-_2014_S02E01_RUS[NewStudio_TV]_DD5.1_x264_Nikolai.Baranov_WEB-DLRip-AVC_(1080p).mp4
Формат : MPEG-4
Профиль формата : Base Media
Идентификатор кодека : isom
Размер файла : 1.98 GiB
Продолжительность : 44mn 8s
Режим общего битрейта : Variable
Общий поток : 6 427 Kbps
Название фильма : Спираль - 1С…09 - Уровень Р­РєСЃ
Дата кодирования : UTC 2014-03-06 15:00:11
Дата пометки : UTC 2014-03-06 15:00:11
Программа кодирования : Lavf51.12.1
Video
Идентификатор : 1
Формат : AVC
Формат/Информация : Advanced Video Codec
Профиль формата : Baseline@L4.0
Параметр CABAC формата : No
Параметр ReFrames формата : 1 frame
Параметр GOP формата : M=1, N=12
Идентификатор кодека : avc1
Идентификатор кодека/Информация : Advanced Video Coding
Продолжительность : 44mn 8s
Битрейт : 5 971 Kbps
Ширина : 1 920 pixels
Высота : 1 080 pixels
Соотношение сторон : 16:9
Режим частоты кадров : Constant
Частота кадров : 25.000 fps
Цветовое пространство : YUV
Субдискретизация насыщенности : 4:2:0
Битовая глубина : 8 bits
Тип развёртки : Progressive
Бит/(Пиксели*Кадры) : 0.115
Размер потока : 1.84 GiB (93%)
Язык : English
Дата кодирования : UTC 2014-03-06 15:00:11
Дата пометки : UTC 2014-03-06 15:00:11
Audio
Идентификатор : 2
Формат : AAC
Формат/Информация : Advanced Audio Codec
Профиль формата : LC
Идентификатор кодека : 40
Продолжительность : 44mn 8s
Вид битрейта : Variable
Битрейт : 452 Kbps
Каналы : 6 channels
Расположение каналов : Front: L C R, Side: L R, LFE
Частота : 48.0 KHz
Метод сжатия : Lossy
Размер потока : 143 MiB (7%)
Язык : Russian
Дата кодирования : UTC 2014-03-06 15:00:11
Дата пометки : UTC 2014-03-06 15:00:11
--

MediaInfo 3сезона

General
Полное имя : G:\С Е Р И А Л Ы\ВИКИНГИ\VIKINGS_S01_-_S03_RUS[NewStudio_TV]_DD5.1_x264_Nikolai.Baranov_WEB-DLRip-AVC_(1080p)\S03\VIKINGS_-_2015_S03E01_RUS[NewStudio_TV]_DD5.1_x264_Nikolai.Baranov_WEB-DLRip-AVC_(1080p).mp4
Формат : MPEG-4
Профиль формата : Base Media
Идентификатор кодека : isom
Размер файла : 2.11 GiB
Продолжительность : 45mn 9s
Режим общего битрейта : Variable
Общий поток : 6 700 Kbps
Дата кодирования : UTC 2015-02-25 06:51:07
Дата пометки : UTC 2015-02-25 06:51:07
Программа кодирования : Lavf51.12.1
Video
Идентификатор : 1
Формат : AVC
Формат/Информация : Advanced Video Codec
Профиль формата : Baseline@L4.0
Параметр CABAC формата : No
Параметр ReFrames формата : 1 frame
Параметр GOP формата : M=1, N=12
Идентификатор кодека : avc1
Идентификатор кодека/Информация : Advanced Video Coding
Продолжительность : 45mn 9s
Вид битрейта : Variable
Битрейт : 6 230 Kbps
Максимальный битрейт : 9 000 Kbps
Ширина : 1 920 pixels
Высота : 1 080 pixels
Соотношение сторон : 16:9
Режим частоты кадров : Constant
Частота кадров : 25.000 fps
Частота кадров в оригинале : 24.000 fps
Цветовое пространство : YUV
Субдискретизация насыщенности : 4:2:0
Битовая глубина : 8 bits
Тип развёртки : Progressive
Бит/(Пиксели*Кадры) : 0.120
Размер потока : 1.97 GiB (93%)
Язык : English
Дата кодирования : UTC 2015-02-25 06:51:07
Дата пометки : UTC 2015-02-25 06:51:07
Audio
Идентификатор : 2
Формат : AAC
Формат/Информация : Advanced Audio Codec
Профиль формата : LC
Идентификатор кодека : 40
Продолжительность : 45mn 9s
Вид битрейта : Variable
Битрейт : 465 Kbps
Каналы : 2 channels
Channel(s)_Original : 6 channels
Расположение каналов : Front: L C R, Side: L R, LFE
Частота : 48.0 KHz
Метод сжатия : Lossy
Размер потока : 150 MiB (7%)
Язык : Russian
Дата кодирования : UTC 2015-02-25 06:51:07
Дата пометки : UTC 2015-02-25 06:51:07
--

Скриншоты 1сезона

--

Скриншоты 2сезона

--

Скриншоты 3сезона

-- 1 сезон-- 2 сезон-- 3 сезон--

Как закачать отдельный файл

1. Открыть торрент
2. Снять галки с тех файлов торрента, которые мы не хотим закачивать. Оставляем только на нужных нам файлах (файле).
3. Нажать О.К.
В клиенте utorrent
Инструкция
1) Открыть торрент

2) Снять галки с тех файлов торрента, которые мы не хотим закачивать:
* либо вручную, снимая с каждого файла галку( скрин №1)
* либо, нажав кнопку "Снять метки (Select None)", сняв сразу со всех файлов(скрин №2)
№1

№2

Оставляем только на нужных нам файлах (файле).

3)Нажать О.К
-- -- --Внимание!!! 25.04. 2015. РАЗДАЧА ОБНОВЛЕНА.ФИНАЛ СЕЗОНА. ОБНОВИТЕ ТОРЕНТ ФАЙЛ.ПРИЯТНОГО ПРОСМОТРА . --Релиз от: Nikolai.Baranov -- -- -- --
[Profile]  [PM] 
Display posts:    
Reply to topic

Current time is: 21-Sep 13:03

All times are UTC + 2



You cannot post new topics in this forum
You cannot reply to topics in this forum
You cannot edit your posts in this forum
You cannot delete your posts in this forum
You cannot vote in polls in this forum
You cannot attach files in this forum
You cannot download files in this forum