Готэм / Gotham (Дэнни Кэннон, Т.Дж. Скотт, Дермотт Даунс) (Cезон 1, Cерия 1-22 из 22) [2014-2015, Триллер, драма, криминал, WEBDLRip 400р] [MVO] [LostFilm, NewStudio, BaibaKo, HamsterStudio + Subs Rus, ENG]

Reply to topic
 
Author
Message

Враг Нароода ®

Gender: Unknown

Longevity: 5 years 7 months

Posts: 408

Reputation: 1 [+] [-]

Враг Нароода · Post 03-Mar-2015 13:43

[Quote] 

-- --Готэм / Gotham Cезон 1, Cерии 1-22 из 22 -- -- --Год выпуска: 2014-2015
Выпущено: США, Primrose Hill Productions, DC Comics, Warner Bros. Television
Жанр: Триллер, драма, криминал
Продолжительность: 00:49:28
Сезон: 1
Серия: 1-22
Количество серий в сезоне: 22
Озвучка 1: Профессиональный многоголосый - LostFilm
Озвучка: 2: Профессиональный многоголосый - NewStudio
Озвучка : 3: Профессиональный многоголосый - BaibaKo
Озвучка 4: Профессиональный многоголосый - HamsterStudio
Субтитры: Русские,Английские--Сайт сериала:
--Режиссер: Дэнни Кэннон, Т.Дж. Скотт, Дермотт Даунс--В ролях: Бенжамин МакКензи, Донал Лог, Дэвид Мазоуз, Забрина Гевара, Шон Пертуи, Робин Тейлор, Эрин Ричардс, Камрен Бикондова, Кори Майкл Смит, Джада Пинкетт Смит, Эндрю Стюарт-Джонс, Виктория Картагена, Джон Доумен, Дрю Пауэлл, Ричард Кайнд, Грэйсон МакКоч, Кэрол Кейн, Макензи Ли, Дэнни Мастроджорджо-- Готэм — город порока
В свет вышел первый, пилотный, выпуск телесериала «Готэм», повествование которого будет закручено вокруг одного ключевого персонажа — Джима Гордона, и его нелегкой службы детектива в прогнивающем от коррупции городе Готэм.
Начну сразу с минусов, что бросаются в глаза. Наверняка многие помнят мультипликационную версию Бэтмена, его стилистику и персонажей. Так вот, действие сериала происходит отнюдь не в стильных 80-ых годах, но при этом красочные панорамные виды города и готический стиль архитектуры радует глаз, но это в первые моменты, далее частые вставки пейзажей города вызывают только ряб в глазах.
Осведомленные или просто знакомые с вселенной бэтмена, зрители встретят многих известных персонажей, в том числе и совсем юных (и да, я не только о Брюсе Уэйне, ведь повествование сериала берет начало именно с той самой трагической ночи для потомка Уэйнов). В телесериальной версии разочаровал только один персонаж — это Альфред Пенниворт (дворецкий и слуга в особняке Уэйнов, если кто не смог вспомнить), который предстал перед зрителями мрачным типом со стальным серым взглядом, готовый в любой момент читать нотации и повышать голос на ребенка, в то время как в версии мультфильма, Нолановской трилогии «Темный рыцарь», да и в старых экранизациях он всегда был мудрым наставником без лишнего напряжения во взгляде или голосе. Не совсем ясно это атмосферное перевоплощение персонажа, который имел достаточно сильное влияние на готэмского рыцаря.
В целом и в общем первый выпуск совсем не плох, красиво смотрится, схватки не выглядят нелепыми, да и игра актеров не проседает, как того можно опасаться.
Итог: интересная затея с повествованием истории простого детектива, попавшего в преступный мир коррумпированного города. Определенно этой осенью и зимой будет что посмотреть!
-- --Качество : WEB-DLRip
Формат: AVI
Видео кодек: DivX5
Видео: 2271Кбит/сек,720х404(16.9),в 23.976кадр/сек,MPEG4 Visual(DivX5)
Аудио кодек: AC3
Аудио #1:AC3 , 512 Kbps, 48.0 KHz, 6 ch - LostFilm
Аудио #2: AC3, 512 Kbps, 48.0 KHz, 6 ch - NewStudio
Аудио #3: AC3, 512 Kbps, 48.0 KHz, 6 ch - BaibaKo
Аудио #4: AC3, 512 Kbps, 48.0 KHz,6 ch - HamsterStudio
Аудио #5: AC3, 512 Kbps, 48.0 KHz,6 ch - English-- --

Доп. информация:

Звуковая дорожка сделана путем наложения чистого голоса озвучивателей на центральный канал оригинальной дорожки. Качество идентично звуковой дорожке.
--

Список эпизодов сезона


01. Пилот / Pilot
02. Селина Кайл / Selina Kyle
03. Шародув / Baloonman
04. Аркам / Arkham
05. Гадюка / Viper
06. Дух Козла / Spirit of the Goat
07. Зонтик Пингвина / Penguin's Umbrella
08. Маска / The Mask
09. Харви Дент / Harvey Dent
10. Ловкрафт / LoveCraft
11. Галерея бандитов / Rogues Gallery
12. Что птичка ему напела / What the Little Bird Told Him
13. С возвращением, Джим Гордон / Welcome Back, Jim Gordon
14. Ужасный доктор Крейн / The Fearsome Dr. Crane
15. Пугало / The Scarecrow
16. Слепой предсказатель / The Blind Fortune Teller
17. Красный Колпак / Red Hood
18 У каждого свой Кобблпот / Everyone Has a Cobblepot
19 Хищные звери / Beasts of Prey
20. Под нож / Under the Knife
21. Между молотом и наковальней / The Anvil or the Hammer
22. Все счастливые семьи похожи / All Happy Families Are Alike
--

MediaInfo сезона

General
Полное имя : D:\Г О Т Э М\GOTHAM_S01_RUS_ENG[LostFilm_NewStudio_BaibaKo_HamsterStudio]_[AVI_DivX5_DD5.1]_Nikolai.Baranov_WEB-DLRip\GOTHAM_2014_S01E01_RUS_ENG[LostFilm_NewStudio_BaibaKo_HamsterStudio]_[AVI_DivX5_DD5.1]_Nikolai.Baranov_WEB-DLRip.divx
Формат : DivX
Формат/Информация : Hack of AVI
Размер файла : 1.68 GiB
Продолжительность : 49mn 18s
Общий поток : 4 863 Kbps
Video
Идентификатор : 0
Формат : MPEG-4 Visual
Параметр BVOP формата : 1
Параметр QPel формата : No
Параметр GMC формата : No warppoints
Параметр матрицы формата : Default (H.263)
Режим смешивания : Packed bitstream
Идентификатор кодека : DX50
Идентификатор кодека/Подсказка : DivX 5
Продолжительность : 49mn 18s
Битрейт : 2 271 Kbps
Ширина : 720 pixels
Высота : 404 pixels
Соотношение сторон : 16:9
Частота кадров : 23.976 fps
Цветовое пространство : YUV
Субдискретизация насыщенности : 4:2:0
Битовая глубина : 8 bits
Тип развёртки : Progressive
Метод сжатия : Lossy
Бит/(Пиксели*Кадры) : 0.326
Размер потока : 801 MiB (47%)
Заголовок : Video
Библиотека кодирования : DivX 2682
Audio #1
Идентификатор : 1
Формат : AC-3
Формат/Информация : Audio Coding 3
Расширение режима : CM (complete main)
Параметр Endianness формата : Big
Идентификатор кодека : 2000
Продолжительность : 49mn 18s
Вид битрейта : Constant
Битрейт : 512 Kbps
Каналы : 6 channels
Расположение каналов : Front: L C R, Side: L R, LFE
Частота : 48.0 KHz
Битовая глубина : 16 bits
Метод сжатия : Lossy
Размер потока : 181 MiB (11%)
Выравнивание : Split accross interleaves
Продолжительность промежутка : 42 ms (1.00 video frame)
Время предзагрузки промежутка : 500 ms
Заголовок : Audio - en-US01
Audio #2
Идентификатор : 2
Формат : AC-3
Формат/Информация : Audio Coding 3
Расширение режима : CM (complete main)
Параметр Endianness формата : Big
Идентификатор кодека : 2000
Продолжительность : 49mn 18s
Вид битрейта : Constant
Битрейт : 512 Kbps
Каналы : 6 channels
Расположение каналов : Front: L C R, Side: L R, LFE
Частота : 48.0 KHz
Битовая глубина : 16 bits
Метод сжатия : Lossy
Размер потока : 181 MiB (11%)
Выравнивание : Split accross interleaves
Продолжительность промежутка : 42 ms (1.00 video frame)
Время предзагрузки промежутка : 500 ms
Заголовок : Audio - en-US01
Audio #3
Идентификатор : 3
Формат : AC-3
Формат/Информация : Audio Coding 3
Расширение режима : CM (complete main)
Параметр Endianness формата : Big
Идентификатор кодека : 2000
Продолжительность : 49mn 18s
Вид битрейта : Constant
Битрейт : 512 Kbps
Каналы : 6 channels
Расположение каналов : Front: L C R, Side: L R, LFE
Частота : 48.0 KHz
Битовая глубина : 16 bits
Метод сжатия : Lossy
Размер потока : 181 MiB (11%)
Выравнивание : Split accross interleaves
Продолжительность промежутка : 42 ms (1.00 video frame)
Время предзагрузки промежутка : 500 ms
Заголовок : Audio - en-US01
Audio #4
Идентификатор : 4
Формат : AC-3
Формат/Информация : Audio Coding 3
Расширение режима : CM (complete main)
Параметр Endianness формата : Big
Идентификатор кодека : 2000
Продолжительность : 49mn 18s
Вид битрейта : Constant
Битрейт : 512 Kbps
Каналы : 6 channels
Расположение каналов : Front: L C R, Side: L R, LFE
Частота : 48.0 KHz
Битовая глубина : 16 bits
Метод сжатия : Lossy
Размер потока : 181 MiB (11%)
Выравнивание : Split accross interleaves
Продолжительность промежутка : 42 ms (1.00 video frame)
Время предзагрузки промежутка : 500 ms
Заголовок : Audio - en-US01
Audio #5
Идентификатор : 5
Формат : AC-3
Формат/Информация : Audio Coding 3
Расширение режима : CM (complete main)
Параметр Endianness формата : Big
Идентификатор кодека : 2000
Продолжительность : 49mn 18s
Вид битрейта : Constant
Битрейт : 512 Kbps
Каналы : 6 channels
Расположение каналов : Front: L C R, Side: L R, LFE
Частота : 48.0 KHz
Битовая глубина : 16 bits
Метод сжатия : Lossy
Размер потока : 181 MiB (11%)
Выравнивание : Split accross interleaves
Продолжительность промежутка : 42 ms (1.00 video frame)
Время предзагрузки промежутка : 500 ms
Заголовок : Audio - en-US01
Text #1
Идентификатор : 6
Формат : DivX Subtitle
Идентификатор кодека : DXSB
Идентификатор кодека/Информация : Subtitle in AVI from DivX networks
Ширина : 640 characters
Высота : 480 characters
Битовая глубина : 2 bits
Размер потока : 688 KiB (0%)
Заголовок : Subtitle - rus
Text #2
Идентификатор : 7
Формат : DivX Subtitle
Идентификатор кодека : DXSB
Идентификатор кодека/Информация : Subtitle in AVI from DivX networks
Ширина : 640 characters
Высота : 480 characters
Битовая глубина : 2 bits
Размер потока : 768 KiB (0%)
Заголовок : Subtitle
--

Скриншоты

-- --

Как закачать отдельный файл

1. Открыть торрент
2. Снять галки с тех файлов торрента, которые мы не хотим закачивать. Оставляем только на нужных нам файлах (файле).
3. Нажать О.К.
В клиенте utorrent
Инструкция
1) Открыть торрент

2) Снять галки с тех файлов торрента, которые мы не хотим закачивать:
* либо вручную, снимая с каждого файла галку( скрин №1)
* либо, нажав кнопку "Снять метки (Select None)", сняв сразу со всех файлов(скрин №2)
№1

№2

Оставляем только на нужных нам файлах (файле).

3)Нажать О.К
-- -- --Внимание!!! 10.05. 2015. РАЗДАЧА ОБНОВЛЕНА.ФИНАЛ СЕЗОНА. ОБНОВИТЕ ТОРЕНТ ФАЙЛ.ПРИЯТНОГО ПРОСМОТРА . --Релиз от: Nikolai.Baranov -- -- -- --
[Profile]  [PM] 
Display posts:    
Reply to topic

Current time is: 07-Apr 15:56

All times are UTC + 2



You cannot post new topics in this forum
You cannot reply to topics in this forum
You cannot edit your posts in this forum
You cannot delete your posts in this forum
You cannot vote in polls in this forum
You cannot attach files in this forum
You cannot download files in this forum