Лучше звоните Солу / Better Call Saul (Колин Бакси, Адам Бернштейн, Винс Гиллиган) (Сезон 1, Серии 1-10 из 10) [2015, Драма, комедия, криминал, WEBDLRip-AVC 720p] [MVO] [Kubik v Kubike, LostFilm, NewStudio, BaibaKo] [Subs RUS, ENG]

Reply to topic
 
Author
Message

Враг Нароода ®

Gender: Unknown

Longevity: 6 years

Posts: 447

Reputation: 1 [+] [-]

Враг Нароода · Post 20-Mar-2015 08:06

[Quote] 

--Лучше звоните Солу / Better Call Saul Сезон 1, Серия 1-10 из 10-- --Год выпуска: 2015
Выпущено: США, Primrose Hill Productions, Warner Bros. Television
Жанр: Драма, комедия, криминал
Продолжительность: 00:54:00
Сезон: 1
Серии: 1-10
Количество серий в сезоне: 10
Озвучка 1: Профессиональный многоголосый- Kubik v Kubike
Озвучка 2: Профессиональный многоголосый - LostFilm
Озвучка 3: Профессиональный многоголосый - NewStudio
Озвучка 4: Профессиональный многоголосый - BaibaKo
Субтитры: Русские, Английские-- --Режиссер: Колин Бакси, Адам Бернштейн, Винс Гиллиган--Сценаристы:Питер Гулд, Винс Гиллиган--В ролях:: Боб Оденкерк (Джимми Макгил/Сол Гудман), Ри Сихорн (Ким Векслер), Патрик Фабиан (Говард Хэмлин), Майкл МакКин (Чак Макгил), Джонатан Бэнкс (Майк Эрмантраут), Майкл Мэндо (Начо Варга), Майкл Бофшевер (мистер Пинкман)-- «Лучше звоните Солу» — спин-офф и одновременно приквел культового сериала «Во все тяжкие» (Breaking Bad), являющийся абсолютно самостоятельным по стилю, сюжету и настроению проектом. С оригиналом его роднит одно очень важное качество — высочайший уровень подачи материала. В своем новом телешоу Винс Гиллиган и Питер Гулд приготовили для зрителей увлекательную историю о том, как мелкий и не очень удачливый юрист Джимми Макгил (Боб Оденкерк) стал Солом Гудманом, успешным защитником самых отъявленных подонков (и не только) Нью-Мексико. «Лучше звоните Солу» также порадует вас целой галереей запоминающихся персонажей, лихо закрученными сюжетами и неожиданными встречами со знакомыми героями из вселенной Хайзенберга.
Сюжет:2002 год, штат Нью-Мексико. У адвоката Джимми Макгила дела идут очень плохо: ни денег, ни клиентов, ни перспектив. Чтобы хоть как-то сводить концы с концами, он вынужден защищать всяких сомнительных нарушителей закона по заказу государства, тогда как крупная рыба все время срывается с его крючка. А еще у Джимми есть старший брат Чак Макгил, попавший в беду и тоже требующий внимания и профессиональной помощи. Но даже Чак не желает прислушиваться к рекомендациям брата и все делает по-своему. Более того, он предлагает Джимми сменить имя, чтобы тот мог заработать авторитет с нуля и продвинуть свою юридическую контору, не полагаясь на репутацию их общей фамилии. Загнанный в угол адвокат начинает подумывать о том, чтобы задействовать нетрадиционные способы поиска клиентов. В его голове рождается хитрая комбинация, которую он решает реализовать с помощью двух юных и жадных до денег скейтеров, но неожиданно все выходит из-под контроля...-- --Качество : WEBDLRip-AVC 720p
Формат: MKV
Видео кодек: H264
Видео: 4430Кбит/сек,1280х720(16.9),в 23.976кадр/сек,AVC(PAL)(High@5.1)(CABAC/3 Ref Frames)
Аудио Кодек:AC3
Аудио #1:AC3 , 640 Kbps, 48.0 KHz, 6 ch- Kubik v Kubike
Аудио #2: AC3, 640 Kbps, 48.0 KHz, 6 ch - LostFilm
Аудио #3: AC3, 640 Kbps, 48.0 KHz, 6 ch - NewStudio
Аудио #4: AC3, 640 Kbps, 48.0 KHz,6 ch - BaibaKo
Аудио #5: AC3, 640 Kbps, 48.0 KHz,6 ch - English--

Доп. информация:

Звуковая дорожка сделана путем наложения чистого голоса озвучивателей на центральный канал оригинальной дорожки. Качество идентично звуковой дорожке.
--

Список эпизодов сезона


01 Уно (Uno)
02 Михо (Mijo)
03 Начо (Nacho)
04 Герой (Hero)
05 Альпийский пастушок (Alpine Shepherd Boy)
06 Легаш (Five-O)
07 Бинго (Bingo)
08 Рико (Rico)
09 Пименто (Pimento)
10 Марко (Marco)
--

MediaInfo сезона

General
Уникальный идентификатор : 319380578808882830515640853762395599797 (0xF046764825A03ACC4EA805A8F77BF3B5)
Полное имя : D:\ЛУЧШЕ ЗВОНИТЕ СОЛУ\BETTER_CALL_SAUL_S01_RUS_ENG[Kubik_v_Kubike_LostFilm_NewStudio_BaibaKo]HD_H264_DD5.1_Nikolai.Baranov_WEB-DLRip_720p\BETTER_CALL_SAUL_S01E01_RUS_ENG[Kubik_v_Kubike_LostFilm_NewStudio_BaibaKo]_Nikolai.Baranov_WEB-DLRip_720.mkv
Формат : Matroska
Версия формата : Version 1
Размер файла : 2.89 GiB
Продолжительность : 53mn 3s
Режим общего битрейта : Variable
Общий поток : 7 785 Kbps
Программа кодирования : DivXMKVMux 9.9.12.5441
Библиотека кодирования : libDivXMediaFormat 4.0.0.0578
Video
Идентификатор : 1
Формат : AVC
Формат/Информация : Advanced Video Codec
Профиль формата : High@L5.1
Параметр CABAC формата : Yes
Параметр ReFrames формата : 3 frames
Идентификатор кодека : V_MPEG4/ISO/AVC
Продолжительность : 53mn 3s
Вид битрейта : Variable
Битрейт : 4 430 Kbps
Максимальный битрейт : 20.0 Mbps
Ширина : 1 280 pixels
Высота : 720 pixels
Соотношение сторон : 16:9
Режим частоты кадров : Constant
Частота кадров : 23.976 fps
Стандарт вещания : PAL
Цветовое пространство : YUV
Субдискретизация насыщенности : 4:2:0
Битовая глубина : 8 bits
Тип развёртки : Progressive
Бит/(Пиксели*Кадры) : 0.200
Размер потока : 1.64 GiB (57%)
Язык : English
Default : Yes
Forced : No
Основные цвета : BT.709
Характеристики трансфера : BT.709
Коэффициенты матрицы : BT.709
colour_range : Limited
Audio #1
Идентификатор : 2
Формат : AC-3
Формат/Информация : Audio Coding 3
Расширение режима : CM (complete main)
Параметр Endianness формата : Big
Идентификатор кодека : A_AC3
Продолжительность : 53mn 3s
Вид битрейта : Constant
Битрейт : 640 Kbps
Каналы : 6 channels
Расположение каналов : Front: L C R, Side: L R, LFE
Частота : 48.0 KHz
Битовая глубина : 16 bits
Метод сжатия : Lossy
Размер потока : 243 MiB (8%)
Язык : English
Default : Yes
Forced : No
Audio #2
Идентификатор : 3
Формат : AC-3
Формат/Информация : Audio Coding 3
Расширение режима : CM (complete main)
Параметр Endianness формата : Big
Идентификатор кодека : A_AC3
Продолжительность : 53mn 3s
Вид битрейта : Constant
Битрейт : 640 Kbps
Каналы : 6 channels
Расположение каналов : Front: L C R, Side: L R, LFE
Частота : 48.0 KHz
Битовая глубина : 16 bits
Метод сжатия : Lossy
Размер потока : 243 MiB (8%)
Язык : English
Default : No
Forced : No
Audio #3
Идентификатор : 4
Формат : AC-3
Формат/Информация : Audio Coding 3
Расширение режима : CM (complete main)
Параметр Endianness формата : Big
Идентификатор кодека : A_AC3
Продолжительность : 53mn 3s
Вид битрейта : Constant
Битрейт : 640 Kbps
Каналы : 6 channels
Расположение каналов : Front: L C R, Side: L R, LFE
Частота : 48.0 KHz
Битовая глубина : 16 bits
Метод сжатия : Lossy
Размер потока : 243 MiB (8%)
Язык : English
Default : No
Forced : No
Audio #4
Идентификатор : 5
Формат : AC-3
Формат/Информация : Audio Coding 3
Расширение режима : CM (complete main)
Параметр Endianness формата : Big
Идентификатор кодека : A_AC3
Продолжительность : 53mn 3s
Вид битрейта : Constant
Битрейт : 640 Kbps
Каналы : 6 channels
Расположение каналов : Front: L C R, Side: L R, LFE
Частота : 48.0 KHz
Битовая глубина : 16 bits
Метод сжатия : Lossy
Размер потока : 243 MiB (8%)
Язык : English
Default : No
Forced : No
Audio #5
Идентификатор : 6
Формат : AC-3
Формат/Информация : Audio Coding 3
Расширение режима : CM (complete main)
Параметр Endianness формата : Big
Идентификатор кодека : A_AC3
Продолжительность : 53mn 3s
Вид битрейта : Constant
Битрейт : 640 Kbps
Каналы : 6 channels
Расположение каналов : Front: L C R, Side: L R, LFE
Частота : 48.0 KHz
Битовая глубина : 16 bits
Метод сжатия : Lossy
Размер потока : 243 MiB (8%)
Язык : English
Default : No
Forced : No
Text #1
Идентификатор : 7
Формат : UTF-8
Идентификатор кодека : S_TEXT/UTF8
Идентификатор кодека/Информация : UTF-8 Plain Text
Язык : English
Default : Yes
Forced : No
Text #2
Идентификатор : 8
Формат : UTF-8
Идентификатор кодека : S_TEXT/UTF8
Идентификатор кодека/Информация : UTF-8 Plain Text
Язык : English
Default : No
Forced : No
-- -- --

Как закачать отдельный файл

1. Открыть торрент
2. Снять галки с тех файлов торрента, которые мы не хотим закачивать. Оставляем только на нужных нам файлах (файле).
3. Нажать О.К.
В клиенте utorrent
Инструкция
1) Открыть торрент

2) Снять галки с тех файлов торрента, которые мы не хотим закачивать:
* либо вручную, снимая с каждого файла галку( скрин №1)
* либо, нажав кнопку "Снять метки (Select None)", сняв сразу со всех файлов(скрин №2)
№1

№2

Оставляем только на нужных нам файлах (файле).

3)Нажать О.К
-- -- --Внимание!!! 10.04. 2015. РАЗДАЧА ОБНОВЛЕНА.ФИНАЛ СЕЗОНА. ОБНОВИТЕ ТОРЕНТ ФАЙЛ.ПРИЯТНОГО ПРОСМОТРА . --Релиз от: Nikolai.Baranov -- -- -- --
[Profile]  [PM] 
Display posts:    
Reply to topic

Current time is: 27-Sep 10:11

All times are UTC + 2



You cannot post new topics in this forum
You cannot reply to topics in this forum
You cannot edit your posts in this forum
You cannot delete your posts in this forum
You cannot vote in polls in this forum
You cannot attach files in this forum
You cannot download files in this forum