Доктор Хаус / House M.D. / Сезон: 7 / Серии: 1-23 (23) [2010, комедия, драма, WEB-DL 720p] 2MVO LostFilm+UATEAM + rus sub

Reply to topic
 
Author
Message

Advocat ®

Gender: Unknown

Longevity: 10 years

Posts: 2910

Reputation: 0 [+] [-]

Advocat · Post 01-Aug-2011 01:27

[Quote] 

Доктор Хаус / House M.D.
Год выпуска: 2010
Страна: США
Жанр: комедия, драма
Продолжительность серии: ~43мин.
Перевод 1: профессиональный многоголосый закадровый, LostFilm
Перевод 2: профессиональный многоголосый закадровый, UATEAM
Русские субтитры: есть
Режиссёр: Деран Сарафян, Дэвид Платт, Фред Гербер, ...
В ролях: Хью Лори, Лиза Эдельштейн, Роберт Шон Леонард, Джесси Спенсер, Омар Эппс, Боббин Бергсторм, Оливия Уайлд, Питер Джекобсон
Описание: Сериал House, M.D. рассказывает о команде врачей, которые должны правильно поставить диагноз пациенту и спасти его. В принципе сериал представляет из себя вариацию схемы «врач как детектив», но в отличие от остальных сериалов, где врачи обследуют уже мертвого пациента, в House, M.D. больной находится еще в живых. Возглавляет команду доктор Грегори Хаус, который ходит с тростью после того, как его мышечный инфаркт в правой ноге слишком поздно правильно диагностировали. Как врач Хаус просто гений, но сам не отличается проникновенностью в общении с больными и с удовольствием избегает их, если только есть возможность. Он сам всё время проводит в борьбе с собственной болью, а трость в его руке только подчеркивает его жесткую ядовитую манеру общения. Порой его поведение можно назвать почти бесчеловечным, и при этом он прекрасный врач, обладаюший нетипичным умом и безупречным инстинктом, что снискало ему глубокое уважение. Будучи инфекционистом, он ещё и замечательный диагност, который любит разгадывать медицинские загадки, чтобы спасти кому-то жизнь. Если бы все было по его воле, то Хаус лечил бы больных не выходя из своего кабинета.
Доп. информация:
Дорожка #1:
Перевод: Relicit.
Мед. редактор: Mirra.
Озвучка: Студия "Кравец".
Дорожка #2:
Перевод и озвучка: UATEAM
Субтитры:
1-4, 9 серии:
Перевод: Pacific
Медицинский консультант: Зарубенко И.П.
Редакторы: SLONOPOTAM, Ruby Roid
остальные серии: Суверенный Лепрозорий- -РАЗДАЧА ОТ:
-Качество: WEB-DL 720p
Формат: MKV
Видео кодек: H.264
Аудио кодек: AC3
Видео: MPEG-4 AVC, 1280x720, 23.976 fps, ~4000 kbps, 0.18 bit/pixel
Аудио 1: Русский, Dolby Digital, 5.1, 48 kHz, 448 kbps, LostFilm
Аудио 2: Украинский, Dolby Digital, 5.1, 48 kHz, 384 kbps, UATEAM
Аудио 3: Английский, Dolby Digital, 5.1, 48 kHz, 384 kbps
Субтитры: Русские, Английские

Список серий


1. Now What? / И что теперь? / 41:42
2. Selfish / Эгоизм / 43:59
3. Unwritten / Недописанное / 43:47
4. Massage Therapy / Лечебный массаж / 43:44
5. Unplanned Parenthood / Родители вне плана / 43:59
6. Office Politics / Политика компании / 43:59
7. A Pox on Our House / Хаус во время чумы / 43:58
8. Small Sacrifices / Маленькие жертвы / 43:59
9. Larger Than Life / Во весь рост / 43:59
10. Carrot or Stick / Кнут и пряник / 43:57
11. Family Practice / Семейный врач / 43:59
12. You Must Remember This / Вы должны это помнить / 43:59
13. Two Stories / Две истории / 43:54
14. Recession Proof / Несмотря ни на что / 43:59
15. Bombshells / Гром среди ясного неба / 43:58
16. Out of the Chute / Полный отрыв / 43:55
17. Fall from Grace / Без благодати / 43:48
18. The Dig / Раскопки / 43:58
19. Last Temptation / Последнее искушение / 43:50
20. Changes / Перемены / 43:58
21. The Fix / Доза / 43:59
22. After Hours / После работы / 43:56
23. Moving On / Жизнь продолжается / 43:59

MI

General
Complete name : House.M.D.S07E02.720p.WEB-DL.Rus.Ukr.Eng.HDCLUB.mkv
Format : Matroska
File size : 1.69 GiB
Duration : 44mn 0s
Overall bit rate : 5 509 Kbps
Movie name : House M.D. [Season 7] (2010) - Release for HDCLUB
Encoded date : UTC 2010-10-01 07:32:10
Writing application : mkvmerge v3.4.0 ('Rapunzel') built on May 15 2010 09:38:20
Writing library : libebml v0.8.0 + libmatroska v0.9.0
Video
ID : 1
Format : AVC
Format/Info : Advanced Video Codec
Format profile : High@L3.1
Format settings, CABAC : No
Format settings, ReFrames : 2 frames
Muxing mode : Container profile=Unknown@3.1
Codec ID : V_MPEG4/ISO/AVC
Duration : 44mn 0s
Bit rate : 4 183 Kbps
Width : 1 280 pixels
Height : 720 pixels
Display aspect ratio : 16:9
Frame rate : 23.976 fps
Color space : YUV
Chroma subsampling : 4:2:0
Bit depth : 8 bits
Scan type : Progressive
Bits/(Pixel*Frame) : 0.189
Stream size : 1.29 GiB (76%)
Title : Season 7, Episode 2: Selfish / Эгоизм - Release for HDCLUB
Language : English
Color primaries : BT.709-5, BT.1361, IEC 61966-2-4, SMPTE RP177
Transfer characteristics : BT.709-5, BT.1361
Matrix coefficients : BT.709-5, BT.1361, IEC 61966-2-4 709, SMPTE RP177
Audio #1
ID : 2
Format : AC-3
Format/Info : Audio Coding 3
Mode extension : CM (complete main)
Codec ID : A_AC3
Duration : 44mn 0s
Bit rate mode : Constant
Bit rate : 448 Kbps
Channel(s) : 6 channels
Channel positions : Front: L C R, Side: L R, LFE
Sampling rate : 48.0 KHz
Stream size : 141 MiB (8%)
Language : Russian
Audio #2
ID : 3
Format : AC-3
Format/Info : Audio Coding 3
Mode extension : CM (complete main)
Codec ID : A_AC3
Duration : 44mn 0s
Bit rate mode : Constant
Bit rate : 384 Kbps
Channel(s) : 6 channels
Channel positions : Front: L C R, Side: L R, LFE
Sampling rate : 48.0 KHz
Stream size : 121 MiB (7%)
Language : Ukrainian
Audio #3
ID : 4
Format : AC-3
Format/Info : Audio Coding 3
Mode extension : CM (complete main)
Codec ID : A_AC3
Duration : 44mn 0s
Bit rate mode : Constant
Bit rate : 384 Kbps
Channel(s) : 6 channels
Channel positions : Front: L C R, Side: L R, LFE
Sampling rate : 48.0 KHz
Stream size : 121 MiB (7%)
Language : English
Text #1
ID : 5
Format : UTF-8
Codec ID : S_TEXT/UTF8
Codec ID/Info : UTF-8 Plain Text
Language : Russian
Text #2
ID : 6
Format : UTF-8
Codec ID : S_TEXT/UTF8
Codec ID/Info : UTF-8 Plain Text
Language : English

Скриншоты

[Profile]  [PM] 
Display posts:    
Reply to topic

Current time is: 27-Sep 07:58

All times are UTC + 2



You cannot post new topics in this forum
You cannot reply to topics in this forum
You cannot edit your posts in this forum
You cannot delete your posts in this forum
You cannot vote in polls in this forum
You cannot attach files in this forum
You cannot download files in this forum