Шерлок Холмс / Шерлок / Sherlock / Сезон: 1 / Серии: 1-3 из 3 / Сезон: 2 / Серии: 1-2 из 3 (Пол МакГиган) [2010, 2012, детектив, DVB] Dub (Первый Канал)

Reply to topic
 
Author
Message

mario-OS ®

Gender: Male

Longevity: 12 years

Posts: 575

Reputation: 31 [+] [-]

Location: ...из страны, где шлюха стоит всего лишь доллар, солнце всегда и везде (с)

mario-OS · Post 09-Jan-2012 23:25

[Quote] 

Шерлок Холмс / SherlockВерсия от Первого Канала- Год выпуска: 2010, 2012
Страна: Великобритания
Производство: Hartswood Films, BBC Wales, Masterpiece Theatre
Жанр: детектив
Продолжительность:
1 Сезон: 01:28:08 + 01:28:21 + 01:29:06
2 Сезон: 01:29:29 + 01:28:19
Перевод: Профессиональное полное дублирование (Первый Канал)
Русские субтитры: нет
Субтитры: отсутствуют
Режиссёр: Пол МакГиган
В ролях: Бенедикт Камбербэтч, Мартин Фриман, Руперт Грейвз, Уна Стаббс, Лу Брили, Зои Телфорд, Питер Брук, Джемма Чан, Виннет Робинсон, Джини Спар
Описание: Сериал "Шерлок" от телеканала ВВС основан на работах сэра Артура Конан Дойля, но действие перенесено в наше время.
Раздача обновлена: 09.01.2012, добаввлена 2 серия 2.
Следующая серия "Рейхенбахский водопад" выйдет 16.01.2012!

Список серий 1 Сезон

1 Серия. "Этюд в розовых тонах". 2010 год. Четыре таинственных самоубийства, следующих друг за другом, ставят в тупик лондонскую полицию. Инспектор Скотланд-Ярда Лестрейд обращается за помощью к детективу-консультанту Шерлоку Холмсу. Вместе со своим компаньоном доктором Уотсоном Холмс осматривает заброшенный дом - последнее место происшествия, где найдена мертвой женщина, одетая в розовое. Перед смертью погибшая хотела написать какое-то слово. Используя свое излюбленное орудие — метод дедукции, Холмс приходит к выводу, что все четыре эпизода - дело рук серийного убийцы…-2 Серия. "Слепой банкир". Университетский приятель Холмса приглашает его расследовать взлом в кабинете президента банка. Воры ничего не взяли, но оставили на стене странные знаки. Холмсу удается вычислить человека, которому адресовано это послание. Им оказывается брокер Ван Кун. Но его обнаруживают застреленным в комнате с закрытыми изнутри окнами и дверями. Вскоре происходит еще одно убийство - журналист с огнестрельным ранением найден у себя дома. В деле фигурируют все те же странные знаки…-3 Серия. "Большая игра". К Шерлоку обращается его брат Майкрофт с просьбой расследовать смерть госслужащего Эндрю Веста, в руках которого оказалась секретные чертежи ракет. Холмс отказывает. Он намерен заняться делом о взрыве в доме напротив Бейкер-стрит, 221Б, которое предложил ему Лестрейд. Подрывник оставил Шерлоку послание – мобильный телефон с фотографией некой комнаты. А вскоре, на подброшенный Холмсу мобильный поступает звонок от неизвестной плачущей женщины, которая сообщает, что у Шерлока есть только 24 часа на решение предложенной ему загадки, иначе подрывник продолжит свое дело...

Список серий 2 Сезон

1 Серия. "Скандал в Белгравии". Таинственное происшествие под Лондоном вызывает интерес Шерлока. Но когда он решает вплотную заняться делом о заглохшей машине, Майкрофт неожиданно просит о помощи. Щекотливая история об аферистке Ирэн Адлер и двусмысленных фотографиях, компрометирующих самых высокопоставленных лиц страны, перерастает в дело, напрямую затрагивающее вопросы национальной безопасности. Чем обернется оно для прославленного сыщика?-2 Серия. "Собаки Баскервиля". К Шерлоку за помощью обращается сэр Генри. В детстве, он стал свидетелем гибели своего отца из-за гигантской собаки-монстра. С тех пор Генри преследуют ночные кошмары, а теперь к ним добавились еще и страшные предчувствия. Шерлок и Ватсон отправляются в поместье Генри. Недалеко от него, в местечке Баскервиль, находится военная база, на которой проводят сверхсекретные эксперименты…
-Доп. информация: Локализованная версия от Первого канала.-SAMPLE-Качество: DVB
Формат: MPEG-PS
Видео кодек: MPEG2
Аудио кодек: MPEG1 Layer 2
Видео: MPEG2 Video, 704x576 (16:9), 25.00fps, ~2055 Kbps avg, 0.203 bit/pixel;
Аудио: MPEG Audio Layer 2, 48000Hz stereo, ~192kbps avg-

Скриншоты

MI

General
Complete name : D:\Sherlock\Sherlock.2x01.Remux.mpg
Format : MPEG-PS
File size : 1.43 GiB
Duration : 1h 29mn
Overall bit rate mode : Variable
Overall bit rate : 2 293 Kbps
Video
ID : 224 (0xE0)
Format : MPEG Video
Format version : Version 2
Format profile : Main@Main
Format settings, BVOP : Yes
Format settings, Matrix : Custom
Duration : 1h 29mn
Bit rate mode : Variable
Bit rate : 2 055 Kbps
Maximum bit rate : 15.0 Mbps
Width : 704 pixels
Height : 576 pixels
Display aspect ratio : 16:9
Frame rate : 25.000 fps
Standard : PAL
Color space : YUV
Chroma subsampling : 4:2:0
Bit depth : 8 bits
Compression mode : Lossy
Bits/(Pixel*Frame) : 0.203
Stream size : 1.28 GiB (90%)
Audio
ID : 192 (0xC0)
Format : MPEG Audio
Format version : Version 1
Format profile : Layer 2
Duration : 1h 29mn
Bit rate mode : Constant
Bit rate : 192 Kbps
Channel(s) : 2 channels
Sampling rate : 48.0 KHz
Compression mode : Lossy
Delay relative to video : -80ms
Stream size : 123 MiB (8%)
[Profile]  [PM] 
Display posts:    
Reply to topic

Current time is: 20-Sep 13:14

All times are UTC + 2



You cannot post new topics in this forum
You cannot reply to topics in this forum
You cannot edit your posts in this forum
You cannot delete your posts in this forum
You cannot vote in polls in this forum
You cannot attach files in this forum
You cannot download files in this forum