Нарко / Барыги / Narcos (Сезон 1, Серия 1-10 из 10) (Жозе Падилья, Гильермо Наварро) [2015, Драма, криминал, WEBDLRip 1080р] [MVO] [LostFilm, NewStudio + Subs Rus, ENG]

Reply to topic
 
Author
Message

Враг Нароода ®

Gender: Unknown

Longevity: 5 years 5 months

Posts: 393

Reputation: 1 [+] [-]

Враг Нароода · Post 13-Oct-2015 21:49

[Quote] 

-- --Нарко / Барыги / Narcos Сезон 1, Серия 1-10 из 10-- --Год выпуска: 2015
Выпущено: США , Gaumont International Television
Жанр: Драма, криминал
Сезон: 1
Серии: 1-10
Количество серий в сезоне: 10
Продолжительность:00:50:00
Озвучка 1: Профессиональный многоголосый -LostFilm
Озвучка 2: Профессиональный многоголосый - NewStudio
Субтитры: :Русские, Английские-- --Режиссер: Жозе Падилья, Гильермо Наварро.--Сценаристы:
Даг Миро, Карло Бернард, Крис Бранкато, Пол Экстайн.
--В ролях: Вагнер Моура (Пабло Эскобар), Бойд Холбрук (Стив Мерфи), Морис Комт (Горацио Каррилло), Педро Паскаль (Хавьер Пенья), Джоанна Кристи (Конни Мерфи), Роберто Урбина (Фабио), Ана де ла Регера (Элиза).-- О сериале "Барыги" — «Барыги» — основанная на реальных событиях криминальная драма телеканала Netflix, которая начинается как история одного полицейского, повествующего о том, что его служба опасна и трудна. Однако вскоре зритель с головой погружается в атмосферу закулисья главной нарковойны Америки — войны с кокаиновым королем Пабло Эскобаром. Благодаря серьезному подходу создателей проекта к теме наркотрафика «Барыги» придутся по вкусу всем поклонникам эпичных телевизионных проектов, в центре внимания которых оказываются не только главные действующие лица истории, но и тщательный анализ определенного явления в целом, в данном случае — становления криминальной империи Пабло Эскобара. Сюжет: Начав с продажи первых скромных партий белого порошка, переправленных мелкими контрабандистами в Майами, никому не известный колумбийский жулик Пабло Эскобар за каких-то пару лет умудрился поставить на колени этот жадный до развлечений город. Тем временем местные органы правопорядка оказались вынуждены бросить все свои силы в борьбу с наркотрафиком, чтобы хоть как-то проредить горы белого порошка, пересекающие границу страны. Главный герой драмы — обычный полицейский, который честно выполняет свою работу, отлавливая и отправляя в тюрьму одного драгдилера за другим. Однако масштабы кокаиновой катастрофы таковы, что правоохранительным органам Майами оказывается не под силу противостоять самоуверенному и невероятно наглому барыге Эскобару. Последний вовлекает в свой бизнес все больше и больше жаждущих легкой наживы людей, подкупает полицейских начальников, самозабвенно плюет на все законы и к началу 80-х годов буквально заваливает Майами высококачественным и пользующимся невероятной популярностью психостимулятором..-- --Качество :WEB-DLRip-AVC 1080p
Формат: MKV
Видео кодек: H264
Видео: 6424Кбит/сек,1920х1080(16.9),в 23.976кадр/сек,AVC(High@L4.1)(CABAC/4 Ref Frames)
Аудио Кодек:AC3
Аудио #1:AC3 , 640 Kbps, 48.0 KHz, 6 ch- -LostFilm
Аудио #2:AC3 , 640 Kbps, 48.0 KHz, 6 ch- -NewStudio
Аудио #3: AC3, 640Kbps, 48.0 KHz,6 ch - - English--

Доп. информация:

Звуковая дорожка сделана путем наложения чистого голоса озвучивателей на центральный канал оригинальной дорожки. Качество идентично звуковой дорожке.
--

Список эпизодов сезона


01. Падение (Descenso) - 00:56:42
02. Сабля Симона Боливара (The Sword of Simón Bolivar) - 00:45:48
03. Вечные люди (The Men of Always) - 00:45:43
04. Дворец в огне (The Palace in Flames) - 00:43:13
05. Будущее грядет (There Will Be a Future) - 00:54:28
06. Взрывчатка (Explosivos) - 00:49:19
07. Ты умоешься кровавыми слезами (You Will Cry Tears of Blood) - 00:50:33
08. Великая ложь (La Gran Mentira) - 00:50:57
09. Ла Катедраль (La Catedral) - 00:50:56
10. Взлёт (Despegue) - 00:44:45
--

MediaInfo сезона

Общее
Уникальный идентификатор : 202925900567384996154179938914083187554 (0x98AA1B59D47C4EAC8CBA90085FDAAB62)
Полное имя : E:\К ИНО\С Е Р И А Л Ы\Н А Р К О\Narcos_2015_S01_WEB-DLRip_1080p_N.B_2xRus_Eng\Narcos_2015_S01E01_WEB-DLRip_1080p_N.B_2xRus_Eng.mkv
Формат : Matroska
Версия формата : Version 4 / Version 2
Размер файла : 3,39 Гбайт
Продолжительность : 56 м.
Общий поток : 8514 Кбит/сек
Название фильма : Narcos_S01E01_2015_WEB-DLRip_1080p_N.B_2xRus_Eng
Дата кодирования : UTC 2015-10-06 15:24:18
Программа кодирования : mkvmerge v8.3.0 ('Over the Horizon') 64bit
Библиотека кодирования : libebml v1.3.1 + libmatroska v1.4.2
DURATION : 00:54:28.849000000
NUMBER_OF_FRAMES : 415
NUMBER_OF_BYTES : 13797
_STATISTICS_WRITING_APP : mkvmerge v8.3.0 ('Over the Horizon') 64bit
_STATISTICS_WRITING_DATE_UTC : 2015-10-06 15:24:18
_STATISTICS_TAGS : BPS DURATION NUMBER_OF_FRAMES NUMBER_OF_BYTES
Видео
Идентификатор : 1
Формат : AVC
Формат/Информация : Advanced Video Codec
Профиль формата : High@L4.1
Параметр CABAC формата : Да
Параметр ReFrames формата : 4 кадра
Идентификатор кодека : V_MPEG4/ISO/AVC
Продолжительность : 56 м.
Битрейт : 6424 Кбит/сек
Ширина : 1920 пикселей
Высота : 1080 пикселей
Соотношение сторон : 16:9
Режим частоты кадров : Постоянный
Частота кадров : 23,976 кадра/сек
Цветовое пространство : YUV
Субдискретизация насыщенности : 4:2:0
Битовая глубина : 8 бит
Тип развёртки : Прогрессивная
Бит/(Пиксели*Кадры) : 0.129
Размер потока : 2,56 Гбайт (75%)
Библиотека кодирования : x264 core 144 r2525 40bb568
Настройки программы : cabac=1 / ref=4 / deblock=1:-3:-3 / analyse=0x3:0x133 / me=umh / subme=10 / psy=1 / psy_rd=1.00:0.00 / mixed_ref=1 / me_range=48 / chroma_me=1 / trellis=2 / 8x8dct=1 / cqm=0 / deadzone=21,11 / fast_pskip=0 / chroma_qp_offset=-2 / threads=12 / lookahead_threads=2 / sliced_threads=0 / nr=0 / decimate=0 / interlaced=0 / bluray_compat=0 / constrained_intra=0 / bframes=8 / b_pyramid=2 / b_adapt=2 / b_bias=0 / direct=3 / weightb=1 / open_gop=0 / weightp=2 / keyint=250 / keyint_min=24 / scenecut=40 / intra_refresh=0 / rc=crf / mbtree=0 / crf=18.0 / qcomp=0.60 / qpmin=0 / qpmax=69 / qpstep=4 / ip_ratio=1.40 / pb_ratio=1.30 / aq=1:0.65
Язык : English
Default : Да
Forced : Нет
DURATION : 00:56:56.413000000
NUMBER_OF_FRAMES : 81912
NUMBER_OF_BYTES : 2815752595
_STATISTICS_WRITING_APP : mkvmerge v8.3.0 ('Over the Horizon') 64bit
_STATISTICS_WRITING_DATE_UTC : 2015-10-06 15:24:18
_STATISTICS_TAGS : BPS DURATION NUMBER_OF_FRAMES NUMBER_OF_BYTES
Аудио #1
Идентификатор : 2
Формат : AC-3
Формат/Информация : Audio Coding 3
Расширение режима : CM (complete main)
Параметр Endianness формата : Big
Идентификатор кодека : A_AC3
Продолжительность : 56 м.
Вид битрейта : Постоянный
Битрейт : 640 Кбит/сек
Каналы : 6 каналов
Расположение каналов : Front: L C R, Side: L R, LFE
Частота : 48,0 КГц
Метод сжатия : С потерями
Размер потока : 261 Мбайт (8%)
Default : Да
Forced : Нет
Аудио #2
Идентификатор : 3
Формат : AC-3
Формат/Информация : Audio Coding 3
Расширение режима : CM (complete main)
Параметр Endianness формата : Big
Идентификатор кодека : A_AC3
Продолжительность : 56 м.
Вид битрейта : Постоянный
Битрейт : 640 Кбит/сек
Каналы : 6 каналов
Расположение каналов : Front: L C R, Side: L R, LFE
Частота : 48,0 КГц
Метод сжатия : С потерями
Размер потока : 261 Мбайт (8%)
Default : Нет
Forced : Нет
Аудио #3
Идентификатор : 4
Формат : AC-3
Формат/Информация : Audio Coding 3
Расширение режима : CM (complete main)
Параметр Endianness формата : Big
Идентификатор кодека : A_AC3
Продолжительность : 56 м.
Вид битрейта : Постоянный
Битрейт : 640 Кбит/сек
Каналы : 6 каналов
Расположение каналов : Front: L C R, Side: L R, LFE
Частота : 48,0 КГц
Метод сжатия : С потерями
Размер потока : 261 Мбайт (8%)
Default : Нет
Forced : Нет
Текст #1
Идентификатор : 5
Формат : UTF-8
Идентификатор кодека : S_TEXT/UTF8
Идентификатор кодека/Информация : UTF-8 Plain Text
Default : Да
Forced : Нет
Текст #2
Идентификатор : 6
Формат : UTF-8
Идентификатор кодека : S_TEXT/UTF8
Идентификатор кодека/Информация : UTF-8 Plain Text
Default : Нет
Forced : Нет
Текст #3
Идентификатор : 7
Формат : UTF-8
Идентификатор кодека : S_TEXT/UTF8
Идентификатор кодека/Информация : UTF-8 Plain Text
Default : Нет
Forced : Нет
--

Скриншоты

-- --

Как закачать отдельный файл

1. Открыть торрент
2. Снять галки с тех файлов торрента, которые мы не хотим закачивать. Оставляем только на нужных нам файлах (файле).
3. Нажать О.К.
В клиенте utorrent
Инструкция
1) Открыть торрент

2) Снять галки с тех файлов торрента, которые мы не хотим закачивать:
* либо вручную, снимая с каждого файла галку( скрин №1)
* либо, нажав кнопку "Снять метки (Select None)", сняв сразу со всех файлов(скрин №2)
№1

№2

Оставляем только на нужных нам файлах (файле).

3)Нажать О.К
-- -- --Релиз от: Nikolai.Baranov -- -- -- --
[Profile]  [PM] 
Display posts:    
Reply to topic

Current time is: 17-Feb 13:53

All times are UTC + 2



You cannot post new topics in this forum
You cannot reply to topics in this forum
You cannot edit your posts in this forum
You cannot delete your posts in this forum
You cannot vote in polls in this forum
You cannot attach files in this forum
You cannot download files in this forum