Эш против Зловещих мертвецов / Ash vs Evil Dead (Сезон 1, Серия 1-10 из 10) (Майкл Херст, Рик Джейкобсон, Сэм Рэйми) [2015, Ужасы, боевик, комедия, WEBDLRip 720р] [MVO] [Novamedia, Goblin] + [Subs Rus, Eng]

Reply to topic
 
Author
Message

Враг Нароода ®

Gender: Unknown

Longevity: 5 years 7 months

Posts: 408

Reputation: 1 [+] [-]

Враг Нароода · Post 01-Nov-2015 21:32

[Quote] 

--Эш против Зловещих мертвецов / Ash vs Evil Dead Сезон 1, Серия 1-10 из 10 -- --Год выпуска: 2015
Выпущено: США ,Starz, Renaissance Pictures
Жанр: Ужасы, боевик, комедия
Продолжительность: 00:42:00
Сезон:1
Серия: 1-10
Количество серий в сезоне: 10
Озвучка 1: Профессиональный многоголосый -Novamedia по заказу Amedia
Озвучка 2: Авторский одноголосый -Дмитрий Пучков-[Goblin]
Озвучка 3: Профессиональный многоголосый - Английский - Оригинал
Субтитры: :Русские , Английские-- --Режиссер: Майкл Херст, Рик Джейкобсон, Сэм Рэйми--В ролях: Брюс Кэмпбелл, Джилл Мари Джонс, Дэна ДеЛоренцо, Люси Лоулесс, Рэй Сантьяго, Мими Роджерс, Хемки Мадера, Фил Пелетон, Дэмиен Гарви и др.-- 30 лет он избегал ответственности за свои поступки, упорно старался не взрослеть и не особо стремился вновь встретиться с ожившими мертвецами. Но, совершив ошибку, Эш узнает, что проказа кандарийских демонов угрожает распространиться по всей планете и ему снова приходится вступить в схватку с полчищами мертвой нечисти. Реки крови, горы трупов и, конечно, искрометный черный юмор – отличный подарок всем любителям ужасов, комедий, крови, треша и угара.-- --Качество :WEB-DLRip-AVC 720p
Формат: MKV
Видео кодек: H264
Видео: 5787Кбит/сек,1272х716(16.9),в 25.000кадр/сек,AVC (High@L4.1)(CABAC/9 Ref Frames)
Аудио Кодек:AC3
Аудио #1:AC3 , 384 Kbps, 48.0 KHz, 6 ch- -Novamedia
Аудио #2: AC3, 384 Kbps, 48.0 KHz, 6 ch - - Goblin
Аудио #3: AC3, 384 Kbps, 48.0 KHz,6 ch - - English--

Доп. информация:

Звуковая дорожка сделана путем наложения чистого голоса озвучивателей на центральный канал оригинальной дорожки. Качество идентично звуковой дорожке.
--

MediaInfo сезона

Общее
Уникальный идентификатор : 199932423125142582209300183232826150217 (0x96699584A1EA8E8C81922D076E858D49)
Полное имя : E:\К ИНО\УЖАСЫ\Эш против Зловещих мертвецов\Ash_vs_Evil_Dead_S01_2015_S01E01_2xRus_Eng[Novamedia_&_Goblin]_DD5.1_x264_N.B_WEB-DLRip_720p\Ash_vs_Evil_Dead_S01E01_2015_S01E01_2xRus_Eng_DD5.1_x264_N.B_WEB-DLRip_720p.mkv
Формат : Matroska
Версия формата : Version 4 / Version 2
Размер файла : 2,08 Гбайт
Продолжительность : 42 м.
Общий поток : 7080 Кбит/сек
Название фильма : Ash_vs_Evil_Dead_S01E01_2015_S01E01_2xRus_Eng_DD5.1_x264_N.B_WEB-DLRip_720p
Дата кодирования : UTC 2015-11-01 15:14:57
Программа кодирования : mkvmerge v8.5.1 ('Where you lead I will follow') 64bit
Библиотека кодирования : libebml v1.3.3 + libmatroska v1.4.4
DURATION : 00:42:02.048000000
NUMBER_OF_FRAMES : 78814
NUMBER_OF_BYTES : 121058304
_STATISTICS_WRITING_APP : mkvmerge v8.5.1 ('Where you lead I will follow') 64bit
_STATISTICS_WRITING_DATE_UTC : 2015-11-01 15:14:57
_STATISTICS_TAGS : BPS DURATION NUMBER_OF_FRAMES NUMBER_OF_BYTES
Видео
Идентификатор : 1
Формат : AVC
Формат/Информация : Advanced Video Codec
Профиль формата : High@L4.1
Параметр CABAC формата : Да
Параметр ReFrames формата : 9 кадров
Идентификатор кодека : V_MPEG4/ISO/AVC
Продолжительность : 42 м.
Битрейт : 5787 Кбит/сек
Ширина : 1272 пикселя
Высота : 716 пикселей
Соотношение сторон : 16:9
Режим частоты кадров : Постоянный
Частота кадров : 25,000 кадров/сек
Частота кадров в оригинале : 23,976 кадра/сек
Цветовое пространство : YUV
Субдискретизация насыщенности : 4:2:0
Битовая глубина : 8 бит
Тип развёртки : Прогрессивная
Бит/(Пиксели*Кадры) : 0.254
Размер потока : 1,70 Гбайт (82%)
Библиотека кодирования : x264 core 148 r2597 e86f3a1
Настройки программы : cabac=1 / ref=9 / deblock=1:-3:-3 / analyse=0x3:0x133 / me=umh / subme=10 / psy=1 / psy_rd=1.10:0.00 / mixed_ref=1 / me_range=32 / chroma_me=1 / trellis=2 / 8x8dct=1 / cqm=0 / deadzone=21,11 / fast_pskip=0 / chroma_qp_offset=-2 / threads=12 / lookahead_threads=2 / sliced_threads=0 / nr=0 / decimate=0 / interlaced=0 / bluray_compat=0 / constrained_intra=0 / bframes=8 / b_pyramid=2 / b_adapt=2 / b_bias=0 / direct=3 / weightb=1 / open_gop=0 / weightp=2 / keyint=250 / keyint_min=23 / scenecut=40 / intra_refresh=0 / rc_lookahead=60 / rc=crf / mbtree=0 / crf=17.5 / qcomp=0.75 / qpmin=0 / qpmax=69 / qpstep=4 / vbv_maxrate=62500 / vbv_bufsize=78125 / crf_max=0.0 / nal_hrd=none / filler=0 / ip_ratio=1.20 / pb_ratio=1.10 / aq=3:0.70
Язык : English
Default : Да
Forced : Нет
DURATION : 00:42:01.640000000
NUMBER_OF_FRAMES : 63041
NUMBER_OF_BYTES : 1868000678
_STATISTICS_WRITING_APP : mkvmerge v8.5.1 ('Where you lead I will follow') 64bit
_STATISTICS_WRITING_DATE_UTC : 2015-11-01 15:14:57
_STATISTICS_TAGS : BPS DURATION NUMBER_OF_FRAMES NUMBER_OF_BYTES
Аудио #1
Идентификатор : 3
Формат : AC-3
Формат/Информация : Audio Coding 3
Расширение режима : CM (complete main)
Параметр Endianness формата : Big
Идентификатор кодека : A_AC3
Продолжительность : 42 м.
Вид битрейта : Постоянный
Битрейт : 384 Кбит/сек
Каналы : 6 каналов
Расположение каналов : Front: L C R, Side: L R, LFE
Частота : 48,0 КГц
Метод сжатия : С потерями
Размер потока : 115 Мбайт (5%)
Default : Да
Forced : Нет
Аудио #2
Идентификатор : 4
Формат : AC-3
Формат/Информация : Audio Coding 3
Расширение режима : CM (complete main)
Параметр Endianness формата : Big
Идентификатор кодека : A_AC3
Продолжительность : 42 м.
Вид битрейта : Постоянный
Битрейт : 384 Кбит/сек
Каналы : 6 каналов
Расположение каналов : Front: L C R, Side: L R, LFE
Частота : 48,0 КГц
Метод сжатия : С потерями
Размер потока : 115 Мбайт (5%)
Default : Нет
Forced : Нет
Аудио #3
Идентификатор : 5
Формат : AC-3
Формат/Информация : Audio Coding 3
Расширение режима : CM (complete main)
Параметр Endianness формата : Big
Идентификатор кодека : A_AC3
Продолжительность : 42 м.
Вид битрейта : Постоянный
Битрейт : 384 Кбит/сек
Каналы : 6 каналов
Расположение каналов : Front: L C R, Side: L R, LFE
Частота : 48,0 КГц
Метод сжатия : С потерями
Размер потока : 115 Мбайт (5%)
Default : Нет
Forced : Нет
Текст
Идентификатор : 2
Формат : UTF-8
Идентификатор кодека : S_TEXT/UTF8
Идентификатор кодека/Информация : UTF-8 Plain Text
Заголовок : CC
Язык : English
Default : Нет
Forced : Нет
--

Скриншоты

-- --

Как закачать отдельный файл

1. Открыть торрент
2. Снять галки с тех файлов торрента, которые мы не хотим закачивать. Оставляем только на нужных нам файлах (файле).
3. Нажать О.К.
В клиенте utorrent
Инструкция
1) Открыть торрент

2) Снять галки с тех файлов торрента, которые мы не хотим закачивать:
* либо вручную, снимая с каждого файла галку( скрин №1)
* либо, нажав кнопку "Снять метки (Select None)", сняв сразу со всех файлов(скрин №2)
№1

№2

Оставляем только на нужных нам файлах (файле).

3)Нажать О.К
-- -- --Внимание!!! 02.01. 2016. РАЗДАЧА ОБНОВЛЕНА. ФИНАЛ СЕЗОНА .ОБНОВИТЕ ТОРЕНТ ФАЙЛ.ПРИЯТНОГО ПРОСМОТРА. . --Релиз от: Nikolai.Baranov & PIRATIYA -- -- -- --
[Profile]  [PM] 
Display posts:    
Reply to topic

Current time is: 07-Apr 14:35

All times are UTC + 2



You cannot post new topics in this forum
You cannot reply to topics in this forum
You cannot edit your posts in this forum
You cannot delete your posts in this forum
You cannot vote in polls in this forum
You cannot attach files in this forum
You cannot download files in this forum