Эш против Зловещих мертвецов / Ash vs Evil Dead (Сезон 1, Серия 1-10 из 10) (Сэм Рэйми) [2015, Ужасы, боевик, комедия, HDTVRip 400р] [Novamedia, Goblin, Jaskier, Kubik V Kube, NewStudio, AlexFilm] + [Subs Rus, Eng]

Reply to topic
 
Author
Message

Враг Нароода ®

Gender: Unknown

Longevity: 7 years

Posts: 495

Reputation: 1 [+] [-]

Враг Нароода · Post 13-Dec-2015 16:45

[Quote] 

--Эш против Зловещих мертвецов / Ash vs Evil Dead Сезон 1, Серия 1-10 из 10 -- --Год выпуска: 2015
Выпущено: США ,Starz, Renaissance Pictures
Жанр: Ужасы, боевик, комедия
Продолжительность: 00:40:00
Сезон:1
Серия: 1-10
Количество серий в сезоне: 10
Озвучка 1: Профессиональный многоголосый - Novamedia по заказу Amedia
Озвучка 2: Авторский одноголосый Авторский -Дмитрий Пучков- Goblin -отдельным файлом
Озвучка 3: Профессиональный многоголосый -Jaskier -отдельным файлом Ненормативная лексика
Озвучка 4: Профессиональный Двухголосый -Кубик в кубе -отдельным файлом Ненормативная лексика
Озвучка 5: Профессиональный многоголосый - NewStudio -отдельным файлом Ненормативная лексика
Озвучка 6: Профессиональный многоголосый - AlexFilm -отдельным файлом Ненормативная лексика
Озвучка 7: Профессиональный многоголосый - Английский -отдельным файлом - Оригинал
Субтитры: :Русские , Английские -отдельным файлом-- --Режиссер: Майкл Херст, Рик Джейкобсон, Сэм Рэйми--В ролях: Брюс Кэмпбелл, Джилл Мари Джонс, Дэна ДеЛоренцо, Люси Лоулесс, Рэй Сантьяго, Мими Роджерс, Хемки Мадера, Фил Пелетон, Дэмиен Гарви и др.-- 30 лет он избегал ответственности за свои поступки, упорно старался не взрослеть и не особо стремился вновь встретиться с ожившими мертвецами. Но, совершив ошибку, Эш узнает, что проказа кандарийских демонов угрожает распространиться по всей планете и ему снова приходится вступить в схватку с полчищами мертвой нечисти. Реки крови, горы трупов и, конечно, искрометный черный юмор – отличный подарок всем любителям ужасов, комедий, крови, треша и угара.-- --Качество :HDTVRip 400р
Формат: AVI
Видео кодек: MPEG Video
Видео: 1600Кбит/сек,720х480(3.2),в 25.000кадр/сек,MPEG Video(Main@Main)
Аудио Кодек:AC3
Аудио #1:AC3 , 384 Kbps, 48.0 KHz, 6 ch- -Novamedia
Аудио #2: AC3, 384 Kbps, 48.0 KHz, 6 ch - - Goblin -отдельным файлом
Аудио #3: AC3, 384 Kbps, 48.0 KHz, 6 ch - - Jaskier -отдельным файлом
Аудио #4: AC3, 384 Kbps, 48.0 KHz, 6 ch - - Кубик в кубе -отдельным файлом
Аудио #5: AC3, 384 Kbps, 48.0 KHz, 6 ch - - NewStudio -отдельным файлом
Аудио #6: AC3, 384 Kbps, 48.0 KHz, 6 ch - - AlexFilm -отдельным файлом
Аудио #7: AC3, 384 Kbps, 48.0 KHz,6 ch - - English -отдельным файлом--

Доп. информация:

Звуковая дорожка сделана путем наложения чистого голоса озвучивателей на центральный канал оригинальной дорожки. Качество идентично звуковой дорожке.
--

MediaInfo сезона

Общее
Полное имя : D:\К О М Е Д И И\Эш против Зловещих мертвецов\Ash_vs_Evil_Dead_2015_S01_6xRus_Eng[Novamedia_Goblin_Jaskier_ Kubik_V_Kube_NewStudio_AlexFilm]_N.B_HDTVRip\Ash_vs_Evil_Dead_2015_S01E01_Rus_DD5.1_N.B_HDTVRip.avi
Формат : AVI
Формат/Информация : Audio Video Interleave
Размер файла : 558 Мбайт
Продолжительность : 39 м.
Режим общего битрейта : Переменный
Общий поток : 1995 Кбит/сек
Программа кодирования : Lavf51.12.1
Видео
Идентификатор : 0
Формат : MPEG Video
Версия формата : Version 2
Профиль формата : Main@Main
Параметр BVOP формата : Нет
Параметр матрицы формата : По умолчанию
Параметр GOP формата : N=12
Идентификатор кодека : mpg2
Идентификатор кодека/Информация : (MPEG-1/2) FFmpeg
Идентификатор кодека/Подсказка : Ffmpeg
Продолжительность : 39 м.
Вид битрейта : Переменный
Битрейт : 1600 Кбит/сек
Ширина : 720 пикселей
Высота : 480 пикселей
Соотношение сторон : 3:2
Частота кадров : 25,000 кадров/сек
Цветовое пространство : YUV
Субдискретизация насыщенности : 4:2:0
Битовая глубина : 8 бит
Тип развёртки : Прогрессивная
Метод сжатия : С потерями
Бит/(Пиксели*Кадры) : 0.185
Размер потока : 448 Мбайт (80%)
Аудио
Идентификатор : 1
Формат : AC-3
Формат/Информация : Audio Coding 3
Расширение режима : CM (complete main)
Параметр Endianness формата : Big
Идентификатор кодека : 2000
Продолжительность : 39 м.
Вид битрейта : Постоянный
Битрейт : 384 Кбит/сек
Каналы : 6 каналов
Расположение каналов : Front: L C R, Side: L R, LFE
Частота : 48,0 КГц
Частота кадров : 31,250 кадров/сек (1536 spf)
Битовая глубина : 16 бит
Метод сжатия : С потерями
Размер потока : 107 Мбайт (19%)
Выравнивание : Соединение по промежуткам
Продолжительность промежутка : 32 мс. (0,80 видеокадр)
--

Скриншоты

-- --

Как закачать отдельный файл

1. Открыть торрент
2. Снять галки с тех файлов торрента, которые мы не хотим закачивать. Оставляем только на нужных нам файлах (файле).
3. Нажать О.К.
В клиенте utorrent
Инструкция
1) Открыть торрент

2) Снять галки с тех файлов торрента, которые мы не хотим закачивать:
* либо вручную, снимая с каждого файла галку( скрин №1)
* либо, нажав кнопку "Снять метки (Select None)", сняв сразу со всех файлов(скрин №2)
№1

№2

Оставляем только на нужных нам файлах (файле).

3)Нажать О.К
-- -- --Внимание!!! 19.01. 2016. РАЗДАЧА ОБНОВЛЕНА. ФИНАЛ СЕЗОНА .ОБНОВИТЕ ТОРЕНТ ФАЙЛ.ПРИЯТНОГО ПРОСМОТРА . --Релиз от: Nikolai.Baranov & PIRATIYA -- -- -- --
[Profile]  [PM] 
Display posts:    
Reply to topic

Current time is: 20-Sep 13:49

All times are UTC + 2



You cannot post new topics in this forum
You cannot reply to topics in this forum
You cannot edit your posts in this forum
You cannot delete your posts in this forum
You cannot vote in polls in this forum
You cannot attach files in this forum
You cannot download files in this forum