Ходячие мертвецы / The Walking Dead (Грег Никотеро, Эрнест Р. Дикерсон, Гай Ферленд, ...) [S04] [2013-2014, ужасы, триллер, драма, ..., BDRip 720p] Fox Crime, LostFilm

Reply to topic
 
Author
Message

Anonym ®

Gender: Male

Reputation: 1006 [+] [-]

Anonym · Post 08-Jan-2016 03:26

[Quote] 

Название: Ходячие мертвецы
Оригинальное название: The Walking Dead
Год выхода: 2013-2014
Страна: США
Студия: American Movie Classics (AMC), Circle of Confusion, Valhalla Motion Pictures
Продолжительность: 16 x 43 мин.
Жанр: ужасы, триллер, драма, ...
Режиссер: Грег Никотеро, Эрнест Р. Дикерсон, Гай Ферленд, ...
В ролях: Эндрю Линкольн, Стивен Ян, Чендлер Риггз, Норман Ридус, Мелисса Сюзанн МакБрайд, Лорен Кохэн, Скотт Уилсон, Эмили Кинни, Сара Уэйн Кэллис, Лори Холден, ...
Перевод:
Профессиональный (многоголосый, закадровый) Fox Crime
Профессиональный (многоголосый, закадровый) LostFilm
Субтитры
О фильме: Сериал рассказывает историю жизни семьи шерифа после того, как «зомби» — эпидемия апокалиптических масштабов захлестнула земной шар. Шериф Рик Граймс путешествует со своей семьей и небольшой группой выживших в поисках безопасного места для жизни. Но постоянный страх смерти каждый день приносит тяжелые потери, заставляя героев почувствовать глубины человеческой жестокости. Рик пытается спасти свою семью, и открывает для себя, что всепоглощающий страх тех, кто выжил, может быть опаснее бессмысленных мертвецов, бродящих по земле.

Официальный сайт
Кодек: x264
Качество: BDRip 720p
Видео: 1280x720, ~7100 kbps, 23,976 fps
Аудио #1: AC-3, 6 ch, 448 kbps (Rus) - MVO Fox Crime
Аудио #2: AC-3, 6 ch, 448 kbps (Rus) - MVO LostFilm
Аудио #3: DTS, 6 ch, 1509 kbps (Eng)
Субтитры: Русские, Английские (SDH)

Дополнительная информация

01. 30 дней без происшествий / 30 Days Without an Accident
02. Зараженный / Infected
03. Изоляция / Isolation
04. Безразличие / Indifference
05. Погребение / Internment
06. Восхождение / Rise
07. Бремя / Burden
08. Мертвые рядом / Dead near
09. Кем мы стали / Who have we become
10. Заключенный / Inmates
11. Требование / Claimed
12. Безмолвные / Still
13. Одиночка / Alone
14. Роща / The Grove
15. Мы / Us
16. А / А

MI первой серии

x264 [info]: frame I:419 Avg QP:19.50 size:142607
x264 [info]: frame P:11032 Avg QP:22.93 size: 71157
x264 [info]: frame B:50397 Avg QP:24.51 size: 28767
x264 [info]: consecutive B-frames: 1.0% 1.4% 2.8% 16.4% 12.8% 29.8% 8.3% 14.8% 4.0% 1.7% 1.7% 2.9% 0.7% 0.2% 1.5%
Общее
Уникальный идентификатор : 242435364583087802324709704552411816004 (0xB6635A529A0328BE9F7B097218CBE044)
Полное имя : The Walking Dead E01 S04 2013 BDRip 720p FoxCrime LostFilm.mkv
Формат : Matroska
Версия формата : Version 2
Размер файла : 2,86 Гбайт
Продолжительность : 42 м.
Общий поток : 9524 Кбит/сек
Дата кодирования : UTC 2015-12-24 13:20:11
Программа кодирования : mkvmerge v4.0.0 ('The Stars were mine') сборка от Jun 6 2010 16:18:42
Библиотека кодирования : libebml v1.0.0 + libmatroska v1.0.0
Видео
Идентификатор : 1
Формат : AVC
Формат/Информация : Advanced Video Codec
Профиль формата : High@L4.1
Параметр CABAC формата : Да
Параметр ReFrames формата : 9 кадров
Идентификатор кодека : V_MPEG4/ISO/AVC
Продолжительность : 42 м.
Битрейт : 7121 Кбит/сек
Ширина : 1280 пикселей
Высота : 720 пикселей
Соотношение сторон : 16:9
Режим частоты кадров : Постоянный
Частота кадров : 23,976 кадра/сек
Цветовое пространство : YUV
Субдискретизация насыщенности : 4:2:0
Битовая глубина : 8 бит
Тип развёртки : Прогрессивная
Бит/(Пиксели*Кадры) : 0.322
Размер потока : 2,08 Гбайт (73%)
Библиотека кодирования : x264 core 146 r2538 121396c
Настройки программы : cabac=1 / ref=9 / deblock=1:-3:-3 / analyse=0x3:0x133 / me=umh / subme=11 / psy=1 / psy_rd=1.00:0.00 / mixed_ref=1 / me_range=32 / chroma_me=1 / trellis=2 / 8x8dct=1 / cqm=0 / deadzone=21,11 / fast_pskip=1 / chroma_qp_offset=-4 / threads=12 / lookahead_threads=2 / sliced_threads=0 / nr=0 / decimate=0 / interlaced=0 / bluray_compat=0 / constrained_intra=0 / bframes=14 / b_pyramid=2 / b_adapt=2 / b_bias=0 / direct=3 / weightb=1 / open_gop=0 / weightp=2 / keyint=240 / keyint_min=23 / scenecut=40 / intra_refresh=0 / rc_lookahead=60 / rc=2pass / mbtree=0 / bitrate=7121 / ratetol=1.0 / qcomp=0.60 / qpmin=0 / qpmax=69 / qpstep=4 / cplxblur=20.0 / qblur=0.5 / vbv_maxrate=50000 / vbv_bufsize=62500 / nal_hrd=none / filler=0 / ip_ratio=1.40 / pb_ratio=1.30 / aq=1:0.80
Язык : English
Default : Нет
Forced : Нет
Аудио #1
Идентификатор : 2
Формат : AC-3
Формат/Информация : Audio Coding 3
Расширение режима : CM (complete main)
Параметр Endianness формата : Big
Идентификатор кодека : A_AC3
Продолжительность : 42 м.
Вид битрейта : Постоянный
Битрейт : 448 Кбит/сек
Каналы : 6 каналов
Расположение каналов : Front: L C R, Side: L R, LFE
Частота : 48,0 КГц
Метод сжатия : С потерями
Размер потока : 138 Мбайт (5%)
Заголовок : Fox Crime
Язык : Russian
Default : Нет
Forced : Нет
Аудио #2
Идентификатор : 3
Формат : AC-3
Формат/Информация : Audio Coding 3
Расширение режима : CM (complete main)
Параметр Endianness формата : Big
Идентификатор кодека : A_AC3
Продолжительность : 42 м.
Вид битрейта : Постоянный
Битрейт : 448 Кбит/сек
Каналы : 6 каналов
Расположение каналов : Front: L C R, Side: L R, LFE
Частота : 48,0 КГц
Метод сжатия : С потерями
Размер потока : 138 Мбайт (5%)
Заголовок : LostFilm
Язык : Russian
Default : Нет
Forced : Нет
Аудио #3
Идентификатор : 4
Формат : DTS
Формат/Информация : Digital Theater Systems
Режим : 16
Параметр Endianness формата : Big
Идентификатор кодека : A_DTS
Продолжительность : 42 м.
Вид битрейта : Постоянный
Битрейт : 1509 Кбит/сек
Каналы : 6 каналов
Расположение каналов : Front: L C R, Side: L R, LFE
Частота : 48,0 КГц
Битовая глубина : 16 бит
Метод сжатия : С потерями
Размер потока : 464 Мбайт (16%)
Язык : English
Default : Нет
Forced : Нет
Текст #1
Идентификатор : 5
Формат : UTF-8
Идентификатор кодека : S_TEXT/UTF8
Идентификатор кодека/Информация : UTF-8 Plain Text
Язык : Russian
Default : Нет
Forced : Нет
Текст #2
Идентификатор : 6
Формат : UTF-8
Идентификатор кодека : S_TEXT/UTF8
Идентификатор кодека/Информация : UTF-8 Plain Text
Заголовок : SDH
Язык : English
Default : Нет
Forced : Нет

 
Display posts:    
Reply to topic

Current time is: 30-Mar 20:24

All times are UTC + 2



You cannot post new topics in this forum
You cannot reply to topics in this forum
You cannot edit your posts in this forum
You cannot delete your posts in this forum
You cannot vote in polls in this forum
You cannot attach files in this forum
You cannot download files in this forum