Бойтесь ходячих мертвецов / Fear the Walking Dead (Сезон 1-2, Серия 1-21 из 21) (Адам Дэвидсон) [2015-2016, Ужасы, драма ,WEB-DLRip 1080p] [DD5.1] [MVO] [LostFilm ,AMC , NewStudio , BaibaKo , HamsterStudio , Kubik V Kube + Subs Rus,ENG]

Reply to topic
 
Author
Message

Враг Нароода ®

Gender: Unknown

Longevity: 7 years

Posts: 496

Reputation: 1 [+] [-]

Враг Нароода · Post 17-Apr-2016 22:07

[Quote] 

-- --Бойтесь ходячих мертвецов / Fear the Walking Dead (Сезон 1-2 , Серия 1-21 из 21-- --Год выпуска: 2015-2016
Выпущено:США ,AMC Studios
Жанр: Ужасы , драма
Сезон: 1-2
Серии: 1-21
Количество серий в сезоне: 21
Продолжительность:00:45:00
Озвучка 1: Профессиональный многоголосый -LostFilm
Озвучка 2: Профессиональный многоголосый -AMC
Озвучка 3: Профессиональный многоголосый - NewStudio
Озвучка 4: Профессиональный многоголосый - BaibaKo
Озвучка 5: Профессиональный многоголосый - HamsterStudio
Озвучка 6: Профессиональный двухголосый -Kubik_V_Kube
Озвучка 7 :Английский : - Оригинал
Субтитры: :Русские, Английские--Сайт сериала:
--Режиссер: Адам Дэвидсон, Кэри Скоглэнд, Стефан Шварц--Сценаристы: Дэйв Эриксон, Роберт Киркман, Чарли Адлард, Джек Лоджудиче, Тони Мур.--В ролях: Клифф Кёртис, Ким Диккенс, Алисия Дебнем-Кери, Фрэнк Диллэйн, Рубен Блэйдс, Мерседес Масон, Колман Доминго, Лоренцо Джеймс Хенри, Элизабет Родригес, Тони Френч-- Начало эпопеи…
Вот и вышла в свет первая серия сериала «Бойся Ходячих Мертвецов». Долгожданный спин-офф сериала «Ходячие Мертвецы», который ждали многие и вот дождались. Со стороны, если посмотреть, сериал в плане монтажа, грима, и самого стиля очень похож на первоначальный сериал. И это не удивительно, ведь его создали те же самые режиссеры, продюсеры и сценаристы, которые создали Ходячих, что очень радует. Киркман уже стал профи в этом деле, по плану зомби — он мастер.
Перейдем к плюсам и минусам:
Первый и главный плюс — атмосфера.
Все что происходит в сериале, отражается на всей атмосфере сериала и франшизы. Не многие могут создать два сериала схожих между собой, и оба из них станут бомбой. Оба сериала по своей атмосфере пока что, отличаются, подчеркиваю, пока что! Так как, «Бойся Ходячих Мертвецов» ожидает быть эпичным, так же как и «Ходячие Мертвецы». Оба сериала дополняют друг друга, а их атмосфера, делает их лучше.
Второй плюс — сюжет.
В отличии от первого сериала, в этом нам расскажут как появился зомби-вирус, как все начиналось, и как зарождалась эпопея. Если в персом сериале рассказывается про то, как выживают выжившие. То в «Бойся Ходячих Мертвецов» все совсем по другому. Сюжет тут абсолютно другой и возможно для кого-то он покажется более интересней. С первого сезона «Ходячих Мертвецов» все мы хотели знать, как зародился зомби-вирус, а теперь перед нами открылась такая возможность, и ни один фанат Ходячих не устоит перед ней, и обязательно посмотрит данный сериал. Возможно на это и ставил Киркман.
Третий плюс — актеры.
Конечно мы их еще очень плохо знаем. Но кое-что скажу. Все персонажи очень понравились, даже тот самый наркоман. Игру актеров я еще тоже не могу оценить, но думаю не зря выбрали именно их, и в следующих сериях они проявят свои актерские способности. Понравилась мать Ника и Эшли, амбициозная мамаша, я думаю в будущем она еще даст фору Мишон, или же Кэрол.
Четвертый плюс — грим.
Тут я много не скажу, но упомянуть я должен. он как и в обычных Ходячих идеален, ведь его делают те же самые гримеры, и подобран грим идеально. Конечно его мы тоже не очень наблюдали, но думаю он будет шикарным. Но не стоит забывать, что это только начало зомби-апокалипсиса, и грим должен быть свойственным для начала эпопеи. Так что воздержитесь от гневных отзывов, про то, что грим — ужасный.
Сериал уже затягивает с первой серии, но думаю дальше будет только лучше, и уже охота побольше этой крови, отрыва бошек в прямом смысле этого выражения, и больше настораживающей атмосферы. Всем советую его начать смотреть, ведь он только вышел и у вас есть шанс наблюдать его.

Сюжет:
Простой школьный учитель Трэвис и его девушка Мэдисон живут обычной жизнью представителей среднего класса в городе Лос-Анджелес, штат Калифорния. У Мэдисон есть двое детей от первого брака — красавица-дочь и сын-лоботряс. Трэвис пытается наладить с ними отношения и даже не подозревает, что совсем скоро на его и без того проблемную семью свалятся куда более серьезные испытания... Сначала в Городе ангелов начинают массово пропадать люди, а в Интернете появляются странные видеоролики с мест событий, напоминающие кадры из фильмов ужасов. Затем появляются слухи о каком-то загадочном вирусе неясного происхождения. Никто не хочет верить в самое страшное, но все постепенно понимают — происходит нечто неподдающееся контролю правительства или военных. Медленно, но верно Лос-Анджелес погружается в атмосферу паники и паранойи, а вопросы вроде доверия к новому папе и уважения маминых желаний или просто семейных ценностей отходят на второй план. На первом же маячит только одно слово — «Выжить». -- --Качество :WEB-DLRip-AVC 1080p
Формат: MKV
Видео кодек: H264
Видео: 5187Кбит/сек,1920х1080/1916х1076(16.9),в 23.976кадр/сек,AVC(High@L4)(CABAC/4 Ref Frames)
Аудио Кодек:AC3
Аудио #1:AC3 , 384 Kbps, 48.0 KHz, 6 ch- -LostFilm -Русский
Аудио #2: AC3, 384 Kbps, 48.0 KHz, 6 ch - -AMC -Русский
Аудио #3: AC3, 384 Kbps, 48.0 KHz, 6 ch - - NewStudio -Русский
Аудио #4: AC3, 384 Kbps, 48.0 KHz, 6 ch - - BaibaKo -Русский
Аудио #5: AC3, 384 Kbps, 48.0 KHz, 6 ch - - HamsterStudio -Русский
Аудио #6: AC3, 384 Kbps, 48.0 KHz, 6 ch - - Kubik V Kube -Русский
Аудио #7: AC3, 384 Kbps, 48.0 KHz,6 ch - - English--

Доп. информация:

Звуковая дорожка сделана путем наложения чистого голоса озвучивателей на центральный канал оригинальной дорожки. Качество идентично звуковой дорожке.
--

Список эпизодов сезона

01 Рейс 462. Часть 1 (Flight 462. Part 1)
02 Рейс 462. Часть 2 (Flight 462. Part 2)

1СЕЗОН
01 Пилот (Pilot)
02 Так близко, и все-таки далеко (So Close, Yet So Far)
03 Собака (The Dog)
04 Не исчезай (Not Fade Away)
05 Кобальт (Cobalt)
06 Хороший человек (The Good Man)

2СЕЗОН

01. Monster - Монстр
02. We All Fall Down - И мы все падём
03. Ouroboros - Уроборос
04. Blood in the Streets - Улицы в крови
05. Captive - Пленник
06. Sicut Cervus - Как лань
07. Shiva - Шива
08. Grotesque - Гротеск
09. Los Muertos - Мертвецы
10. Do Not Disturb - Не беспокоить
11. Pablo & Jessica - Пабло и Джессика
12. Pillar of Salt - Соляной столп
13. Date of Death - Дата смерти
14. Wrath - Ярость
15. North - Север
--

MediaInfo 1СЕЗОНА

Общее
Уникальный идентификатор : 187637686852847946145303985472501898351 (0x8D29B43811ABF3A38598AD55033EDC6F)
Полное имя : D:\УЖАСЫ\БОЙТЕСЬ ХОДЯЧИХ МЕРТВЕЦОВ\Fear _The _Walking _Dead_S01-S02_[LostFilm_AMC_NewStudiо_BaibaKo_HamsterStudio_Kubik V Kube]_N.B_WEB-DL_1080_Rus_Eng\S01\Fear _The _Walking _Dead_2015_S01E01_DD5.1_N.B_WEB-DL_1080_6xRus_Eng.mkv
Формат : Matroska
Версия формата : Version 4 / Version 2
Размер файла : 3,55 Гбайт
Продолжительность : 1 ч. 4 м.
Общий поток : 7879 Кбит/сек
Название фильма : Fear _The _Walking _Dead_2015_S01E01_DD5.1_N.B_WEB-DL_1080_6xRus_Eng
Дата кодирования : UTC 2016-04-16 14:38:51
Программа кодирования : mkvmerge v9.0.1 ('Obstacles') 64bit
Библиотека кодирования : libebml v1.3.3 + libmatroska v1.4.4
Видео
Идентификатор : 1
Формат : AVC
Формат/Информация : Advanced Video Codec
Профиль формата : High@L4
Параметр CABAC формата : Да
Параметр ReFrames формата : 4 кадра
Идентификатор кодека : V_MPEG4/ISO/AVC
Продолжительность : 1 ч. 4 м.
Битрейт : 5187 Кбит/сек
Ширина : 1920 пикселей
Высота : 1080 пикселей
Соотношение сторон : 16:9
Режим частоты кадров : Постоянный
Частота кадров : 23,976 (24000/1001) кадра/сек
Цветовое пространство : YUV
Субдискретизация насыщенности : 4:2:0
Битовая глубина : 8 бит
Тип развёртки : Прогрессивная
Бит/(Пиксели*Кадры) : 0.104
Размер потока : 2,34 Гбайт (66%)
Язык : English
Default : Да
Forced : Нет
Цветовой диапазон : Limited
Основные цвета : BT.709
Характеристики трансфера : BT.709
Коэффициенты матрицы : BT.709
Аудио #1
Идентификатор : 4
Формат : AC-3
Формат/Информация : Audio Coding 3
Расширение режима : CM (complete main)
Параметр Endianness формата : Big
Идентификатор кодека : A_AC3
Продолжительность : 1 ч. 4 м.
Вид битрейта : Постоянный
Битрейт : 384 Кбит/сек
Каналы : 6 каналов
Расположение каналов : Front: L C R, Side: L R, LFE
Частота : 48,0 КГц
Частота кадров : 31,250 кадров/сек (1536 spf)
Метод сжатия : С потерями
Размер потока : 177 Мбайт (5%)
Заголовок : LostFilm
Язык : Russian
Default : Да
Forced : Нет
Аудио #2
Идентификатор : 5
Формат : AC-3
Формат/Информация : Audio Coding 3
Расширение режима : CM (complete main)
Параметр Endianness формата : Big
Идентификатор кодека : A_AC3
Продолжительность : 1 ч. 4 м.
Вид битрейта : Постоянный
Битрейт : 384 Кбит/сек
Каналы : 6 каналов
Расположение каналов : Front: L C R, Side: L R, LFE
Частота : 48,0 КГц
Частота кадров : 31,250 кадров/сек (1536 spf)
Метод сжатия : С потерями
Размер потока : 177 Мбайт (5%)
Заголовок : AMC
Язык : Russian
Default : Нет
Forced : Нет
Аудио #3
Идентификатор : 6
Формат : AC-3
Формат/Информация : Audio Coding 3
Расширение режима : CM (complete main)
Параметр Endianness формата : Big
Идентификатор кодека : A_AC3
Продолжительность : 1 ч. 4 м.
Вид битрейта : Постоянный
Битрейт : 384 Кбит/сек
Каналы : 6 каналов
Расположение каналов : Front: L C R, Side: L R, LFE
Частота : 48,0 КГц
Частота кадров : 31,250 кадров/сек (1536 spf)
Метод сжатия : С потерями
Размер потока : 177 Мбайт (5%)
Заголовок : NewStudio
Язык : Russian
Default : Нет
Forced : Нет
Аудио #4
Идентификатор : 7
Формат : AC-3
Формат/Информация : Audio Coding 3
Расширение режима : CM (complete main)
Параметр Endianness формата : Big
Идентификатор кодека : A_AC3
Продолжительность : 1 ч. 4 м.
Вид битрейта : Постоянный
Битрейт : 384 Кбит/сек
Каналы : 6 каналов
Расположение каналов : Front: L C R, Side: L R, LFE
Частота : 48,0 КГц
Частота кадров : 31,250 кадров/сек (1536 spf)
Метод сжатия : С потерями
Размер потока : 177 Мбайт (5%)
Заголовок : BaibaKo
Язык : Russian
Default : Нет
Forced : Нет
Аудио #5
Идентификатор : 8
Формат : AC-3
Формат/Информация : Audio Coding 3
Расширение режима : CM (complete main)
Параметр Endianness формата : Big
Идентификатор кодека : A_AC3
Продолжительность : 1 ч. 4 м.
Вид битрейта : Постоянный
Битрейт : 384 Кбит/сек
Каналы : 6 каналов
Расположение каналов : Front: L C R, Side: L R, LFE
Частота : 48,0 КГц
Частота кадров : 31,250 кадров/сек (1536 spf)
Метод сжатия : С потерями
Задержка видео : 15 мс.
Размер потока : 177 Мбайт (5%)
Заголовок : HamsterStudio
Язык : Russian
Default : Нет
Forced : Да
Аудио #6
Идентификатор : 9
Формат : AC-3
Формат/Информация : Audio Coding 3
Расширение режима : CM (complete main)
Параметр Endianness формата : Big
Идентификатор кодека : A_AC3
Продолжительность : 1 ч. 4 м.
Вид битрейта : Постоянный
Битрейт : 384 Кбит/сек
Каналы : 6 каналов
Расположение каналов : Front: L C R, Side: L R, LFE
Частота : 48,0 КГц
Частота кадров : 31,250 кадров/сек (1536 spf)
Метод сжатия : С потерями
Размер потока : 177 Мбайт (5%)
Заголовок : Kubik V Kube
Язык : Russian
Default : Нет
Forced : Нет
Аудио #7
Идентификатор : 10
Формат : AC-3
Формат/Информация : Audio Coding 3
Расширение режима : CM (complete main)
Параметр Endianness формата : Big
Идентификатор кодека : A_AC3
Продолжительность : 1 ч. 4 м.
Вид битрейта : Постоянный
Битрейт : 384 Кбит/сек
Каналы : 6 каналов
Расположение каналов : Front: L C R, Side: L R, LFE
Частота : 48,0 КГц
Частота кадров : 31,250 кадров/сек (1536 spf)
Метод сжатия : С потерями
Размер потока : 177 Мбайт (5%)
Заголовок : original
Язык : English
Default : Нет
Forced : Нет
Текст #1
Идентификатор : 2
Формат : UTF-8
Идентификатор кодека : S_TEXT/UTF8
Идентификатор кодека/Информация : UTF-8 Plain Text
Продолжительность : 1 ч. 3 м.
Битрейт : 69 бит/сек
Count of elements : 662
Размер потока : 32,5 Кбайт (0%)
Заголовок : rus
Язык : Russian
Default : Нет
Forced : Нет
Текст #2
Идентификатор : 3
Формат : UTF-8
Идентификатор кодека : S_TEXT/UTF8
Идентификатор кодека/Информация : UTF-8 Plain Text
Продолжительность : 1 ч. 3 м.
Битрейт : 81 бит/сек
Count of elements : 898
Размер потока : 38,0 Кбайт (0%)
Заголовок : CC
Язык : English
Default : Нет
Forced : Нет
--

MediaInfo 2СЕЗОНА

Общее
Уникальный идентификатор : 210053160193484778243999804553097669268 (0x9E06C4618429FCF19D68B29962606A94)
Полное имя : D:\УЖАСЫ\БОЙТЕСЬ ХОДЯЧИХ МЕРТВЕЦОВ\Fear _The _Walking _Dead_S01-S02_[LostFilm_AMC_NewStudiо_BaibaKo_HamsterStudio_Kubik V Kube]_N.B_WEB-DL_1080_Rus_Eng\S02\Fear _The _Walking _Dead_2016_S02E01_DD5.1_N.B_WEB-DL_1080_6xRus_Eng.mkv
Формат : Matroska
Версия формата : Version 4 / Version 2
Размер файла : 2,34 Гбайт
Продолжительность : 42 м.
Общий поток : 7811 Кбит/сек
Название фильма : Fear _The _Walking _Dead_2016_S02E01_DD5.1_N.B_WEB-DL_1080_6xRus_Eng
Дата кодирования : UTC 2016-04-17 08:47:59
Программа кодирования : mkvmerge v9.0.1 ('Obstacles') 64bit
Библиотека кодирования : libebml v1.3.3 + libmatroska v1.4.4
Видео
Идентификатор : 1
Формат : AVC
Формат/Информация : Advanced Video Codec
Профиль формата : High@L4
Параметр CABAC формата : Да
Параметр ReFrames формата : 4 кадра
Идентификатор кодека : V_MPEG4/ISO/AVC
Продолжительность : 42 м.
Битрейт : 5119 Кбит/сек
Ширина : 1916 пикселей
Высота : 1076 пикселей
Соотношение сторон : 16:9
Режим частоты кадров : Постоянный
Частота кадров : 23,976 (23976/1000) кадра/сек
Цветовое пространство : YUV
Субдискретизация насыщенности : 4:2:0
Битовая глубина : 8 бит
Тип развёртки : Прогрессивная
Бит/(Пиксели*Кадры) : 0.104
Размер потока : 1,53 Гбайт (66%)
Заголовок : Fear the Walking Dead | Season 2 (2016) | 01 - Monster (Монстр)
Язык : English
Default : Да
Forced : Нет
Цветовой диапазон : Limited
Основные цвета : BT.709
Характеристики трансфера : BT.709
Коэффициенты матрицы : BT.709
Аудио #1
Идентификатор : 3
Формат : AC-3
Формат/Информация : Audio Coding 3
Расширение режима : CM (complete main)
Параметр Endianness формата : Big
Идентификатор кодека : A_AC3
Продолжительность : 42 м.
Вид битрейта : Постоянный
Битрейт : 384 Кбит/сек
Каналы : 6 каналов
Расположение каналов : Front: L C R, Side: L R, LFE
Частота : 48,0 КГц
Частота кадров : 31,250 кадров/сек (1536 spf)
Метод сжатия : С потерями
Размер потока : 118 Мбайт (5%)
Заголовок : LostFilm
Язык : Russian
Default : Да
Forced : Нет
Аудио #2
Идентификатор : 4
Формат : AC-3
Формат/Информация : Audio Coding 3
Расширение режима : CM (complete main)
Параметр Endianness формата : Big
Идентификатор кодека : A_AC3
Продолжительность : 42 м.
Вид битрейта : Постоянный
Битрейт : 384 Кбит/сек
Каналы : 6 каналов
Расположение каналов : Front: L C R, Side: L R, LFE
Частота : 48,0 КГц
Частота кадров : 31,250 кадров/сек (1536 spf)
Метод сжатия : С потерями
Размер потока : 118 Мбайт (5%)
Заголовок : AMC
Default : Нет
Forced : Нет
Аудио #3
Идентификатор : 5
Формат : AC-3
Формат/Информация : Audio Coding 3
Расширение режима : CM (complete main)
Параметр Endianness формата : Big
Идентификатор кодека : A_AC3
Продолжительность : 42 м.
Вид битрейта : Постоянный
Битрейт : 384 Кбит/сек
Каналы : 6 каналов
Расположение каналов : Front: L C R, Side: L R, LFE
Частота : 48,0 КГц
Частота кадров : 31,250 кадров/сек (1536 spf)
Метод сжатия : С потерями
Размер потока : 118 Мбайт (5%)
Заголовок : NewStudio
Язык : Russian
Default : Нет
Forced : Да
Аудио #4
Идентификатор : 6
Формат : AC-3
Формат/Информация : Audio Coding 3
Расширение режима : CM (complete main)
Параметр Endianness формата : Big
Идентификатор кодека : A_AC3
Продолжительность : 42 м.
Вид битрейта : Постоянный
Битрейт : 384 Кбит/сек
Каналы : 6 каналов
Расположение каналов : Front: L C R, Side: L R, LFE
Частота : 48,0 КГц
Частота кадров : 31,250 кадров/сек (1536 spf)
Метод сжатия : С потерями
Размер потока : 118 Мбайт (5%)
Заголовок : BaibaKo
Язык : Russian
Default : Нет
Forced : Нет
Аудио #5
Идентификатор : 7
Формат : AC-3
Формат/Информация : Audio Coding 3
Расширение режима : CM (complete main)
Параметр Endianness формата : Big
Идентификатор кодека : A_AC3
Продолжительность : 42 м.
Вид битрейта : Постоянный
Битрейт : 384 Кбит/сек
Каналы : 6 каналов
Расположение каналов : Front: L C R, Side: L R, LFE
Частота : 48,0 КГц
Частота кадров : 31,250 кадров/сек (1536 spf)
Метод сжатия : С потерями
Размер потока : 118 Мбайт (5%)
Заголовок : HamsterStudio
Default : Нет
Forced : Нет
Аудио #6
Идентификатор : 8
Формат : AC-3
Формат/Информация : Audio Coding 3
Расширение режима : CM (complete main)
Параметр Endianness формата : Big
Идентификатор кодека : A_AC3
Продолжительность : 42 м.
Вид битрейта : Постоянный
Битрейт : 384 Кбит/сек
Каналы : 6 каналов
Расположение каналов : Front: L C R, Side: L R, LFE
Частота : 48,0 КГц
Частота кадров : 31,250 кадров/сек (1536 spf)
Метод сжатия : С потерями
Размер потока : 118 Мбайт (5%)
Заголовок : Kubik V Kube
Язык : Russian
Default : Нет
Forced : Нет
Аудио #7
Идентификатор : 9
Формат : AC-3
Формат/Информация : Audio Coding 3
Расширение режима : CM (complete main)
Параметр Endianness формата : Big
Идентификатор кодека : A_AC3
Продолжительность : 42 м.
Вид битрейта : Постоянный
Битрейт : 384 Кбит/сек
Каналы : 6 каналов
Расположение каналов : Front: L C R, Side: L R, LFE
Частота : 48,0 КГц
Частота кадров : 31,250 кадров/сек (1536 spf)
Метод сжатия : С потерями
Размер потока : 118 Мбайт (5%)
Язык : English
Default : Нет
Forced : Нет
Текст
Идентификатор : 2
Формат : UTF-8
Идентификатор кодека : S_TEXT/UTF8
Идентификатор кодека/Информация : UTF-8 Plain Text
Продолжительность : 42 м.
Битрейт : 51 бит/сек
Count of elements : 537
Размер потока : 16,0 Кбайт (0%)
Заголовок : Eng
Default : Да
Forced : Нет
--

Скриншоты

1СЕЗОН[
2СЕЗОН
-- 1СЕЗОН-- 2СЕЗОН--

Как закачать отдельный файл

1. Открыть торрент
2. Снять галки с тех файлов торрента, которые мы не хотим закачивать. Оставляем только на нужных нам файлах (файле).
3. Нажать О.К.
В клиенте utorrent
Инструкция
1) Открыть торрент

2) Снять галки с тех файлов торрента, которые мы не хотим закачивать:
* либо вручную, снимая с каждого файла галку( скрин №1)
* либо, нажав кнопку "Снять метки (Select None)", сняв сразу со всех файлов(скрин №2)
№1

№2

Оставляем только на нужных нам файлах (файле).

3)Нажать О.К
-- -- --Внимание!!!09.10. 2016. РАЗДАЧА ОБНОВЛЕНА. ФИНАЛ СЕЗОНА. ОБНОВИТЕ ТОРЕНТ ФАЙЛ.ПРИЯТНОГО ПРОСМОТРА . --Релиз от: Nikolai.Baranov & PIRATIYA -- -- -- --
[Profile]  [PM] 
Display posts:    
Reply to topic

Current time is: 27-Sep 02:16

All times are UTC + 2



You cannot post new topics in this forum
You cannot reply to topics in this forum
You cannot edit your posts in this forum
You cannot delete your posts in this forum
You cannot vote in polls in this forum
You cannot attach files in this forum
You cannot download files in this forum