Мистер Робот / Mr. Robot (Сезон 2, Серия 1-12 из 12) (Нильс Арден Оплев) [2016, Детектив, Драма, Криминал, WEB-DLRip 1080p] [MVO] [LostFilm, NewStudiо, BaibaKo, Kravec, OMSKBIRD, Kubik V Kube, English + Subs Rus, ENG]

Reply to topic
 
Author
Message

Враг Нароода ®

Gender: Unknown

Longevity: 6 years

Posts: 446

Reputation: 1 [+] [-]

Враг Нароода · Post 03-Oct-2016 10:46

[Quote] 

-- --Мистер Робот / Mr. Robot Сезон 2, Серия 1-12 из 12-- --Год выпуска: 2016
Выпущено: США ,Universal Cable Productions
Жанр: Детектив, Драма, Криминал
Продолжительность: 00:42:00
Сезон:2
Серия: 1-12
Количество серий в сезоне: 12
Озвучка 1: Профессиональный многоголосый - LostFilm-Русский
Озвучка 2: Профессиональный многоголосый - NewStudiо-Русский
Озвучка 3: Профессиональный многоголосый - Kravec-Русский
Озвучка 4: Профессиональный многоголосый -BaibaKo-Русский
Озвучка 5: Профессиональный многоголосый - Jaskier-Русский
Озвучка 6: Профессиональный многоголосый -OMSKBIRD-Русский
Озвучка 7: Профессиональный многоголосый -Kubik V Kube-Русский
Озвучка 8: Профессиональный многоголосый -Английский -Оригинал
Субтитры: Русские ,Английские
--Официальный сайт
-Режиссеры:
Нильс Арден Оплев, Сэм Эсмейл, Джим МакКэй, Тришиа Брок--Сценаристы:
Сэм Эсмейл.
--В ролях: Рами Малек (Эллиот), Брюс Олтман (Терри Колби), Майкл Бушеми (Ромеро), Самрат Чакрабарти (Рон), Карли Чаикин(Дарлин), Портия Даблдэй (Анджела Мосс), Мартин Волстром (Тайрелл Уэллик), Кристиан Слейтер (мистер Робот) и другие.-- О сериале "Мистер Робот"«Мистер Робот» — криминальная драма от автора Сэма Эсмейла, из-под пера которого вышли сценарии таких проектов, как фантастическая мелодрама «Комета» и хоррор «Пересмешник». Снимать пилотный эпизод шоу доверили Нильсу Ардену Оплеву — лауреату Берлинского кинофестиваля и постановщику известного детективного триллера «Девушка с татуировкой дракона».Сюжет: Молодому программисту Эллиоту, страдающему диссоциальным расстройством личности, тяжело находить контакт с другими людьми. Он не знает, что такое нормы общения и как вести себя в социуме. Помимо прочего, герой — талантливый хакер, чьи навыки пользуются большим спросом среди представителей фирм правительственного уровня, обеспокоенных безопасностью своей деятельности в интернете. Однажды на связь с Эллиотом выходит некий мистер Робот — анархист, хакер и лидер подпольного радикального движения, которое под прикрытием пафосных лозунгов жаждет сломать бесполезные устои прогнившей власти. Новый знакомый предлагает Эллиоту вступить в его таинственную организацию, чтобы использовать знания талантливого компьютерщика в борьбе с могущественными американскими корпорациями.-- --Качество :WEB-DLRip-AVC 1080p
Формат: MKV
Видео кодек: H264
Видео: 6080Кбит/сек,1920х1080(16.9),в 23.976кадр/сек,AVC(High@L4)(CABAC/4 Ref Frames)
Аудио Кодек:AC3
Аудио #1:AC3 , 384 Kbps, 48.0 KHz, 6 ch- -LostFilm-Русский
Аудио #2:AC3 , 384 Kbps, 48.0 KHz, 6 ch- -NewStudiо-Русский
Аудио #3: AC3, 384 Kbps, 48.0 KHz, 6 ch - Kravec-Русский
Аудио #4: AC3, 384 Kbps, 48.0 KHz, 6 ch - BaibaKo-Русский
Аудио #5: AC3, 384 Kbps, 48.0 KHz, 6 ch - Jaskier-Русский
Аудио #6: AC3, 384 Kbps, 48.0 KHz, 6 ch - OMSKBIRD-Русский
Аудио #7:: AC3, 384 Kbps, 48.0 KHz, 6 ch - Kubik V Kube-Русский
Аудио #8: AC3, 640 Kbps, 48.0 KHz,6 ch - - English-Английский -Оригинал--

Доп. информация:

Звуковая дорожка сделана путем наложения чистого голоса озвучивателей на центральный канал оригинальной дорожки. Качество идентично звуковой дорожке.
--

Список эпизодов сезона


01 Без маски, часть первая (eps2.0_unm4sk-pt1.tc)
02 м4ск4-чст2.tc (eps2.0_unm4sk-pt2.tc)
03 Сбой в ядре (eps2.1_k3rnel-pan1c.ksd)
04 инит1.asec (eps2.2_init1.asec)
05 Логическая бомба(Eps2.3_logic-b0mb.hc)
06 Ведущий/ведомый (eps2.4_m4ster-s1ave.aes)
07 Рукопожатие(h4ndshake.sme)
08 Преемник (succ3ss0r.p12)
09 Инит_5 (eps2.7_init_5.fve)
10 Скрытый процесс (eps2.8_h1dden-pr0cess.axx)
11 Питон. Часть первая (eps2.9_pyth0n-pt1.p7z)
12 Питон. Часть вторая(eps2.9_pyth0n-pt2.p7z)
--

MediaInfo сезона

Общее
Уникальный идентификатор : 214330957418895985479282815258662924157 (0xA13EA41161B745CD8863C8A46E65EF7D)
Полное имя : C:\МОЙ ДОСУГ\МИСТЕР РОБОТ\Mr_Robot_2016_S02_[LostFilm_NewStudiо_Kravec_BaibaKo_ Jaskier_OMSKBIRD_Kubik V Kube]_DD5.1_N.B_WEB-DL_1080_Rus_Eng\Mr_Robot_2016_S02Е01_DD5.1_N.B_WEB-DL_1080_7хRus_Eng.mkv
Формат : Matroska
Версия формата : Version 4 / Version 2
Размер файла : 2,69 Гбайт
Продолжительность : 40 м. 58 с.
Режим общего битрейта : Переменный
Общий поток : 9411 Кбит/сек
Название фильма : Mr_Robot_2016_S02Е01_DD5.1_N.B_WEB-DL_1080_7хRus_Eng
Дата кодирования : UTC 2016-09-26 20:21:23
Программа кодирования : mkvmerge v9.4.2 ('So High') 64bit
Библиотека кодирования : libebml v1.3.4 + libmatroska v1.4.5
Видео
Идентификатор : 1
Формат : AVC
Формат/Информация : Advanced Video Codec
Профиль формата : High@L4
Параметр CABAC формата : Да
Параметр ReFrames формата : 4 кадра
Идентификатор кодека : V_MPEG4/ISO/AVC
Продолжительность : 40 м. 58 с.
Вид битрейта : Переменный
Битрейт : 6080 Кбит/сек
Максимальный битрейт : 15,0 Мбит/сек
Ширина : 1920 пикселей
Высота : 1080 пикселей
Соотношение сторон : 16:9
Режим частоты кадров : Постоянный
Частота кадров : 23,976 (24000/1001) кадра/сек
Цветовое пространство : YUV
Субдискретизация насыщенности : 4:2:0
Битовая глубина : 8 бит
Тип развёртки : Прогрессивная
Бит/(Пиксели*Кадры) : 0.122
Размер потока : 1,74 Гбайт (65%)
Заголовок : Mr_Robot_2016_S02Е01_DD5.1_N.B_WEB-DL_1080_7хRus_Eng
Библиотека кодирования : x264 core 148 r2623 d5b2374
Настройки программы : cabac=1 / ref=4 / deblock=1:-1:-1 / analyse=0x3:0x133 / me=umh / subme=9 / psy=1 / psy_rd=1.00:0.15 / mixed_ref=1 / me_range=24 / chroma_me=1 / trellis=2 / 8x8dct=1 / cqm=0 / deadzone=21,11 / fast_pskip=1 / chroma_qp_offset=-3 / threads=34 / lookahead_threads=5 / sliced_threads=0 / nr=150 / decimate=1 / interlaced=0 / bluray_compat=0 / constrained_intra=0 / bframes=8 / b_pyramid=2 / b_adapt=2 / b_bias=0 / direct=3 / weightb=1 / open_gop=0 / weightp=2 / keyint=120 / keyint_min=61 / scenecut=0 / intra_refresh=0 / rc_lookahead=120 / rc=crf / mbtree=1 / crf=18.0 / qcomp=0.60 / qpmin=0 / qpmax=69 / qpstep=4 / vbv_maxrate=15000 / vbv_bufsize=31250 / crf_max=0.0 / nal_hrd=vbr / filler=0 / ip_ratio=1.40 / aq=3:1.00
Язык : English
Default : Да
Forced : Нет
Цветовой диапазон : Limited
Основные цвета : BT.709
Характеристики трансфера : BT.709
Коэффициенты матрицы : BT.709
Аудио #1
Идентификатор : 4
Формат : AC-3
Формат/Информация : Audio Coding 3
Расширение режима : CM (complete main)
Параметр Endianness формата : Big
Идентификатор кодека : A_AC3
Продолжительность : 40 м. 58 с.
Вид битрейта : Постоянный
Битрейт : 384 Кбит/сек
Каналы : 6 каналов
Расположение каналов : Front: L C R, Side: L R, LFE
Частота : 48,0 КГц
Частота кадров : 31,250 кадров/сек (1536 spf)
Метод сжатия : С потерями
Размер потока : 113 Мбайт (4%)
Заголовок : MVO LostFilm @DD5.1 AC3, 384 Kbps, 48.0 KHz, 6 ch
Язык : Russian
Default : Да
Forced : Нет
Аудио #2
Идентификатор : 5
Формат : AC-3
Формат/Информация : Audio Coding 3
Расширение режима : CM (complete main)
Параметр Endianness формата : Big
Идентификатор кодека : A_AC3
Продолжительность : 40 м. 58 с.
Вид битрейта : Постоянный
Битрейт : 384 Кбит/сек
Каналы : 6 каналов
Расположение каналов : Front: L C R, Side: L R, LFE
Частота : 48,0 КГц
Частота кадров : 31,250 кадров/сек (1536 spf)
Метод сжатия : С потерями
Размер потока : 113 Мбайт (4%)
Заголовок : MVO NewStudio @DD5.1 AC3, 384 Kbps, 48.0 KHz, 6 ch
Язык : Russian
Default : Нет
Forced : Нет
Аудио #3
Идентификатор : 6
Формат : AC-3
Формат/Информация : Audio Coding 3
Расширение режима : CM (complete main)
Параметр Endianness формата : Big
Идентификатор кодека : A_AC3
Продолжительность : 40 м. 58 с.
Вид битрейта : Постоянный
Битрейт : 384 Кбит/сек
Каналы : 6 каналов
Расположение каналов : Front: L C R, Side: L R, LFE
Частота : 48,0 КГц
Частота кадров : 31,250 кадров/сек (1536 spf)
Метод сжатия : С потерями
Размер потока : 113 Мбайт (4%)
Заголовок : MVO Kravec @DD5.1 AC3, 384 Kbps, 48.0 KHz, 6 ch
Язык : Russian
Default : Нет
Forced : Нет
Аудио #4
Идентификатор : 7
Формат : AC-3
Формат/Информация : Audio Coding 3
Расширение режима : CM (complete main)
Параметр Endianness формата : Big
Идентификатор кодека : A_AC3
Продолжительность : 40 м. 58 с.
Вид битрейта : Постоянный
Битрейт : 384 Кбит/сек
Каналы : 6 каналов
Расположение каналов : Front: L C R, Side: L R, LFE
Частота : 48,0 КГц
Частота кадров : 31,250 кадров/сек (1536 spf)
Метод сжатия : С потерями
Размер потока : 113 Мбайт (4%)
Заголовок : MVO BaibaKo @DD5.1 AC3, 384 Kbps, 48.0 KHz, 6 ch
Язык : Russian
Default : Нет
Forced : Нет
Аудио #5
Идентификатор : 8
Формат : AC-3
Формат/Информация : Audio Coding 3
Расширение режима : CM (complete main)
Параметр Endianness формата : Big
Идентификатор кодека : A_AC3
Продолжительность : 40 м. 58 с.
Вид битрейта : Постоянный
Битрейт : 384 Кбит/сек
Каналы : 6 каналов
Расположение каналов : Front: L C R, Side: L R, LFE
Частота : 48,0 КГц
Частота кадров : 31,250 кадров/сек (1536 spf)
Метод сжатия : С потерями
Размер потока : 113 Мбайт (4%)
Заголовок : MVO Jaskier @DD5.1 AC3, 384 Kbps, 48.0 KHz, 6 ch
Язык : Russian
Default : Нет
Forced : Нет
Аудио #6
Идентификатор : 9
Формат : AC-3
Формат/Информация : Audio Coding 3
Расширение режима : CM (complete main)
Параметр Endianness формата : Big
Идентификатор кодека : A_AC3
Продолжительность : 40 м. 58 с.
Вид битрейта : Постоянный
Битрейт : 384 Кбит/сек
Каналы : 6 каналов
Расположение каналов : Front: L C R, Side: L R, LFE
Частота : 48,0 КГц
Частота кадров : 31,250 кадров/сек (1536 spf)
Метод сжатия : С потерями
Размер потока : 113 Мбайт (4%)
Заголовок : MVO OMSKBIRD @DD5.1 AC3, 384 Kbps, 48.0 KHz, 6 ch
Язык : Russian
Default : Нет
Forced : Нет
Аудио #7
Идентификатор : 10
Формат : AC-3
Формат/Информация : Audio Coding 3
Расширение режима : CM (complete main)
Параметр Endianness формата : Big
Идентификатор кодека : A_AC3
Продолжительность : 40 м. 58 с.
Вид битрейта : Постоянный
Битрейт : 384 Кбит/сек
Каналы : 6 каналов
Расположение каналов : Front: L C R, Side: L R, LFE
Частота : 48,0 КГц
Частота кадров : 31,250 кадров/сек (1536 spf)
Метод сжатия : С потерями
Размер потока : 113 Мбайт (4%)
Заголовок : MVO Kubik V Kube @DD5.1 AC3, 384 Kbps, 48.0 KHz, 6 ch
Язык : Russian
Default : Нет
Forced : Нет
Аудио #8
Идентификатор : 11
Формат : AC-3
Формат/Информация : Audio Coding 3
Расширение режима : CM (complete main)
Параметр Endianness формата : Big
Идентификатор кодека : A_AC3
Продолжительность : 40 м. 58 с.
Вид битрейта : Постоянный
Битрейт : 640 Кбит/сек
Каналы : 6 каналов
Расположение каналов : Front: L C R, Side: L R, LFE
Частота : 48,0 КГц
Частота кадров : 31,250 кадров/сек (1536 spf)
Метод сжатия : С потерями
Размер потока : 188 Мбайт (7%)
Заголовок : Original@DD5.1 AC3 ,640 Kbps, 48.0 KHz, 6 ch
Язык : English
Default : Нет
Forced : Нет
Текст #1
Идентификатор : 2
Формат : UTF-8
Идентификатор кодека : S_TEXT/UTF8
Идентификатор кодека/Информация : UTF-8 Plain Text
Продолжительность : 40 м. 28 с.
Битрейт : 110 бит/сек
Count of elements : 566
Размер потока : 32,9 Кбайт (0%)
Заголовок : RUS
Язык : Russian
Default : Да
Forced : Нет
Текст #2
Идентификатор : 3
Формат : UTF-8
Идентификатор кодека : S_TEXT/UTF8
Идентификатор кодека/Информация : UTF-8 Plain Text
Продолжительность : 40 м. 22 с.
Битрейт : 62 бит/сек
Count of elements : 565
Размер потока : 18,5 Кбайт (0%)
Заголовок : Original
Язык : English
Default : Нет
Forced : Нет
--

Скриншоты

-- --

Как закачать отдельный файл

1. Открыть торрент
2. Снять галки с тех файлов торрента, которые мы не хотим закачивать. Оставляем только на нужных нам файлах (файле).
3. Нажать О.К.
В клиенте utorrent
Инструкция
1) Открыть торрент

2) Снять галки с тех файлов торрента, которые мы не хотим закачивать:
* либо вручную, снимая с каждого файла галку( скрин №1)
* либо, нажав кнопку "Снять метки (Select None)", сняв сразу со всех файлов(скрин №2)
№1

№2

Оставляем только на нужных нам файлах (файле).

3)Нажать О.К
-- -- --Релиз от: Nikolai.Baranov & PIRATIYA -- -- -- --
[Profile]  [PM] 
Display posts:    
Reply to topic

Current time is: 24-Sep 00:39

All times are UTC + 2



You cannot post new topics in this forum
You cannot reply to topics in this forum
You cannot edit your posts in this forum
You cannot delete your posts in this forum
You cannot vote in polls in this forum
You cannot attach files in this forum
You cannot download files in this forum