Ходячие мертвецы / The Walking Dead (Сезон 7, Серии 1-16 из 16) (Фрэнк Дарабонт, Эрнест Р. Дикерсон) [2016-2017, Ужасы, триллер, фантастика, WEB-DLRip 1080p] [LostFilm , FOX , BaibaKo , HamsterStudio , Jaskier , Uateam , English]+[Sub Rus, Eng]

Reply to topic
 
Author
Message

Враг Нароода ®

Gender: Unknown

Longevity: 5 years 5 months

Posts: 393

Reputation: 1 [+] [-]

Враг Нароода · Post 30-Nov-2016 12:12

[Quote] 

[--Ходячие мертвецы / The Walking Dead Сезон 7, Серии 1-16 из 16-- --Год выпуска: 2016-2017
Выпущено: США ,AMC Studios, Circle of Confusion, Darkwoods Productions, Valhalla Motion Pictures
Жанр: Ужасы, триллер, фантастика, экшен, зомби,апокалипсис
Продолжительность: 1 ~ 01:00:04 , 15 x ~ 00:46:07
Автор идеи: Эрнест Р. Дикерсон, Гвинет Хордер-Пэйтон
Сезон: 7
Серия: 1-16
Количество серий в сезоне: 16
Озвучка 1: Профессиональный многоголосый -LostFilm
Озвучка 2: Профессиональный многоголосый -FOX
Озвучка 3: Профессиональный многоголосый - BaibaKo
Озвучка 4: Профессиональный многоголосый - HamsterStudio
Озвучка 5: Профессиональный многоголосый - Jaskier
Озвучка 6: Профессиональный многоголосый Украинский- Uateam
Озвучка 7: Профессиональный многоголосый Английский-English- оригинал
Субтитры: :Русские, Английские--Сайт сериала:
--Режиссер: Фрэнк Дарабонт, Эрнест Р. Дикерсон, Гай Ферленд и др.--Сценаристы:
Чарли Адлард, Фрэнк Дарабонт, Скотт М. Гимпл, Тони Мур, Роберт Киркман, Глен Mаззара, Анджела Кенг.--В ролях: Джон Бернтал, Джеффри ДеМунн, Лори Холден, Эндрю Линкольн, Деррик МакЛеод, Адам Минарович, Чендлер Риггз, Майкл Рукер, Сара Уэйн Кэллис и др.-- После страшной болезни, превратившей жителей Земли в зомби, небольшая группа пока еще живых людей изо дня в день борется за выживание в новом, враждебном мире. Под предводительством бывшего полицейского Рика они ищут безопасное для жизни место, но зомби — это не самое страшное, что их ждет, основная опасность — это жестокое внутреннее соперничество среди выживших.
Сюжет:
Действие сериала разворачивается в первые месяцы после наступления зомби-апокалипсиса. Помощник шерифа Рик Граймс приходит в себя после длительной комы и понимает, что находится в опустевшей и разоренной больнице совершенно один. За то время, пока он пребывал без сознания, привычный мир был разрушен страшной эпидемией, о причинах наступления которой никто не знает. По дороге домой, где Рик надеется встретить жену и сына, он натыкается на множество трупов — как лежащих на земле, так и уже оживших. Затем Граймс знакомится со своим соседом Морганом, который объясняет ему новые правила жизни: не шуметь, не привлекать внимание, а в случае нападения зомби сделать все, чтобы уничтожить его. И ни при каких условиях не допускать того, чтобы быть укушенным — жертвы атаки тоже превращаются в зомби. Проведя ночь с Морганом и его сыном, Рик отправляется в Атланту на поиски семьи. Он еще не знает, что впереди его ждут долгие скитания по уничтоженной стране в компании самых разных людей, для которых он станет лидером и защитником. Более того, никто из группы выживших не подозревает, что ходячие — это еще не самое страшное зло нового мира...-- --Качество :WEB-DL 1080p
Формат: MKV
Видео кодек: H264
Видео: 7263Кбит/сек,1920х1080(16.9),в 25.000кадр/сек,AVC(Baseline@L4)(1Ref Frames)
Аудио Кодек:AC3
Аудио #1:AC3 , 384 Kbps, 48.0 KHz, 6 ch- -LostFilm -Русский
Аудио #2: AC3, 384Kbps, 48.0 KHz, 6 ch - -FOX -Русский
Аудио #3: AC3, 384 Kbps, 48.0 KHz, 6 ch - - BaibaKo -Русский
Аудио #4: AC3, 384 Kbps, 48.0 KHz, 6 ch - - HamsterStudio -Русский
Аудио #5: AC3, 384 Kbps, 48.0 KHz, 6 ch - - Jaskier -Русский
Аудио #6: AC3, 384 Kbps, 48.0 KHz, 6 ch Украинский- - Uateam
Аудио #7: AC3, 640Kbps, 48.0 KHz,6 ch - - English - Оригинал-- --

Доп. информация:

Звуковая дорожка сделана путем наложения чистого голоса озвучивателей на центральный канал оригинальной дорожки. Качество идентично звуковой дорожке.
--

Список эпизодов сезона


01 Настанет день, где не будет тебя (The Day Will Come When You Won't Be)
02 Колодец (The Well)
03 Камера (The Cell)
04 Услуга (Service)
05 Ловкие дельцы (Go Getters)
06 Клятва (Swear)
07 Спой мне песню(Sing Me a Song)
08 Сердца еще бьются( Hearts Still Beating)
09 Камень на дороге ( Rock in the Road)
10 Новые лучшие друзья ( New Best Friends)
11 Враги и катаклизмы ( Hostiles and Calamities s)
12 Скажи "Да" ( Say Yes)
13 Похороните меня здесь ( Bury Me Here)
14 Другая сторона ( The Other Side)
15 То, что им нужно ( Something They Need)
16 Первый день твоей оставшейся жизни ( The First Day of the Rest of Your Life)
--

MediaInfo сезона

Общее
Уникальный идентификатор : 177848433563661611124670032837389415133 (0x85CC5CC4B0D20EE28A8CC98165C172DD)
Полное имя : E:\ХОДЯЧИЕ МЕРТВЕЦЫ\The_Walking_Dead_S06-S07_Rus_Ukr_Eng[LostFilm_FOX_ BaibaKo_HamsterStudio_Jaskier_Uateam]H264_N.B_WEB-DLRip_1080\S07\The_Walking_Dead_2016_S07E01_5xRus_Ukr_Eng_H264_DD5.1_N.B_WEB-DLRip_1080.mkv
Формат : Matroska
Версия формата : Version 4 / Version 2
Размер файла : 3,29 Гбайт
Продолжительность : 46 м. 7 с.
Режим общего битрейта : Переменный
Общий поток : 10,2 Мбит/сек
Название фильма : The_Walking_Dead_2016_S07E01_5xRus_Ukr_Eng_H264_DD5.1_N.B_WEB-DLRip_1080
Дата кодирования : UTC 2016-10-26 12:58:11
Программа кодирования : mkvmerge v9.5.0 ('Quiet Fire') 64bit
Библиотека кодирования : libebml v1.3.4 + libmatroska v1.4.5
Видео
Идентификатор : 1
Формат : AVC
Формат/Информация : Advanced Video Codec
Профиль формата : Baseline@L4
Параметр CABAC формата : Нет
Параметр ReFrames формата : 1 кадр
Параметр GOP формата : M=1, N=12
Идентификатор кодека : V_MPEG4/ISO/AVC
Продолжительность : 46 м. 7 с.
Вид битрейта : Переменный
Битрейт : 7263 Кбит/сек
Максимальный битрейт : 10,5 Мбит/сек
Ширина : 1920 пикселей
Высота : 1080 пикселей
Соотношение сторон : 16:9
Режим частоты кадров : Постоянный
Частота кадров : 25,000 кадров/сек
Частота кадров в оригинале : 24,000 кадра/сек
Цветовое пространство : YUV
Субдискретизация насыщенности : 4:2:0
Битовая глубина : 8 бит
Тип развёртки : Прогрессивная
Бит/(Пиксели*Кадры) : 0.140
Размер потока : 2,34 Гбайт (71%)
Заголовок : The_Walking_Dead_2016_S07E01_5xRus_Ukr_Eng_H264_DD5.1_N.B_WEB-DLRip_1080
Язык : English
Default : Да
Forced : Нет
Аудио #1
Идентификатор : 4
Формат : AC-3
Формат/Информация : Audio Coding 3
Расширение режима : CM (complete main)
Параметр Endianness формата : Big
Идентификатор кодека : A_AC3
Продолжительность : 46 м. 7 с.
Вид битрейта : Постоянный
Битрейт : 384 Кбит/сек
Каналы : 6 каналов
Расположение каналов : Front: L C R, Side: L R, LFE
Частота : 48,0 КГц
Частота кадров : 31,250 кадров/сек (1536 spf)
Метод сжатия : С потерями
Размер потока : 127 Мбайт (4%)
Заголовок : MVO LostFilm @DD5.1 AC3, 384 Kbps, 48.0 KHz, 6 ch
Язык : Russian
Default : Да
Forced : Нет
Аудио #2
Идентификатор : 5
Формат : AC-3
Формат/Информация : Audio Coding 3
Расширение режима : CM (complete main)
Параметр Endianness формата : Big
Идентификатор кодека : A_AC3
Продолжительность : 46 м. 7 с.
Вид битрейта : Постоянный
Битрейт : 384 Кбит/сек
Каналы : 6 каналов
Расположение каналов : Front: L C R, Side: L R, LFE
Частота : 48,0 КГц
Частота кадров : 31,250 кадров/сек (1536 spf)
Метод сжатия : С потерями
Размер потока : 127 Мбайт (4%)
Заголовок : MVO FOX @DD5.1 AC3, 384 Kbps, 48.0 KHz, 6 ch
Язык : Russian
Default : Нет
Forced : Нет
Аудио #3
Идентификатор : 6
Формат : AC-3
Формат/Информация : Audio Coding 3
Расширение режима : CM (complete main)
Параметр Endianness формата : Big
Идентификатор кодека : A_AC3
Продолжительность : 46 м. 6 с.
Вид битрейта : Постоянный
Битрейт : 384 Кбит/сек
Каналы : 6 каналов
Расположение каналов : Front: L C R, Side: L R, LFE
Частота : 48,0 КГц
Частота кадров : 31,250 кадров/сек (1536 spf)
Метод сжатия : С потерями
Размер потока : 127 Мбайт (4%)
Заголовок : MVO BaibaKo @DD5.1 AC3, 384 Kbps, 48.0 KHz, 6 ch
Язык : Russian
Default : Нет
Forced : Нет
Аудио #4
Идентификатор : 7
Формат : AC-3
Формат/Информация : Audio Coding 3
Расширение режима : CM (complete main)
Параметр Endianness формата : Big
Идентификатор кодека : A_AC3
Продолжительность : 46 м. 7 с.
Вид битрейта : Постоянный
Битрейт : 384 Кбит/сек
Каналы : 6 каналов
Расположение каналов : Front: L C R, Side: L R, LFE
Частота : 48,0 КГц
Частота кадров : 31,250 кадров/сек (1536 spf)
Метод сжатия : С потерями
Размер потока : 127 Мбайт (4%)
Заголовок : MVO HamsterStudio @DD5.1 AC3, 384 Kbps, 48.0 KHz, 6 ch
Язык : Russian
Default : Нет
Forced : Нет
Аудио #5
Идентификатор : 8
Формат : AC-3
Формат/Информация : Audio Coding 3
Расширение режима : CM (complete main)
Параметр Endianness формата : Big
Идентификатор кодека : A_AC3
Продолжительность : 46 м. 7 с.
Вид битрейта : Постоянный
Битрейт : 384 Кбит/сек
Каналы : 6 каналов
Расположение каналов : Front: L C R, Side: L R, LFE
Частота : 48,0 КГц
Частота кадров : 31,250 кадров/сек (1536 spf)
Метод сжатия : С потерями
Размер потока : 127 Мбайт (4%)
Заголовок : MVO Jaskier @DD5.1 AC3, 384 Kbps, 48.0 KHz, 6 ch
Язык : Russian
Default : Нет
Forced : Нет
Аудио #6
Идентификатор : 9
Формат : AC-3
Формат/Информация : Audio Coding 3
Расширение режима : CM (complete main)
Параметр Endianness формата : Big
Идентификатор кодека : A_AC3
Продолжительность : 46 м. 7 с.
Вид битрейта : Постоянный
Битрейт : 384 Кбит/сек
Каналы : 6 каналов
Расположение каналов : Front: L C R, Side: L R, LFE
Частота : 48,0 КГц
Частота кадров : 31,250 кадров/сек (1536 spf)
Метод сжатия : С потерями
Размер потока : 127 Мбайт (4%)
Заголовок : MVO Uateam @DD5.1 AC3, 384 Kbps, 48.0 KHz, 6 ch
Язык : Ukrainian
Default : Нет
Forced : Нет
Аудио #7
Идентификатор : 10
Формат : AC-3
Формат/Информация : Audio Coding 3
Расширение режима : CM (complete main)
Параметр Endianness формата : Big
Идентификатор кодека : A_AC3
Продолжительность : 46 м. 7 с.
Вид битрейта : Постоянный
Битрейт : 640 Кбит/сек
Каналы : 6 каналов
Расположение каналов : Front: L C R, Side: L R, LFE
Частота : 48,0 КГц
Частота кадров : 31,250 кадров/сек (1536 spf)
Метод сжатия : С потерями
Размер потока : 211 Мбайт (6%)
Заголовок : Original@DD5.1 AC3 ,640 Kbps, 48.0 KHz, 6 ch
Язык : English
Default : Нет
Forced : Нет
Текст #1
Идентификатор : 2
Формат : UTF-8
Идентификатор кодека : S_TEXT/UTF8
Идентификатор кодека/Информация : UTF-8 Plain Text
Продолжительность : 43 м. 33 с.
Битрейт : 42 бит/сек
Count of elements : 417
Размер потока : 13,6 Кбайт (0%)
Заголовок : Rus
Язык : Russian
Default : Нет
Forced : Нет
Текст #2
Идентификатор : 3
Формат : UTF-8
Идентификатор кодека : S_TEXT/UTF8
Идентификатор кодека/Информация : UTF-8 Plain Text
Продолжительность : 43 м. 27 с.
Битрейт : 28 бит/сек
Count of elements : 439
Размер потока : 9,00 Кбайт (0%)
Заголовок : Original
Язык : English
Default : Нет
Forced : Нет
--

Скриншоты

-- 7Сезон--

Как закачать отдельный файл

1. Открыть торрент
2. Снять галки с тех файлов торрента, которые мы не хотим закачивать. Оставляем только на нужных нам файлах (файле).
3. Нажать О.К.
В клиенте utorrent
Инструкция
1) Открыть торрент

2) Снять галки с тех файлов торрента, которые мы не хотим закачивать:
* либо вручную, снимая с каждого файла галку( скрин №1)
* либо, нажав кнопку "Снять метки (Select None)", сняв сразу со всех файлов(скрин №2)
№1

№2

Оставляем только на нужных нам файлах (файле).

3)Нажать О.К
-- -- --Внимание!!! 05.04. 2017. РАЗДАЧА ОБНОВЛЕНА. ФИНАЛ СЕЗОНА.ОБНОВИТЕ ТОРЕНТ ФАЙЛ.ПРИЯТНОГО ПРОСМОТРА . --Релиз от: Nikolai.Baranov & PIRATIYA -- -- -- --
[Profile]  [PM] 
Display posts:    
Reply to topic

Current time is: 17-Feb 15:38

All times are UTC + 2



You cannot post new topics in this forum
You cannot reply to topics in this forum
You cannot edit your posts in this forum
You cannot delete your posts in this forum
You cannot vote in polls in this forum
You cannot attach files in this forum
You cannot download files in this forum