По ту сторону / Beyond (Сезон 1, Серия 1-10 из 10) (Стивен Эдельсон, Ник Копус) [2017 , Драма, ужасы, мистика, HDTV 720p] [LostFilm , HamsterStudio , IdeaFilm , English] + [Subs Eng]

Reply to topic
 
Author
Message

Враг Нароода ®

Gender: Unknown

Longevity: 5 years 5 months

Posts: 393

Reputation: 1 [+] [-]

Враг Нароода · Post 08-Jan-2017 12:34

[Quote] 

--По ту сторону / Beyond Сезон 1, Серия 1-10 из 10 -- Год выпуска: 2017
Выпущено: США ,Automatik Entertainment, Imperative Entertainment
Жанр: Драма, ужасы, мистика
Продолжительность: 00:43:00
Сезон:1
Серия: 1-10
Количество серий в сезоне: 10
Озвучка 1: Профессиональный многоголосый - LostFilm -Русский
Озвучка2: Профессиональный многоголосый - HamsterStudio -Русский
Озвучка3: Профессиональный двухголосый - IdeaFilm -Русский
Озвучка 4: Профессиональный многоголосый - Английский - Оригинал
Субтитры: : Русские,Английские --Официальный сайт
MDB --Сценаристы:
Адам Нассдорф, Райан Моттсхерд, Элиас Бенавидез, Джим Галассо --Режиссеры:
Стивен Эдельсон, Ник Копус, Гай Норман Би, Сэм Хилл, Ли Толанд Кригер--Актеры:
Баркели Даффилд (Холден Мэтьюз), Джордан Кэллоуэй (Кевин), Дилан Гвин (Вилла), Иден Бролин (Чарли), Роми Роузмонт (Диана), Майкл МакГрэйди (Том Мэтьюз), Джонатан Уайтселл (Люк Мэттьюз) -- О сериале "По ту сторону (Beyond)":
Обычный подросток по имени Холден Мэтьюз убегал от хулиганов и оказался в лесу. Внезапно его ослепила яркая вспышка, и он впал в кому на целых 12 лет. Выйдя из нее, юноша удивил всех врачей — в мышцах не было ни намека на обязательную в подобных случаях атрофию. Однако странности только начались. Теперь, когда главный герой засыпает, он, сам того не осознавая, становится пирокинетиком — его тело выделяет сильнейший жар. При этом Холдена мучают кошмары, в которых явно скрывается множество ответов. Вот только в общую картину этот пазл никак не складываются. Девушка по имени Вилла, с которой Мэтьюз пытается познакомиться в магазине, говорит ему, что он находится в большой опасности. Она предостерегает, чтобы он никому не доверял. Он ей, конечно, не верит, пока не начинает попадать в совершенно необъяснимые ситуации. Странные видения, паранормальные способности, тайные организации — Холдену предстоит смириться со своей участью и выяснить, что же все-таки находится за гранью привычного мира…-- --Качество :HDTV 720p
Формат: MKV
Видео кодек: H264
Видео: 4175кбит/сек,1280х720(16.9),в 25.000кадр/сек,AVC(Baseline@L3.1)(1Ref Frames)
Аудио Кодек:AC3
Аудио #1:AC3 , 384 Kbps, 48.0 KHz, 6 ch- LostFilm -Русский
Аудио #2:AC3 , 384 Kbps, 48.0 KHz, 6 ch- HamsterStudio -Русский
Аудио #3:AC3 , 384 Kbps, 48.0 KHz, 6 ch- IdeaFilm -Русский
Аудио #4: AC3, 640 Kbps, 48.0 KHz,6 ch - - English - Оригинал--

Доп. информация:

Звуковая дорожка сделана путем наложения чистого голоса озвучивателей на центральный канал оригинальной дорожки. Качество идентично звуковой дорожке.
--

Список эпизодов сезона


01 Пилот(Pilot)
02 Время летит(Tempus Fugit)
03 Связующие узы (Ties That Bind)
04 Человек в Желтом Пиджаке (The Man in the Yellow Jacket)
05 Какая встреча(Fancy Meeting You Here)
06 Селеста(Celeste)
07 Час волка(The Hour of the Wolf)
08 Последний киногеройа(Last Action Hero)
09 Из темноты(Out of Darkness)
10 К свету(Into the Light)
--

MediaInfo сезона

Общее
Уникальный идентификатор : 215059501358777941027953962462990487416 (0xA1CAF40EB1369FF4AA6BACAB9A46CF78)
Полное имя : C:\ПИРАТИЯ(PIRATIYA)\HDTV 720p\По ту сторону (Beyond)\BEYOND_2017_S01_3xRus[LostFilm_HamsterStudio_IdeaFilm]_Eng_H264_DD5.1_N.B_HDTV_720p\Beyond_2017_S01E01_3xRus_Eng_H264_DD5.1_N.B_HDTV_720p.mkv
Формат : Matroska
Версия формата : Version 4 / Version 2
Размер файла : 1,78 Гбайт
Продолжительность : 42 м. 35 с.
Режим общего битрейта : Переменный
Общий поток : 5969 Кбит/сек
Название фильма : Beyond_2017_S01E01_3xRus_Eng_H264_DD5.1_N.B_HDTV_720p
Дата кодирования : UTC 2017-01-08 08:03:55
Программа кодирования : mkvmerge v9.7.1 ('Pandemonium') 64bit
Библиотека кодирования : libebml v1.3.4 + libmatroska v1.4.5
Видео
Идентификатор : 1
Формат : AVC
Формат/Информация : Advanced Video Codec
Профиль формата : Baseline@L3.1
Параметр CABAC формата : Нет
Параметр ReFrames формата : 1 кадр
Параметр GOP формата : M=1, N=12
Идентификатор кодека : V_MPEG4/ISO/AVC
Продолжительность : 42 м. 34 с.
Вид битрейта : Переменный
Битрейт : 4175 Кбит/сек
Максимальный битрейт : 6000 Кбит/сек
Ширина : 1280 пикселей
Высота : 720 пикселей
Соотношение сторон : 16:9
Режим частоты кадров : Постоянный
Частота кадров : 25,000 кадров/сек
Частота кадров в оригинале : 24,000 кадра/сек
Цветовое пространство : YUV
Субдискретизация насыщенности : 4:2:0
Битовая глубина : 8 бит
Тип развёртки : Прогрессивная
Бит/(Пиксели*Кадры) : 0.181
Размер потока : 1,24 Гбайт (70%)
Заголовок : Beyond_2017_S01E01_3xRus_Eng_H264_DD5.1_N.B_HDTV_720p
Язык : Russian
Default : Да
Forced : Нет
Аудио #1
Идентификатор : 3
Формат : AC-3
Формат/Информация : Audio Coding 3
Расширение режима : CM (complete main)
Параметр Endianness формата : Big
Идентификатор кодека : A_AC3
Продолжительность : 42 м. 34 с.
Вид битрейта : Постоянный
Битрейт : 384 Кбит/сек
Каналы : 6 каналов
Расположение каналов : Front: L C R, Side: L R, LFE
Частота : 48,0 КГц
Частота кадров : 31,250 кадров/сек (1536 spf)
Битовая глубина : 16 бит
Метод сжатия : С потерями
Размер потока : 117 Мбайт (6%)
Заголовок : MVO LostFilm @DD5.1 AC3, 384 Kbps, 48.0 KHz, 6 ch
Язык : Russian
Default : Да
Forced : Нет
Аудио #2
Идентификатор : 4
Формат : AC-3
Формат/Информация : Audio Coding 3
Расширение режима : CM (complete main)
Параметр Endianness формата : Big
Идентификатор кодека : A_AC3
Продолжительность : 42 м. 34 с.
Вид битрейта : Постоянный
Битрейт : 384 Кбит/сек
Каналы : 6 каналов
Расположение каналов : Front: L C R, Side: L R, LFE
Частота : 48,0 КГц
Частота кадров : 31,250 кадров/сек (1536 spf)
Битовая глубина : 16 бит
Метод сжатия : С потерями
Размер потока : 117 Мбайт (6%)
Заголовок : MVO HamsterStudio @DD5.1 AC3, 384 Kbps, 48.0 KHz, 6 ch
Язык : Russian
Default : Нет
Forced : Нет
Аудио #3
Идентификатор : 5
Формат : AC-3
Формат/Информация : Audio Coding 3
Расширение режима : CM (complete main)
Параметр Endianness формата : Big
Идентификатор кодека : A_AC3
Продолжительность : 42 м. 33 с.
Вид битрейта : Постоянный
Битрейт : 384 Кбит/сек
Каналы : 6 каналов
Расположение каналов : Front: L C R, Side: L R, LFE
Частота : 48,0 КГц
Частота кадров : 31,250 кадров/сек (1536 spf)
Битовая глубина : 16 бит
Метод сжатия : С потерями
Размер потока : 117 Мбайт (6%)
Заголовок : MVO IdeaFilm @DD5.1 AC3, 384 Kbps, 48.0 KHz, 6 ch
Язык : Russian
Default : Нет
Forced : Нет
Аудио #4
Идентификатор : 6
Формат : AC-3
Формат/Информация : Audio Coding 3
Расширение режима : CM (complete main)
Параметр Endianness формата : Big
Идентификатор кодека : A_AC3
Продолжительность : 42 м. 35 с.
Вид битрейта : Постоянный
Битрейт : 640 Кбит/сек
Каналы : 6 каналов
Расположение каналов : Front: L C R, Side: L R, LFE
Частота : 48,0 КГц
Частота кадров : 31,250 кадров/сек (1536 spf)
Битовая глубина : 16 бит
Метод сжатия : С потерями
Размер потока : 195 Мбайт (11%)
Заголовок : Original@DD5.1 AC3 ,640 Kbps, 48.0 KHz, 6 ch
Язык : English
Default : Нет
Forced : Нет
Текст
Идентификатор : 2
Формат : UTF-8
Идентификатор кодека : S_TEXT/UTF8
Идентификатор кодека/Информация : UTF-8 Plain Text
Продолжительность : 42 м. 29 с.
Битрейт : 50 бит/сек
Count of elements : 596
Размер потока : 15,8 Кбайт (0%)
Заголовок : Original
Язык : English
Default : Да
Forced : Нет
Меню
00:00:00.000 : en:Глава 01 / en:Глава 01 / en:Глава 01 / en:Глава 01 / en:Глава 01 / en:Глава 01
--

Скриншоты

-- --

Как закачать отдельный файл

1. Открыть торрент
2. Снять галки с тех файлов торрента, которые мы не хотим закачивать. Оставляем только на нужных нам файлах (файле).
3. Нажать О.К.
В клиенте utorrent
Инструкция
1) Открыть торрент

2) Снять галки с тех файлов торрента, которые мы не хотим закачивать:
* либо вручную, снимая с каждого файла галку( скрин №1)
* либо, нажав кнопку "Снять метки (Select None)", сняв сразу со всех файлов(скрин №2)
№1

№2

Оставляем только на нужных нам файлах (файле).

3)Нажать О.К
-- -- --Внимание!!! 25.02. 2016. РАЗДАЧА ОБНОВЛЕНА. ФИНАЛ СЕЗОНА. ОБНОВИТЕ ТОРЕНТ ФАЙЛ.ПРИЯТНОГО ПРОСМОТРА . --Релиз от: Nikolai.Baranov & PIRATIYA -- -- -- --
[Profile]  [PM] 
Display posts:    
Reply to topic

Current time is: 17-Feb 14:01

All times are UTC + 2



You cannot post new topics in this forum
You cannot reply to topics in this forum
You cannot edit your posts in this forum
You cannot delete your posts in this forum
You cannot vote in polls in this forum
You cannot attach files in this forum
You cannot download files in this forum