Шерлок / Sherlock (Сезон 4, Серия 0-3 из 3) (Пол МакГиган, Ник Харран, Коки Гидройч) [2015-2017 , Детектив, криминал, мистика, экранизация , WEB-DLRip 400p] [Первый канал , English] + [Subs Rus , Eng][Дублированный]

Reply to topic
 
Author
Message

Враг Нароода ®

Gender: Unknown

Longevity: 6 years

Posts: 447

Reputation: 1 [+] [-]

Враг Нароода · Post 11-Jan-2017 19:51

[Quote] 

--Шерлок / Sherlock Сезон 4, Серия 0-3 из 3-- --Год выпуска: 2015-2017
Выпущено: Великобритания ,Hartswood Films, BBC Wales, Masterpiece Theatre
Жанр: Детектив, криминал, мистика, экранизация
Продолжительность: 4 x ~ 01:30:00
Сезон:4
Серия: 0-3
Количество серий в сезоне: 3
Озвучка : Дублированный-Первый канал -Русский
Озвучка : Профессиональный многоголосый - Английский - Оригинал
Субтитры: : Русские,Английские --Официальный сайт
MDB --Сценаристы:
Марк Гейтисс, Стивен Моффат, Артур Конан Дойл--Режиссер:
Пол МакГиган, Ник Харран, Коки Гидройч--Актеры:
Бенедикт Камбербэтч, Мартин Фриман, Уна Стаббс, Лу Брили, Руперт Грэйвз, Джонатан Арис, Аманда Эббингтон, Наташа О’Кифф-- События разворачиваются в наши дни. Он прошел Афганистан, остался инвалидом. По возвращении в родные края встречается с загадочным, но своеобразным гениальным человеком. Тот в поиске соседа по квартире. Лондон, 2010 год. Происходят необъяснимые убийства. Скотланд-Ярд без понятия, за что хвататься. Существует лишь один человек, который в силах разрешить проблемы и найти ответы на сложные вопросы.-- --Качество :BDRip-WEB-DLRip 400p
Формат: MKV
Видео кодек: H264
Видео: 3126Кбит/сек,720х400(16.9),в 25.000кадр/сек,AVC(Baseline@L3)(1Ref Frames)
Аудио Кодек:AC3
Аудио #:AC3 , 384 Kbps, 48.0 KHz, 6 ch- Дублированный-Первый канал -Русский
Аудио #: AC3, 640 Kbps, 48.0 KHz,6 ch - - English - Оригинал--

Список эпизодов сезона


00 Безобразная невеста(The Abominable Bride)
01 Шесть Тэтчер(The Six Thatchers)
02. Шерлок: Шерлок при смерти(Lying Detective )
03. Шерлок: Последнее дело
--

MediaInfo Безобразная невеста

Общее
Уникальный идентификатор : 231648597218285270536619133804213212458 (0xAE45E5A18446CAF39FEC8E3277B0952A)
Полное имя : C:\ПИРАТИЯ(PIRATIYA)\HDTV 400p\ШЕРЛОК (Sherlock)\SHERLOCK_2017_S04_Rus[DUB_1canal_Russia]Eng_H264_DD5.1_N.B_WEBRip_400p\Sherlock_S04E00_Rus_Ukr_Eng_H264_DD5.1_N.B_BDRip_400p.mkv
Формат : Matroska
Версия формата : Version 4 / Version 2
Размер файла : 2,82 Гбайт
Продолжительность : 1 ч. 33 м.
Режим общего битрейта : Переменный
Общий поток : 4337 Кбит/сек
Название фильма : Sherlock_S04E00_Rus_Ukr_Eng_H264_DD5.1_N.B_BDRip_400p
Дата кодирования : UTC 2017-01-11 10:08:26
Программа кодирования : mkvmerge v9.7.1 ('Pandemonium') 64bit
Библиотека кодирования : libebml v1.3.4 + libmatroska v1.4.5
Обложка : Yes
Attachments : cover.jpg / logfile.log
Видео
Идентификатор : 1
Формат : AVC
Формат/Информация : Advanced Video Codec
Профиль формата : Baseline@L3
Параметр CABAC формата : Нет
Параметр ReFrames формата : 1 кадр
Параметр GOP формата : M=1, N=12
Идентификатор кодека : V_MPEG4/ISO/AVC
Продолжительность : 1 ч. 33 м.
Вид битрейта : Переменный
Битрейт : 3117 Кбит/сек
Максимальный битрейт : 4500 Кбит/сек
Ширина : 720 пикселей
Высота : 400 пикселей
Соотношение сторон : 16:9
Режим частоты кадров : Постоянный
Частота кадров : 25,000 кадров/сек
Частота кадров в оригинале : 24,000 кадра/сек
Цветовое пространство : YUV
Субдискретизация насыщенности : 4:2:0
Битовая глубина : 8 бит
Тип развёртки : Прогрессивная
Бит/(Пиксели*Кадры) : 0.433
Размер потока : 2,03 Гбайт (72%)
Заголовок : Sherlock_S04E00_Rus_Ukr_Eng_H264_DD5.1_N.B_BDRip_400p
Язык : Russian
Default : Да
Forced : Нет
Аудио #1
Идентификатор : 9
Формат : AC-3
Формат/Информация : Audio Coding 3
Расширение режима : CM (complete main)
Параметр Endianness формата : Big
Идентификатор кодека : A_AC3
Продолжительность : 1 ч. 33 м.
Вид битрейта : Постоянный
Битрейт : 384 Кбит/сек
Каналы : 6 каналов
Расположение каналов : Front: L C R, Side: L R, LFE
Частота : 48,0 КГц
Частота кадров : 31,250 кадров/сек (1536 spf)
Битовая глубина : 16 бит
Метод сжатия : С потерями
Размер потока : 256 Мбайт (9%)
Заголовок : DUB Russia 1canal @DD5.1 AC3, 384 Kbps, 48.0 KHz, 6 ch
Язык : Russian
Default : Да
Forced : Нет
Аудио #2
Идентификатор : 10
Формат : AC-3
Формат/Информация : Audio Coding 3
Расширение режима : CM (complete main)
Параметр Endianness формата : Big
Идентификатор кодека : A_AC3
Продолжительность : 1 ч. 33 м.
Вид битрейта : Постоянный
Битрейт : 192 Кбит/сек
Каналы : 6 каналов
Расположение каналов : Front: L C R, Side: L R, LFE
Частота : 48,0 КГц
Частота кадров : 31,250 кадров/сек (1536 spf)
Битовая глубина : 16 бит
Метод сжатия : С потерями
Размер потока : 128 Мбайт (4%)
Заголовок : DUB Ukrainan 1+1 @DD5.1 AC3, 192 Kbps, 48.0 KHz, 6 ch
Язык : Ukrainian
Default : Нет
Forced : Нет
Аудио #3
Идентификатор : 11
Формат : AC-3
Формат/Информация : Audio Coding 3
Расширение режима : CM (complete main)
Параметр Endianness формата : Big
Идентификатор кодека : A_AC3
Продолжительность : 1 ч. 33 м.
Вид битрейта : Постоянный
Битрейт : 640 Кбит/сек
Каналы : 6 каналов
Расположение каналов : Front: L C R, Side: L R, LFE
Частота : 48,0 КГц
Частота кадров : 31,250 кадров/сек (1536 spf)
Битовая глубина : 16 бит
Метод сжатия : С потерями
Размер потока : 426 Мбайт (15%)
Заголовок : Original@DD5.1 AC3 ,640 Kbps, 48.0 KHz, 6 ch
Язык : English
Default : Нет
Forced : Нет
Текст #1
Идентификатор : 2
Формат : UTF-8
Идентификатор кодека : S_TEXT/UTF8
Идентификатор кодека/Информация : UTF-8 Plain Text
Продолжительность : 1 ч. 17 м.
Битрейт : 2 бит/сек
Count of elements : 23
Размер потока : 1,22 Кбайт (0%)
Заголовок : Russian (Forced)
Язык : Russian
Default : Да
Forced : Нет
Текст #2
Идентификатор : 3
Формат : UTF-8
Идентификатор кодека : S_TEXT/UTF8
Идентификатор кодека/Информация : UTF-8 Plain Text
Продолжительность : 1 ч. 31 м.
Битрейт : 124 бит/сек
Count of elements : 1078
Размер потока : 83,8 Кбайт (0%)
Заголовок : Russian
Язык : Russian
Default : Нет
Forced : Нет
Текст #3
Идентификатор : 4
Формат : UTF-8
Идентификатор кодека : S_TEXT/UTF8
Идентификатор кодека/Информация : UTF-8 Plain Text
Продолжительность : 1 ч. 31 м.
Битрейт : 125 бит/сек
Count of elements : 1078
Размер потока : 84,0 Кбайт (0%)
Заголовок : Russian (SDH)
Язык : Russian
Default : Нет
Forced : Нет
Текст #4
Идентификатор : 5
Формат : UTF-8
Идентификатор кодека : S_TEXT/UTF8
Идентификатор кодека/Информация : UTF-8 Plain Text
Продолжительность : 1 ч. 31 м.
Битрейт : 125 бит/сек
Count of elements : 1078
Размер потока : 84,3 Кбайт (0%)
Заголовок : Russian (SDH COLORED)
Язык : Russian
Default : Нет
Forced : Нет
Текст #5
Идентификатор : 6
Формат : UTF-8
Идентификатор кодека : S_TEXT/UTF8
Идентификатор кодека/Информация : UTF-8 Plain Text
Продолжительность : 1 ч. 31 м.
Битрейт : 78 бит/сек
Count of elements : 1618
Размер потока : 52,5 Кбайт (0%)
Заголовок : English
Язык : English
Default : Нет
Forced : Нет
Текст #6
Идентификатор : 7
Формат : UTF-8
Идентификатор кодека : S_TEXT/UTF8
Идентификатор кодека/Информация : UTF-8 Plain Text
Продолжительность : 1 ч. 32 м.
Битрейт : 81 бит/сек
Count of elements : 1702
Размер потока : 55,0 Кбайт (0%)
Заголовок : English (SDH)
Язык : English
Default : Нет
Forced : Нет
Текст #7
Идентификатор : 8
Формат : UTF-8
Идентификатор кодека : S_TEXT/UTF8
Идентификатор кодека/Информация : UTF-8 Plain Text
Продолжительность : 1 ч. 32 м.
Битрейт : 91 бит/сек
Count of elements : 1702
Размер потока : 61,6 Кбайт (0%)
Заголовок : English (SDH COLORED)
Язык : English
Default : Нет
Forced : Нет
Меню
00:00:00.000 : en:Глава 01 / en:Глава 01 / en:Глава 01 / en:Глава 01 / en:Глава 01 / en:Глава 01 / en:Глава 01 / en:Глава 01 / en:Глава 01 / en:Глава 01 / en:Глава 01
--

MediaInfo Шесть Тэтчер

Общее
Уникальный идентификатор : 206330008745133201223439859060464894260 (0x9B39B6D7912ED6A18429BA2092FB4134)
Полное имя : C:\ПИРАТИЯ(PIRATIYA)\HDTV 400p\ШЕРЛОК (Sherlock)\SHERLOCK_2017_S04_Rus[DUB_1canal_Russia]Eng_H264_DD5.1_N.B_WEBRip_400p\Sherlock_S04E01_Rus_Eng_H264_DD5.1_N.B_WEBRip_400p.mkv
Формат : Matroska
Версия формата : Version 4 / Version 2
Размер файла : 2,57 Гбайт
Продолжительность : 1 ч. 28 м.
Режим общего битрейта : Переменный
Общий поток : 4153 Кбит/сек
Название фильма : Sherlock_S04E01_Rus_Eng_H264_DD5.1_N.B_WEBRip_400p
Дата кодирования : UTC 2017-01-11 15:40:03
Программа кодирования : mkvmerge v9.7.1 ('Pandemonium') 64bit
Библиотека кодирования : libebml v1.3.4 + libmatroska v1.4.5
Обложка : Yes
Attachments : sherlock_s4_cover.jpg
Видео
Идентификатор : 1
Формат : AVC
Формат/Информация : Advanced Video Codec
Профиль формата : Baseline@L3
Параметр CABAC формата : Нет
Параметр ReFrames формата : 1 кадр
Параметр GOP формата : M=1, N=12
Идентификатор кодека : V_MPEG4/ISO/AVC
Продолжительность : 1 ч. 28 м.
Вид битрейта : Переменный
Битрейт : 3126 Кбит/сек
Максимальный битрейт : 4500 Кбит/сек
Ширина : 720 пикселей
Высота : 400 пикселей
Соотношение сторон : 16:9
Режим частоты кадров : Постоянный
Частота кадров : 25,000 кадров/сек
Частота кадров в оригинале : 24,000 кадра/сек
Цветовое пространство : YUV
Субдискретизация насыщенности : 4:2:0
Битовая глубина : 8 бит
Тип развёртки : Прогрессивная
Бит/(Пиксели*Кадры) : 0.434
Размер потока : 1,93 Гбайт (75%)
Заголовок : Sherlock_S04E01_Rus_Eng_H264_DD5.1_N.B_WEBRip_400p
Язык : Russian
Default : Да
Forced : Нет
Аудио #1
Идентификатор : 6
Формат : AC-3
Формат/Информация : Audio Coding 3
Расширение режима : CM (complete main)
Параметр Endianness формата : Big
Идентификатор кодека : A_AC3
Продолжительность : 1 ч. 28 м.
Вид битрейта : Постоянный
Битрейт : 384 Кбит/сек
Каналы : 6 каналов
Расположение каналов : Front: L C R, Side: L R, LFE
Частота : 48,0 КГц
Частота кадров : 31,250 кадров/сек (1536 spf)
Битовая глубина : 16 бит
Метод сжатия : С потерями
Размер потока : 243 Мбайт (9%)
Заголовок : DUB Russia 1canal @DD5.1 AC3, 384 Kbps, 48.0 KHz, 6 ch
Язык : Russian
Default : Да
Forced : Нет
Аудио #2
Идентификатор : 7
Формат : AC-3
Формат/Информация : Audio Coding 3
Расширение режима : CM (complete main)
Параметр Endianness формата : Big
Идентификатор кодека : A_AC3
Продолжительность : 1 ч. 28 м.
Вид битрейта : Постоянный
Битрейт : 640 Кбит/сек
Каналы : 6 каналов
Расположение каналов : Front: L C R, Side: L R, LFE
Частота : 48,0 КГц
Частота кадров : 31,250 кадров/сек (1536 spf)
Битовая глубина : 16 бит
Метод сжатия : С потерями
Размер потока : 405 Мбайт (15%)
Заголовок : Original@DD5.1 AC3 ,640 Kbps, 48.0 KHz, 6 ch
Язык : English
Default : Нет
Forced : Нет
Текст #1
Идентификатор : 2
Формат : UTF-8
Идентификатор кодека : S_TEXT/UTF8
Идентификатор кодека/Информация : UTF-8 Plain Text
Продолжительность : 1 ч. 28 м.
Битрейт : 139 бит/сек
Count of elements : 1433
Размер потока : 90,3 Кбайт (0%)
Заголовок : Russian (Full) (студия Focs)
Язык : Russian
Default : Да
Forced : Нет
Текст #2
Идентификатор : 3
Формат : UTF-8
Идентификатор кодека : S_TEXT/UTF8
Идентификатор кодека/Информация : UTF-8 Plain Text
Продолжительность : 1 ч. 28 м.
Битрейт : 142 бит/сек
Count of elements : 1433
Размер потока : 92,5 Кбайт (0%)
Заголовок : Rus
Язык : Russian
Default : Нет
Forced : Нет
Текст #3
Идентификатор : 4
Формат : UTF-8
Идентификатор кодека : S_TEXT/UTF8
Идентификатор кодека/Информация : UTF-8 Plain Text
Продолжительность : 1 ч. 28 м.
Битрейт : 79 бит/сек
Count of elements : 1486
Размер потока : 51,7 Кбайт (0%)
Заголовок : Original
Язык : English
Default : Нет
Forced : Нет
Текст #4
Идентификатор : 5
Формат : UTF-8
Идентификатор кодека : S_TEXT/UTF8
Идентификатор кодека/Информация : UTF-8 Plain Text
Продолжительность : 1 ч. 28 м.
Битрейт : 84 бит/сек
Count of elements : 1663
Размер потока : 54,4 Кбайт (0%)
Заголовок : English (SDH)
Язык : English
Default : Нет
Forced : Нет
Меню
00:00:00.000 : en:Глава 01 / en:Глава 01 / en:Глава 01 / en:Глава 01 / en:Глава 01 / en:Глава 01 / en:Глава 01
--

Скриншоты

-- Безобразная невеста-- Шесть Тэтчер--

Как закачать отдельный файл

1. Открыть торрент
2. Снять галки с тех файлов торрента, которые мы не хотим закачивать. Оставляем только на нужных нам файлах (файле).
3. Нажать О.К.
В клиенте utorrent
Инструкция
1) Открыть торрент

2) Снять галки с тех файлов торрента, которые мы не хотим закачивать:
* либо вручную, снимая с каждого файла галку( скрин №1)
* либо, нажав кнопку "Снять метки (Select None)", сняв сразу со всех файлов(скрин №2)
№1

№2

Оставляем только на нужных нам файлах (файле).

3)Нажать О.К
-- -- --Внимание!!! 17.01. 2016. РАЗДАЧА ОБНОВЛЕНА. ФИНАЛ СЕЗОНА. ОБНОВИТЕ ТОРЕНТ ФАЙЛ.ПРИЯТНОГО ПРОСМОТРА . --Релиз от: Nikolai.Baranov & PIRATIYA -- -- -- --
[Profile]  [PM] 
Display posts:    
Reply to topic

Current time is: 27-Sep 08:29

All times are UTC + 2



You cannot post new topics in this forum
You cannot reply to topics in this forum
You cannot edit your posts in this forum
You cannot delete your posts in this forum
You cannot vote in polls in this forum
You cannot attach files in this forum
You cannot download files in this forum