Изумрудный город / Emerald City (Сезон 1, Серия 1-10 из 10) (Тарсем Сингх) [2017 , Фэнтези, WEB-DLRip 1080p] [SDI-Media , LostFilm , NewStudio ,AlexFilm , English] + [Subs Rus,ENG]

Reply to topic
 
Author
Message

Враг Нароода ®

Gender: Unknown

Longevity: 7 years

Posts: 495

Reputation: 1 [+] [-]

Враг Нароода · Post 16-Jan-2017 17:18

[Quote] 

--Изумрудный город / Emerald City Сезон 1, Серия 1-10 из 10 -- --Год выпуска: 2017
Выпущено: США , NBC Universal Television
Жанр: Фэнтези
Продолжительность: 00:47:00
Сезон:1
Серия: 1-10
Количество серий в сезоне: 10
Озвучка 1: Профессиональный многоголосый - SDI-Media -Русский
Озвучка2: Профессиональный многоголосый - LostFilm -Русский
Озвучка3: Профессиональный многоголосый - NewStudio -Русский
Озвучка4: Профессиональный многоголосый - AlexFilm -Русский
Озвучка 5: Профессиональный многоголосый - Английский - Оригинал
Субтитры: : Русские,Английские --Официальный сайт
MDB --Сценаристы:
Дэвид Шульнер, Мэттью Арнольд, Джош Фридман, Лаймен Фрэнк Баум--Режиссеры:
Тарсем Сингх--Актеры:
Адриа Архона (Дороти Гейл), Винсент Д’Онофрио (Волшебник), Оливер Джексон-Коэн (Лукас), Ана Улару (Ведьма Запада), Герран Хауэлл (Джек), Изабель Лукас (Анна), Джордан Лоугрэн (Тип))-- Дороти Гейл — двадцатилетняя девушка, мечтающая стать врачом. Мать оставила ее в младенчестве, и все заботы по воспитанию племянницы взяла на себя тетя. Однажды в дороге Дороти застал сильнейший смерч, а когда он закончился, она прямо в машине рухнула на странную женщину в красном. Придя в себя, девушка получила шокирующую новость — незнакомка, которую она случайно убила, была ведьмой, а мир, где она очутилась, живет по законам Средневековья. Также выяснилось, что вернуть чужестранку домой может только здешний Волшебник, но для этого Гейл придется пересечь всю страну Оз. В самом начале путешествия Дороти встретился распятый на кресте человек, который не помнит ни своего имени, ни единого фрагмента из прошлого. На следующий день судьба свела девушку с ребенком, которому необходимо регулярно принимать лекарство, чтобы оставаться здоровым. Кто из этих людей на самом деле готов стать ей другом, а кто является бомбой замедленного действия? Доберется ли Дороти до Изумрудного города, когда на каждом шагу ее подстерегает опасность? А если доберется, не победит ли зло этого места доброту в ее сердце?.....-- --Качество :WEB-DLRip 1080p
Формат: MKV
Видео кодек: H264
Видео: 5166Kбит/сек,1920х1080(16.9),в 23.976кадр/сек,AVC(High@L4)(CABAC/4 Ref Frames)
Аудио Кодек:AC3
Аудио #1:AC3 , 384 Kbps, 48.0 KHz, 6 ch- SDI-Media -Русский
Аудио #2:AC3 , 384 Kbps, 48.0 KHz, 6 ch- LostFilm -Русский
Аудио #3:AC3 , 384 Kbps, 48.0 KHz, 6 ch- NewStudio-Русский
Аудио #4:AC3 , 384 Kbps, 48.0 KHz, 6 ch- AlexFilm -Русский
Аудио #2: AC3, 640 Kbps, 48.0 KHz,6 ch - - English - Оригинал--

Доп. информация:

Звуковая дорожка сделана путем наложения чистого голоса озвучивателей на центральный канал оригинальной дорожки. Качество идентично звуковой дорожке.
--

Список эпизодов сезона


01 Вечный зверь (The Beast Forever)
02 Темница Презренных (Prison of the Abject)
03 Госпожа. Новая Госпожа (Mistress - New - Mistress)
04 Наука и магия(Science and Magic)
05 Все лгут(Everybody Lies )
06 Прекрасная и ужасная(Beautiful Wickedness )
07 Это моя семья(They Came First )
08 Львы зимой(Lions in Winter )
09 Злодеями не рождаются(The Villain That´s Become )
10 Дом, милый дом(No Place Like Home )
--

MediaInfo сезона

Общее
Уникальный идентификатор : 208300910638940998995086413898145972657 (0x9CB54BCECCC8B1E2AA7A425DE011C1B1)
Полное имя : C:\ПИРАТИЯ(PIRATIYA)\HDTV 1080p\Изумрудный город (Emerald City)\EMERALD_CITY_2017_S01_Rus[SDI-Media_LostFilm_NewStudio_AlexFilm]Eng_H264_DD5.1_N.B_WEBRip_1080p\Emerald_City_S01E01_4xRus_Eng_H264_DD5.1_N.B_WEBRip_1080.mkv
Формат : Matroska
Версия формата : Version 4 / Version 2
Размер файла : 2,07 Гбайт
Продолжительность : 40 м. 21 с.
Общий поток : 7346 Кбит/сек
Название фильма : Emerald_City_S01E01_4xRus_Eng_H264_DD5.1_N.B_WEBRip_1080
Дата кодирования : UTC 2017-01-16 11:37:46
Программа кодирования : mkvmerge v9.7.1 ('Pandemonium') 64bit
Библиотека кодирования : libebml v1.3.4 + libmatroska v1.4.5
Обложка : Yes
Attachments : cover.emerald.jpg
Видео
Идентификатор : 1
Формат : AVC
Формат/Информация : Advanced Video Codec
Профиль формата : High@L4
Параметр CABAC формата : Да
Параметр ReFrames формата : 4 кадра
Идентификатор кодека : V_MPEG4/ISO/AVC
Продолжительность : 40 м. 21 с.
Битрейт : 5166 Кбит/сек
Ширина : 1920 пикселей
Высота : 1080 пикселей
Соотношение сторон : 16:9
Режим частоты кадров : Постоянный
Частота кадров : 23,976 (24000/1001) кадра/сек
Цветовое пространство : YUV
Субдискретизация насыщенности : 4:2:0
Битовая глубина : 8 бит
Тип развёртки : Прогрессивная
Бит/(Пиксели*Кадры) : 0.104
Размер потока : 1,46 Гбайт (70%)
Заголовок : Emerald_City_S01E01_4xRus_Eng_H264_DD5.1_N.B_WEBRip_1080
Язык : Russian
Default : Да
Forced : Нет
Цветовой диапазон : Limited
Основные цвета : BT.709
Характеристики трансфера : BT.709
Коэффициенты матрицы : BT.709
Аудио #1
Идентификатор : 5
Формат : AC-3
Формат/Информация : Audio Coding 3
Расширение режима : CM (complete main)
Параметр Endianness формата : Big
Идентификатор кодека : A_AC3
Продолжительность : 40 м. 21 с.
Вид битрейта : Постоянный
Битрейт : 384 Кбит/сек
Каналы : 6 каналов
Расположение каналов : Front: L C R, Side: L R, LFE
Частота : 48,0 КГц
Частота кадров : 31,250 кадров/сек (1536 spf)
Битовая глубина : 16 бит
Метод сжатия : С потерями
Размер потока : 111 Мбайт (5%)
Заголовок : MVO SDI-Media @DD5.1 AC3, 384 Kbps, 48.0 KHz, 6 ch
Язык : Russian
Default : Да
Forced : Нет
Аудио #2
Идентификатор : 6
Формат : AC-3
Формат/Информация : Audio Coding 3
Расширение режима : CM (complete main)
Параметр Endianness формата : Big
Идентификатор кодека : A_AC3
Продолжительность : 40 м. 21 с.
Вид битрейта : Постоянный
Битрейт : 384 Кбит/сек
Каналы : 6 каналов
Расположение каналов : Front: L C R, Side: L R, LFE
Частота : 48,0 КГц
Частота кадров : 31,250 кадров/сек (1536 spf)
Битовая глубина : 16 бит
Метод сжатия : С потерями
Размер потока : 111 Мбайт (5%)
Заголовок : MVO LostFilm @DD5.1 AC3, 384 Kbps, 48.0 KHz, 6 ch
Язык : Russian
Default : Нет
Forced : Нет
Аудио #3
Идентификатор : 7
Формат : AC-3
Формат/Информация : Audio Coding 3
Расширение режима : CM (complete main)
Параметр Endianness формата : Big
Идентификатор кодека : A_AC3
Продолжительность : 40 м. 21 с.
Вид битрейта : Постоянный
Битрейт : 384 Кбит/сек
Каналы : 6 каналов
Расположение каналов : Front: L C R, Side: L R, LFE
Частота : 48,0 КГц
Частота кадров : 31,250 кадров/сек (1536 spf)
Битовая глубина : 16 бит
Метод сжатия : С потерями
Размер потока : 111 Мбайт (5%)
Заголовок : MVO NewStudio @DD5.1 AC3, 384 Kbps, 48.0 KHz, 6 ch
Язык : Russian
Default : Нет
Forced : Нет
Аудио #4
Идентификатор : 8
Формат : AC-3
Формат/Информация : Audio Coding 3
Расширение режима : CM (complete main)
Параметр Endianness формата : Big
Идентификатор кодека : A_AC3
Продолжительность : 40 м. 21 с.
Вид битрейта : Постоянный
Битрейт : 640 Кбит/сек
Каналы : 6 каналов
Расположение каналов : Front: L C R, Side: L R, LFE
Частота : 48,0 КГц
Частота кадров : 31,250 кадров/сек (1536 spf)
Битовая глубина : 16 бит
Метод сжатия : С потерями
Размер потока : 185 Мбайт (9%)
Заголовок : Original@DD5.1 AC3 ,640 Kbps, 48.0 KHz, 6 ch
Язык : English
Default : Нет
Forced : Нет
Аудио #5
Идентификатор : 9
Формат : AC-3
Формат/Информация : Audio Coding 3
Расширение режима : CM (complete main)
Параметр Endianness формата : Big
Идентификатор кодека : A_AC3
Продолжительность : 40 м. 21 с.
Вид битрейта : Постоянный
Битрейт : 384 Кбит/сек
Каналы : 6 каналов
Расположение каналов : Front: L C R, Side: L R, LFE
Частота : 48,0 КГц
Частота кадров : 31,250 кадров/сек (1536 spf)
Битовая глубина : 16 бит
Метод сжатия : С потерями
Размер потока : 111 Мбайт (5%)
Заголовок : MVO AlexFilm @DD5.1 AC3, 384 Kbps, 48.0 KHz, 6 ch
Язык : Russian
Default : Нет
Forced : Нет
Текст #1
Идентификатор : 2
Формат : UTF-8
Идентификатор кодека : S_TEXT/UTF8
Идентификатор кодека/Информация : UTF-8 Plain Text
Продолжительность : 38 м. 25 с.
Битрейт : 59 бит/сек
Count of elements : 395
Размер потока : 16,9 Кбайт (0%)
Заголовок : Rus
Язык : Russian
Default : Да
Forced : Нет
Текст #2
Идентификатор : 3
Формат : UTF-8
Идентификатор кодека : S_TEXT/UTF8
Идентификатор кодека/Информация : UTF-8 Plain Text
Продолжительность : 38 м. 24 с.
Битрейт : 35 бит/сек
Count of elements : 420
Размер потока : 10,0 Кбайт (0%)
Заголовок : Original
Язык : English
Default : Нет
Forced : Нет
Текст #3
Идентификатор : 4
Формат : UTF-8
Идентификатор кодека : S_TEXT/UTF8
Идентификатор кодека/Информация : UTF-8 Plain Text
Продолжительность : 38 м. 55 с.
Битрейт : 44 бит/сек
Count of elements : 590
Размер потока : 12,8 Кбайт (0%)
Заголовок : SDH
Язык : English
Default : Нет
Forced : Нет
Меню
00:00:00.000 : en:Глава 01 / en:Глава 01 / en:Глава 01 / en:Глава 01 / en:Глава 01 / en:Глава 01 / en:Глава 01 / en:Глава 01
--

Скриншоты

-- --

Как закачать отдельный файл

1. Открыть торрент
2. Снять галки с тех файлов торрента, которые мы не хотим закачивать. Оставляем только на нужных нам файлах (файле).
3. Нажать О.К.
В клиенте utorrent
Инструкция
1) Открыть торрент

2) Снять галки с тех файлов торрента, которые мы не хотим закачивать:
* либо вручную, снимая с каждого файла галку( скрин №1)
* либо, нажав кнопку "Снять метки (Select None)", сняв сразу со всех файлов(скрин №2)
№1

№2

Оставляем только на нужных нам файлах (файле).

3)Нажать О.К
-- -- --Внимание!!! 07.03. 2017. РАЗДАЧА ОБНОВЛЕНА. ФИНАЛ СЕЗОНА. ОБНОВИТЕ ТОРЕНТ ФАЙЛ.ПРИЯТНОГО ПРОСМОТРА . --Релиз от: Nikolai.Baranov & PIRATIYA -- -- -- --
[Profile]  [PM] 
Display posts:    
Reply to topic

Current time is: 21-Sep 13:46

All times are UTC + 2



You cannot post new topics in this forum
You cannot reply to topics in this forum
You cannot edit your posts in this forum
You cannot delete your posts in this forum
You cannot vote in polls in this forum
You cannot attach files in this forum
You cannot download files in this forum