Железный кулак / Marvel's Iron Fist (Сезон 1, Серия 1-13 из 13) (Джон Дал, Фэррен Блэкберн, Ута ) [2017 , Фантастика, боевик, криминал, приключения , WEB-DLRip 1080p] [LostFilm , NewStudiо ,BaibaKo , English] + [Subs ENG]

Reply to topic
 
Author
Message

Враг Нароода ®

Gender: Unknown

Longevity: 5 years 7 months

Posts: 408

Reputation: 1 [+] [-]

Враг Нароода · Post 02-Apr-2017 17:38

[Quote] 

--Железный кулак / Marvel's Iron Fist Сезон 1, Серия 1-13 из 13 -- --Год выпуска: 2017
Выпущено: США , Marvel Entertainment, Marvel Television, ABC Studios, Disney-ABC Domestic Television, Marvel Entertainmen
Жанр: Фантастика, боевик, криминал, приключения
Продолжительность: 00:58:00
Сезон:1
Серия:1-13
Количество серий в сезоне: 13
Озвучка1: Профессиональный многоголосый - LostFilm -Русский
Озвучка2: Профессиональный многоголосый - NewStudiо -Русский
Озвучка3: Профессиональный многоголосый - BaibaKo -Русский
Озвучка 4: Профессиональный многоголосый - Английский - Оригинал
Субтитры: : English --MDB --Режиссеры:
Джон Дал, Фэррен Блэкберн, Ута Бризвитц--Актеры:
Финн Джонс, Джессика Хенвик, Джессика Строуп, Дэвид Уэнэм, Розарио Доусон, Рамон Фернандес, Хосе Баэс, Людовик Куто, Тоби Николс, Крэйг Джерати, Доа Моа, Тихуана Рикс, По Шадоу, Йинка Адебойэку, Джастин Блейк, Никита Боголюбов, Николь Бонифачио, Альберто Бонилла, Эммануэль Браун-- Спустя годы после исчезновения Дэниэл Рэнд возвращается в Нью-Йорк и начинает борьбу с криминалом, используя свои невообразимые навыки кунг-фу и способность вызывать силу Железного кулака.-- --Качество :WEB-DLRip 1080p
Формат: MKV
Видео кодек: H264
Видео: 5159Кбит/сек,1920х1080(16.9),в 25.000кадр/сек,AVC(Baseline@L4)(1Ref Frames)
Аудио Кодек:AC3
Аудио #1:AC3 , 384 Kbps, 48.0 KHz, 6 ch- LostFilm -Русский
Аудио #2:AC3 , 384 Kbps, 48.0 KHz, 6 ch- NewStudiо -Русский
Аудио #3:AC3 , 384 Kbps, 48.0 KHz, 6 ch- BaibaKo -Русский
Аудио #4: AC3, 640 Kbps, 48.0 KHz,6 ch - - English - Оригинал--

Доп. информация:

Звуковая дорожка сделана путем наложения чистого голоса озвучивателей на центральный канал оригинальной дорожки. Качество идентично звуковой дорожке.
--

Список эпизодов сезона


01. Снег сошел ( Snow Gives Way)
02. Темный ястреб взлетает ( Shadow Hawk Takes Flight)
03. Громовой пушечный удар ( Rolling Thunder Cannon Punch)
04. Восьмая форма ладони дракона ( Eight Diagram Dragon Palm)
05. Под листом сорви лотос ( Under Leaf Pluck Lotus)
06. Бессмертный выходит из пещеры ( Immortal Emerges from Cave)
07. Валить дерево с корнями ( Felling with Tree Roots)
08. Благословение множества переломов ( The Blessing of Many Fractures)
09. Госпожа всех агоний ( The Mistress of All Agonies)
10. Черный тигр крадет сердце ( Black Tiger Steals Hearts)
11. Вернуть коня в стойло ( Lead Horse Back to Stable)
12. Захват большого босса ( Bar the Big Boss)
13. Дракон играет с огнем ( Dragon Plays with Fire)
--

MediaInfo сезона

Общее
Уникальный идентификатор : 180888448579839682894073389159591129645 (0x8815D914A6C6A34C96DF57FE4843322D)
Полное имя : C:\ПИРАТИЯ(PIRATIYA)\HDTV 1080p\ЖЕЛЕЗНЫЙ КУЛАК\Marvel's_Iron_Fist_2017_S01_Rus[LostFilm_NewStudio_BaibaKo]Eng_H264_DD5.1_N.B_WEBRip_1080p\Marvel's_Iron_Fist_2017_S01Е01_3хRus_Eng_H264_DD5.1_N.B_WEBRip_1080.mkv
Формат : Matroska
Версия формата : Version 4 / Version 2
Размер файла : 3,13 Гбайт
Продолжительность : 56 м. 11 с.
Режим общего битрейта : Переменный
Общий поток : 7987 Кбит/сек
Название фильма : Marvel's_Iron_Fist_2017_S01Е01_3хRus_Eng_H264_DD5.1_N.B_WEBRip_1080
Дата кодирования : UTC 2017-03-28 04:52:04
Программа кодирования : mkvmerge v10.0.0 ('To Drown In You') 64bit
Библиотека кодирования : libebml v1.3.4 + libmatroska v1.4.5
Видео
Идентификатор : 1
Формат : AVC
Формат/Информация : Advanced Video Codec
Профиль формата : Baseline@L4
Параметр CABAC формата : Нет
Параметр ReFrames формата : 1 кадр
Параметр GOP формата : M=1, N=12
Идентификатор кодека : V_MPEG4/ISO/AVC
Продолжительность : 56 м. 10 с.
Вид битрейта : Переменный
Битрейт : 6192 Кбит/сек
Максимальный битрейт : 9000 Кбит/сек
Ширина : 1920 пикселей
Высота : 1080 пикселей
Соотношение сторон : 16:9
Режим частоты кадров : Постоянный
Частота кадров : 25,000 кадров/сек
Частота кадров в оригинале : 24,000 кадра/сек
Цветовое пространство : YUV
Субдискретизация насыщенности : 4:2:0
Битовая глубина : 8 бит
Тип развёртки : Прогрессивная
Бит/(Пиксели*Кадры) : 0.119
Размер потока : 2,43 Гбайт (78%)
Заголовок : Marvel's_Iron_Fist_2017_S01Е01_3хRus_Eng_H264_DD5.1_N.B_WEBRip_1080
Язык : Russian
Default : Да
Forced : Нет
Аудио #1
Идентификатор : 4
Формат : AC-3
Формат/Информация : Audio Coding 3
Параметр Endianness формата : Big
Идентификатор кодека : A_AC3
Продолжительность : 56 м. 9 с.
Вид битрейта : Постоянный
Битрейт : 384 Кбит/сек
Каналы : 6 каналов
Расположение каналов : Front: L C R, Side: L R, LFE
Частота : 48,0 КГц
Частота кадров : 31,250 кадров/сек (1536 spf)
Битовая глубина : 16 бит
Метод сжатия : С потерями
Размер потока : 154 Мбайт (5%)
Заголовок : MVO LostFilm @DD5.1 AC3, 384 Kbps, 48.0 KHz, 6 ch
Язык : Russian
ServiceKind/String : Complete Main
Default : Да
Forced : Нет
Аудио #2
Идентификатор : 5
Формат : AC-3
Формат/Информация : Audio Coding 3
Параметр Endianness формата : Big
Идентификатор кодека : A_AC3
Продолжительность : 56 м. 11 с.
Вид битрейта : Постоянный
Битрейт : 384 Кбит/сек
Каналы : 6 каналов
Расположение каналов : Front: L C R, Side: L R, LFE
Частота : 48,0 КГц
Частота кадров : 31,250 кадров/сек (1536 spf)
Битовая глубина : 16 бит
Метод сжатия : С потерями
Размер потока : 154 Мбайт (5%)
Заголовок : MVO NewStudio @DD5.1 AC3, 384 Kbps, 48.0 KHz, 6 ch
Язык : Russian
ServiceKind/String : Complete Main
Default : Нет
Forced : Нет
Аудио #3
Идентификатор : 6
Формат : AC-3
Формат/Информация : Audio Coding 3
Параметр Endianness формата : Big
Идентификатор кодека : A_AC3
Продолжительность : 56 м. 10 с.
Вид битрейта : Постоянный
Битрейт : 384 Кбит/сек
Каналы : 6 каналов
Расположение каналов : Front: L C R, Side: L R, LFE
Частота : 48,0 КГц
Частота кадров : 31,250 кадров/сек (1536 spf)
Битовая глубина : 16 бит
Метод сжатия : С потерями
Размер потока : 154 Мбайт (5%)
Заголовок : MVO BaibaKo @DD5.1 AC3, 384 Kbps, 48.0 KHz, 6 ch
Язык : Russian
ServiceKind/String : Complete Main
Default : Нет
Forced : Нет
Аудио #4
Идентификатор : 7
Формат : AC-3
Формат/Информация : Audio Coding 3
Параметр Endianness формата : Big
Идентификатор кодека : A_AC3
Продолжительность : 56 м. 11 с.
Вид битрейта : Постоянный
Битрейт : 640 Кбит/сек
Каналы : 6 каналов
Расположение каналов : Front: L C R, Side: L R, LFE
Частота : 48,0 КГц
Частота кадров : 31,250 кадров/сек (1536 spf)
Битовая глубина : 16 бит
Метод сжатия : С потерями
Размер потока : 257 Мбайт (8%)
Заголовок : Original@DD5.1 AC3 ,640 Kbps, 48.0 KHz, 6 ch
Язык : English
ServiceKind/String : Complete Main
Default : Нет
Forced : Нет
Текст #1
Идентификатор : 2
Формат : UTF-8
Идентификатор кодека : S_TEXT/UTF8
Идентификатор кодека/Информация : UTF-8 Plain Text
Продолжительность : 52 м. 28 с.
Битрейт : 78 бит/сек
ElementCount : 617
Размер потока : 30,3 Кбайт (0%)
Заголовок : Rus
Язык : Russian
Default : Да
Forced : Нет
Текст #2
Идентификатор : 3
Формат : UTF-8
Идентификатор кодека : S_TEXT/UTF8
Идентификатор кодека/Информация : UTF-8 Plain Text
Продолжительность : 54 м. 45 с.
Битрейт : 52 бит/сек
ElementCount : 749
Размер потока : 21,0 Кбайт (0%)
Заголовок : Original
Язык : English
Default : Нет
Forced : Нет
Меню
00:00:00.000 : en:Глава 01 / en:Глава 01 / en:Глава 01 / en:Глава 01 / en:Глава 01 / en:Глава 01 / en:Глава 01
--

Скриншоты

-- --

Как закачать отдельный файл

1. Открыть торрент
2. Снять галки с тех файлов торрента, которые мы не хотим закачивать. Оставляем только на нужных нам файлах (файле).
3. Нажать О.К.
В клиенте utorrent
Инструкция
1) Открыть торрент

2) Снять галки с тех файлов торрента, которые мы не хотим закачивать:
* либо вручную, снимая с каждого файла галку( скрин №1)
* либо, нажав кнопку "Снять метки (Select None)", сняв сразу со всех файлов(скрин №2)
№1

№2

Оставляем только на нужных нам файлах (файле).

3)Нажать О.К
-- -- --Внимание!!! 04.05. 2017. РАЗДАЧА ОБНОВЛЕНА. ФИНАЛ СЕЗОНА. ОБНОВИТЕ ТОРЕНТ ФАЙЛ.ПРИЯТНОГО ПРОСМОТРА . --Релиз от: Nikolai.Baranov & PIRATIYA -- -- -- --
[Profile]  [PM] 
Display posts:    
Reply to topic

Current time is: 07-Apr 16:36

All times are UTC + 2



You cannot post new topics in this forum
You cannot reply to topics in this forum
You cannot edit your posts in this forum
You cannot delete your posts in this forum
You cannot vote in polls in this forum
You cannot attach files in this forum
You cannot download files in this forum