Последнее Королевство / The Last Kingdom (Сезон 2 , Серия 1-8 из 8) (Ник Мёрфи, Энтони Бирн, Бен Чанан) [2017 , Исторический, боевик, мелодрама , HDTVRip 1080p] [LostFilm , NewStudiо ,BaibaKo , English] + [Subs ,ENG]

Reply to topic
 
Author
Message

Враг Нароода ®

Gender: Unknown

Longevity: 7 years

Posts: 495

Reputation: 1 [+] [-]

Враг Нароода · Post 10-Apr-2017 16:34

[Quote] 

--Последнее Королевство / The Last Kingdom Сезон 2 , Серия 1-8 из 8-- --Год выпуска: 2017
Выпущено: Великобритания , Carnival Film & Television
Жанр: Исторический, боевик, мелодрама
Продолжительность: 00:56:00
Сезон:2
Серия:1-8
Количество серий в сезоне: 8
Озвучка1: Профессиональный многоголосый - LostFilm -Русский
Озвучка2: Профессиональный многоголосый - NewStudiо -Русский
Озвучка3: Профессиональный многоголосый - BaibaKo -Русский
Озвучка 4: Профессиональный многоголосый - Английский - Оригинал
Субтитры: : English -- --Режиссеры:
Ник Мёрфи, Энтони Бирн, Бен Чанан, Питер Хор, Джон Ист--Актеры:
Александр Дреймон, Иэн Харт, Эмили Кокс, Тобиас Зантельман, Дэвид Доусон, Рюн Темт, Томас В. Габриэльссон, Петер Ганцлер, Эми Рен, Адриан Бауэр, Брайан Вернел, Мэттью Макфейден, Рутгер Хауэр, Джозеф Миллсон, Шон Джилдер, Чарли Мёрфи, Николас Роу, Алек Ньюман, Николет Барабас, Ева Бертистл, Лоркан Кранич-- Сюжет рассказывает о временах правления короля Уэссекса Альфреда Великого, сумевшего отвоевать английские земли у датских викингов — заморских захватчиков. Главным героем повествования выступает ещё в младенчестве похищенный данами Утред — потомок благородного саксонского рода. Воспитанный как викинг, в очень непростой момент жизненного выбора молодой воин должен будет решить для себя, чью сторону он примет в решающих сражениях за судьбу древней Британии.-- --Качество :HDTVRip 1080p
Формат: MKV
Видео кодек: H264
Видео: 7642Кбит/сек,1920х1080(16.9), в 25.000кадр/сек,AVC (PAL) (High@L5.1)(CABAC/4 Ref Frames)
Аудио Кодек:AC3
Аудио #1:AC3 , 640 Kbps, 48.0 KHz, 6 ch- LostFilm -Русский
Аудио #2:AC3 , 384 Kbps, 48.0 KHz, 6 ch- NewStudiо -Русский
Аудио #3:AC3 , 384 Kbps, 48.0 KHz, 6 ch- BaibaKo -Русский
Аудио #6: AC3, 640 Kbps, 48.0 KHz,6 ch - - English - Оригинал--

Доп. информация:

Звуковая дорожка сделана путем наложения чистого голоса озвучивателей на центральный канал оригинальной дорожки. Качество идентично звуковой дорожке.
--

Список эпизодов сезона


2 сезон 1 серия Эпизод 1 - Episode 1
2 сезон 2 серия Эпизод 2 - Episode 2
2 сезон 3 серия Эпизод 3 - Episode 3
2 сезон 4 серия Эпизод 4 - Episode 4
2 сезон 5 серия Эпизод 5 - Episode 5
2 сезон 6 серия Эпизод 6 - Episode 6
2 сезон 7 серия Эпизод 7 - Episode 7
2 сезон 8 серия Эпизод 8 - Episode 8
--

MediaInfo сезона

Общее
Уникальный идентификатор : 216792181656867990759908815357649609816 (0xA318A7CAAAB35093961D2C82EA5BE458)
Полное имя : C:\ПИРАТИЯ(PIRATIYA)\HDTV 1080p\ПОСЛЕДНЕЕ КОРОЛЕВСТВО\THE_LAST_KINGDOM_2017_S02_3хRus_Eng[LostFilm_NewStudio_BaibaKo]_N.B_HDTV_1080р\The_Last_Kingdom_2017_S02Е01_3хRus_Eng_H264_DD5.1_N.B_HDTV_1080p.mkv
Формат : Matroska
Версия формата : Version 4 / Version 2
Размер файла : 3,81 Гбайт
Продолжительность : 57 м. 11 с.
Режим общего битрейта : Переменный
Общий поток : 9533 Кбит/сек
Название фильма : The_Last_Kingdom_2017_S02Е01_3хRus_Eng_H264_DD5.1_N.B_HDTV_1080p
Дата кодирования : UTC 2017-04-08 13:14:57
Программа кодирования : mkvmerge v10.0.0 ('To Drown In You') 64bit
Библиотека кодирования : libebml v1.3.4 + libmatroska v1.4.5
Видео
Идентификатор : 1
Формат : AVC
Формат/Информация : Advanced Video Codec
Профиль формата : High@L5.1
Параметр CABAC формата : Да
Параметр ReFrames формата : 4 кадра
Идентификатор кодека : V_MPEG4/ISO/AVC
Продолжительность : 56 м. 26 с.
Вид битрейта : Переменный
Битрейт : 7642 Кбит/сек
Ширина : 1920 пикселей
Высота : 1080 пикселей
Соотношение сторон : 16:9
Режим частоты кадров : Постоянный
Частота кадров : 25,000 кадров/сек
Стандарт вещания : PAL
Цветовое пространство : YUV
Субдискретизация насыщенности : 4:2:0
Битовая глубина : 8 бит
Тип развёртки : Прогрессивная
Бит/(Пиксели*Кадры) : 0.147
Размер потока : 2,99 Гбайт (79%)
Заголовок : The_Last_Kingdom_2017_S02Е01_3хRus_Eng_H264_DD5.1_N.B_HDTV_1080p
Язык : Russian
Default : Да
Forced : Нет
Цветовой диапазон : Full
Основные цвета : BT.709
Характеристики трансфера : BT.709
Коэффициенты матрицы : BT.709
Аудио #1
Идентификатор : 3
Формат : AC-3
Формат/Информация : Audio Coding 3
Параметр Endianness формата : Big
Идентификатор кодека : A_AC3
Продолжительность : 56 м. 26 с.
Вид битрейта : Постоянный
Битрейт : 640 Кбит/сек
Каналы : 6 каналов
Расположение каналов : Front: L C R, Side: L R, LFE
Частота : 48,0 КГц
Частота кадров : 31,250 кадров/сек (1536 spf)
Битовая глубина : 16 бит
Метод сжатия : С потерями
Размер потока : 258 Мбайт (7%)
Заголовок : MVO LostFilm @DD5.1 AC3, 640 Kbps, 48.0 KHz, 6 ch
Язык : Russian
ServiceKind/String : Complete Main
Default : Да
Forced : Нет
Аудио #2
Идентификатор : 4
Формат : AC-3
Формат/Информация : Audio Coding 3
Параметр Endianness формата : Big
Идентификатор кодека : A_AC3
Продолжительность : 57 м. 11 с.
Вид битрейта : Постоянный
Битрейт : 384 Кбит/сек
Каналы : 6 каналов
Расположение каналов : Front: L C R, Side: L R, LFE
Частота : 48,0 КГц
Частота кадров : 31,250 кадров/сек (1536 spf)
Битовая глубина : 16 бит
Метод сжатия : С потерями
Размер потока : 157 Мбайт (4%)
Заголовок : MVO NewStudio @DD5.1 AC3, 384 Kbps, 48.0 KHz, 6 ch
Язык : Russian
ServiceKind/String : Complete Main
Default : Нет
Forced : Нет
Аудио #3
Идентификатор : 5
Формат : AC-3
Формат/Информация : Audio Coding 3
Параметр Endianness формата : Big
Идентификатор кодека : A_AC3
Продолжительность : 57 м. 10 с.
Вид битрейта : Постоянный
Битрейт : 384 Кбит/сек
Каналы : 6 каналов
Расположение каналов : Front: L C R, Side: L R, LFE
Частота : 48,0 КГц
Частота кадров : 31,250 кадров/сек (1536 spf)
Битовая глубина : 16 бит
Метод сжатия : С потерями
Размер потока : 157 Мбайт (4%)
Заголовок : MVO BaibaKo @DD5.1 AC3, 384 Kbps, 48.0 KHz, 6 ch
Язык : Russian
ServiceKind/String : Complete Main
Default : Нет
Forced : Нет
Аудио #4
Идентификатор : 6
Формат : AC-3
Формат/Информация : Audio Coding 3
Параметр Endianness формата : Big
Идентификатор кодека : A_AC3
Продолжительность : 57 м. 11 с.
Вид битрейта : Постоянный
Битрейт : 640 Кбит/сек
Каналы : 6 каналов
Расположение каналов : Front: L C R, Side: L R, LFE
Частота : 48,0 КГц
Частота кадров : 31,250 кадров/сек (1536 spf)
Битовая глубина : 16 бит
Метод сжатия : С потерями
Размер потока : 262 Мбайт (7%)
Заголовок : Original@DD5.1 AC3 ,640 Kbps, 48.0 KHz, 6 ch
Язык : English
ServiceKind/String : Complete Main
Default : Нет
Forced : Нет
Текст
Идентификатор : 2
Формат : UTF-8
Идентификатор кодека : S_TEXT/UTF8
Идентификатор кодека/Информация : UTF-8 Plain Text
Продолжительность : 56 м. 24 с.
Битрейт : 59 бит/сек
ElementCount : 846
Размер потока : 24,7 Кбайт (0%)
Заголовок : Original
Язык : English
Default : Да
Forced : Нет
Меню
00:00:00.000 : en:Глава 01 / en:Глава 01 / en:Глава 01 / en:Глава 01 / en:Глава 01 / en:Глава 01
--

Скриншоты

-- --

Как закачать отдельный файл

1. Открыть торрент
2. Снять галки с тех файлов торрента, которые мы не хотим закачивать. Оставляем только на нужных нам файлах (файле).
3. Нажать О.К.
В клиенте utorrent
Инструкция
1) Открыть торрент

2) Снять галки с тех файлов торрента, которые мы не хотим закачивать:
* либо вручную, снимая с каждого файла галку( скрин №1)
* либо, нажав кнопку "Снять метки (Select None)", сняв сразу со всех файлов(скрин №2)
№1

№2

Оставляем только на нужных нам файлах (файле).

3)Нажать О.К
-- -- --Внимание!!! 08.05. 2017. РАЗДАЧА ОБНОВЛЕНА. ФИНАЛ СЕЗОНА. ОБНОВИТЕ ТОРЕНТ ФАЙЛ.ПРИЯТНОГО ПРОСМОТРА . --Релиз от: Nikolai.Baranov & PIRATIYA -- -- -- --
[Profile]  [PM] 
Display posts:    
Reply to topic

Current time is: 21-Sep 12:53

All times are UTC + 2



You cannot post new topics in this forum
You cannot reply to topics in this forum
You cannot edit your posts in this forum
You cannot delete your posts in this forum
You cannot vote in polls in this forum
You cannot attach files in this forum
You cannot download files in this forum