Спартак: кровь и песок / Spartacus: Blood and Sand / 1 сезон / 01-13 серии (13) (2010 г., боевик, фэнтези, драма, BDRip)

Reply to topic
 
Author
Message

LORN-V ®

Gender: Male

Longevity: 8 years 5 months

Posts: 904

Reputation: 5 [+] [-]

Location: Munchen

LORN-V · Post 08-Apr-2013 15:39

[Quote] 

Спартак: кровь и песок / Spartacus: Blood and Sand- -Год выпуска: 2010
Страна: США
Жанр: боевик, фэнтези, драма
Продолжительность: ~60 минут серия
Перевод: Профессиональное многоголосое (LostFilm), Профессиональный (полное дублирование, Рен ТВ)
Режиссер: Майкл Херст, Рик Джейкобсон, Джесси Уарн
В ролях: Ману Беннетт, Питер Менса, Ник Тарабэй, Вива Скубижевски, Джей Кортни, Лесли-Энн Брандт, Эрин Каммингс, Энди Уитфилд, Джон Ханна, Крэйг Паркер-Описание:-Легенда о фракийском воине Спартаке, попавшем в рабство к римлянам, ставшим гладиатором и возглавившим одно из самых массовых восстаний рабов в Древнем Риме - известна всем ещё со школьной скамьи. Создатели сериала дают нам возможность вновь окунуться в атмосферу античности и помогают древней легенде буквально заиграть новыми красками, с применением новейших технологий кинематографии.-Качество: BDRip 1080p
Формат: MKV
Видео кодек: H.264
Аудио кодек: AC3
Видео: 1920 х 1080, 23.976 fps, 13 500 Kbps, 0.272 bit/pixel
Аудио 1 RUS: AC3, 48000Hz 448 Kbps kb/s, 6 channels (LostFilm)
Аудио 2 RUS: AC3, 48000Hz 192 Kbps kb/s, 2 channels (Рен ТВ)
Аудио 3 ENG: AC3, 48000Hz 448 Kbps kb/s, 6 channels
Субтитры: русские, английские-Релиз от: -

MInfo

Полное имя : Spartacus.Blood.and.Sand.S01E01.1080p.BDRip.rip_by_genkasper.mkv
Формат : Matroska
Версия формата : Version 2
Размер файла : 5,60 Гбайт
Продолжительность : 54 м.
Общий поток : 14,6 Мбит/сек
Дата кодирования : UTC 2012-03-07 14:41:00
Программа кодирования : mkvmerge v5.3.0 ('I could have danced') built on Feb 9 2012 10:38:07
Библиотека кодирования : libebml v1.2.3 + libmatroska v1.3.0
Видео
Идентификатор : 1
Формат : AVC
Формат/Информация : Advanced Video Codec
Профиль формата : High@L4.1
Параметр CABAC формата : Да
Параметр ReFrames формата : 4 кадра
Идентификатор кодека : V_MPEG4/ISO/AVC
Продолжительность : 54 м.
Битрейт : 13,5 Мбит/сек
Ширина : 1920 пикселей
Высота : 1080 пикселей
Соотношение сторон : 16:9
Частота кадров : 23,976 кадра/сек
Цветовое пространство : YUV
Субдискретизация насыщенности : 4:2:0
Битовая глубина : 8 бит
Тип развёртки : Прогрессивная
Бит/(Пиксели*Кадры) : 0.272
Размер потока : 5,07 Гбайт (91%)
Заголовок : by_genkasper
Библиотека кодирования : x264 core 92 r1510 33d382a
Настройки программы : cabac=1 / ref=4 / deblock=1:0:0 / analyse=0x3:0x113 / me=umh / subme=9 / psy=1 / psy_rd=1.00:0.00 / mixed_ref=1 / me_range=32 / chroma_me=1 / trellis=1 / 8x8dct=1 / cqm=0 / deadzone=21,11 / fast_pskip=1 / chroma_qp_offset=-2 / threads=3 / sliced_threads=0 / nr=0 / decimate=1 / interlaced=0 / constrained_intra=0 / bframes=5 / b_pyramid=2 / b_adapt=2 / b_bias=0 / direct=3 / wpredb=1 / wpredp=2 / keyint=250 / keyint_min=25 / scenecut=40 / intra_refresh=0 / rc_lookahead=50 / rc=2pass / mbtree=1 / bitrate=13500 / ratetol=1.0 / qcomp=0.60 / qpmin=10 / qpmax=51 / qpstep=4 / cplxblur=20.0 / qblur=0.5 / ip_ratio=1.40 / aq=1:1.00
Язык : English
Default : Да
Forced : Нет
Аудио #1
Идентификатор : 2
Формат : AC-3
Формат/Информация : Audio Coding 3
Расширение режима : CM (complete main)
Идентификатор кодека : A_AC3
Продолжительность : 54 м.
Вид битрейта : Постоянный
Битрейт : 448 Кбит/сек
Каналы : 6 каналов
Расположение каналов : Front: L C R, Side: L R, LFE
Частота : 48,0 КГц
Битовая глубина : 16 бит
Метод сжатия : С потерями
Размер потока : 176 Мбайт (3%)
Заголовок : LostFilm
Язык : Russian
Default : Да
Forced : Нет
Аудио #2
Идентификатор : 3
Формат : AC-3
Формат/Информация : Audio Coding 3
Расширение режима : CM (complete main)
Идентификатор кодека : A_AC3
Продолжительность : 54 м.
Вид битрейта : Постоянный
Битрейт : 192 Кбит/сек
Каналы : 2 канала
Расположение каналов : Front: L R
Частота : 48,0 КГц
Битовая глубина : 16 бит
Метод сжатия : С потерями
Размер потока : 75,4 Мбайт (1%)
Заголовок : дубляж РенТВ
Язык : Russian
Default : Нет
Forced : Нет
Аудио #3
Идентификатор : 4
Формат : AC-3
Формат/Информация : Audio Coding 3
Расширение режима : CM (complete main)
Идентификатор кодека : A_AC3
Продолжительность : 54 м.
Вид битрейта : Постоянный
Битрейт : 448 Кбит/сек
Каналы : 6 каналов
Расположение каналов : Front: L C R, Side: L R, LFE
Частота : 48,0 КГц
Битовая глубина : 16 бит
Метод сжатия : С потерями
Размер потока : 176 Мбайт (3%)
Заголовок : original
Язык : English
Default : Нет
Forced : Нет
Текст #1
Идентификатор : 5
Формат : UTF-8
Идентификатор кодека : S_TEXT/UTF8
Идентификатор кодека/Информация : UTF-8 Plain Text
Заголовок : rus, srt
Язык : Russian
Default : Да
Forced : Нет
Текст #2
Идентификатор : 6
Формат : UTF-8
Идентификатор кодека : S_TEXT/UTF8
Идентификатор кодека/Информация : UTF-8 Plain Text
Заголовок : eng, srt
Язык : English
Default : Нет
Forced : Нет
-

Скриншоты

[Profile]  [PM] 
Display posts:    
Reply to topic

Current time is: 21-Sep 13:35

All times are UTC + 2



You cannot post new topics in this forum
You cannot reply to topics in this forum
You cannot edit your posts in this forum
You cannot delete your posts in this forum
You cannot vote in polls in this forum
You cannot attach files in this forum
You cannot download files in this forum