Спартак: Боги Арены / Spartacus: Gods of the Arena (Расширенная версия) / Серии 1-6 (6) (2011 г., историческая драма, BDRip 1080p)

Reply to topic
 
Author
Message

LORN-V ®

Gender: Male

Longevity: 8 years 5 months

Posts: 904

Reputation: 5 [+] [-]

Location: Munchen

LORN-V · Post 08-Apr-2013 17:06

[Quote] 

Спартак: Боги Арены / Spartacus: Gods of the Arena- Год выпуска: 2011
Страна: США
Жанр: историческая драма
Продолжительность: ~ 00:55:00 серия
Перевод: Профессиональный (многоголосый, закадровый) LostFilm, Профессиональный дублированный (Рен ТВ)
Субтитры: есть (Английские / Русские + (на места без озвучки.) *.srt)
Режиссер: Рик Джейкобсон
В ролях: Лесли-Энн Брандт, Люси Лоулесс, Джессика Грэйс Смит, Ник Тарабэй, Райхо Василев, Мариса Рамирез, Ману Беннетт, Дастин Клер, Джон Ханна, Питер Менса и др.-Описание:-У каждой истории есть своя предыстория. В сериале "Спартак: Боги Арены" мы увидим события, предшествующие появлению Спартака: Батиат лишь делает первые шаги на поприще главы собственного лудуса. Молодой чемпион Ганник начинает завоёвывать сердца жителей Капуи, чтобы пробиться в когорту лучших из лучших.-Качество: BDRip 1080p
Формат: MKV
Видео кодек: h 264
Аудио кодек: AC3
Видео: 1920*1080, 23.976 fps, AVC, ~10 000 kbps, High@L4.1
Аудио #1: 48 kHz, AC3 Dolby Digital, 3/2 (L,C,R,l,r) + LFE ch, ~384.00 kbps avg |LostFilm|
Аудио #2: 48 kHz, AC3 2.0 (L,R) ch, ~192.00 kbps avg |Рен ТВ|
Аудио #3: 48 kHz, AC3 Dolby Digital, 3/2 (L,C,R,l,r) + LFE ch, ~384.00 kbps avg |Original|
Субтитры: русские (на расширенные места), русские, английские-Релиз от: -

MInfo

Полное имя : Spartacus.Gods.of.the.Arena.s01e01.2011.BDRip.1080p.by_genkasper.mkv
Формат : Matroska
Версия формата : Version 2
Размер файла : 4,04 Гбайт
Продолжительность : 52 м.
Общий поток : 11,0 Мбит/сек
Дата кодирования : UTC 2012-03-07 19:27:44
Программа кодирования : mkvmerge v5.3.0 ('I could have danced') built on Feb 9 2012 10:38:07
Библиотека кодирования : libebml v1.2.3 + libmatroska v1.3.0
Видео
Идентификатор : 1
Формат : AVC
Формат/Информация : Advanced Video Codec
Профиль формата : High@L4.1
Параметр CABAC формата : Да
Параметр ReFrames формата : 4 кадра
Идентификатор кодека : V_MPEG4/ISO/AVC
Продолжительность : 52 м.
Битрейт : 10000 Кбит/сек
Ширина : 1920 пикселей
Высота : 1080 пикселей
Соотношение сторон : 16:9
Частота кадров : 23,976 кадра/сек
Цветовое пространство : YUV
Субдискретизация насыщенности : 4:2:0
Битовая глубина : 8 бит
Тип развёртки : Прогрессивная
Бит/(Пиксели*Кадры) : 0.201
Размер потока : 3,61 Гбайт (89%)
Заголовок : by_genkasper
Библиотека кодирования : x264 core 115 r1936 7a9e08d
Настройки программы : cabac=1 / ref=4 / deblock=1:-1:-1 / analyse=0x3:0x133 / me=umh / subme=9 / psy=1 / psy_rd=1.00:0.10 / mixed_ref=1 / me_range=16 / chroma_me=1 / trellis=2 / 8x8dct=1 / cqm=0 / deadzone=21,11 / fast_pskip=1 / chroma_qp_offset=-3 / threads=9 / sliced_threads=0 / nr=0 / decimate=1 / interlaced=0 / bluray_compat=0 / constrained_intra=0 / bframes=8 / b_pyramid=2 / b_adapt=2 / b_bias=0 / direct=3 / weightb=1 / open_gop=0 / weightp=2 / keyint=250 / keyint_min=23 / scenecut=40 / intra_refresh=0 / rc_lookahead=50 / rc=2pass / mbtree=1 / bitrate=10000 / ratetol=1.0 / qcomp=0.70 / qpmin=0 / qpmax=69 / qpstep=4 / cplxblur=20.0 / qblur=0.5 / ip_ratio=1.40 / aq=1:1.00
Язык : English
Default : Да
Forced : Нет
Аудио #1
Идентификатор : 2
Формат : AC-3
Формат/Информация : Audio Coding 3
Расширение режима : CM (complete main)
Идентификатор кодека : A_AC3
Продолжительность : 52 м.
Вид битрейта : Постоянный
Битрейт : 384 Кбит/сек
Каналы : 6 каналов
Расположение каналов : Front: L C R, Side: L R, LFE
Частота : 48,0 КГц
Битовая глубина : 16 бит
Метод сжатия : С потерями
Размер потока : 145 Мбайт (4%)
Заголовок : LostFilm
Язык : Russian
Default : Да
Forced : Нет
Аудио #2
Идентификатор : 3
Формат : AC-3
Формат/Информация : Audio Coding 3
Расширение режима : CM (complete main)
Идентификатор кодека : A_AC3
Продолжительность : 52 м.
Вид битрейта : Постоянный
Битрейт : 192 Кбит/сек
Каналы : 2 канала
Расположение каналов : Front: L R
Частота : 48,0 КГц
Битовая глубина : 16 бит
Метод сжатия : С потерями
Размер потока : 72,5 Мбайт (2%)
Заголовок : дубляж, Рен TV
Язык : Russian
Default : Нет
Forced : Нет
Аудио #3
Идентификатор : 4
Формат : AC-3
Формат/Информация : Audio Coding 3
Расширение режима : CM (complete main)
Идентификатор кодека : A_AC3
Продолжительность : 52 м.
Вид битрейта : Постоянный
Битрейт : 384 Кбит/сек
Каналы : 6 каналов
Расположение каналов : Front: L C R, Side: L R, LFE
Частота : 48,0 КГц
Битовая глубина : 16 бит
Метод сжатия : С потерями
Размер потока : 145 Мбайт (4%)
Заголовок : original
Язык : English
Default : Нет
Forced : Нет
Текст #1
Идентификатор : 5
Формат : UTF-8
Идентификатор кодека : S_TEXT/UTF8
Идентификатор кодека/Информация : UTF-8 Plain Text
Заголовок : на непереведённые места
Язык : Russian
Default : Да
Forced : Да
Текст #2
Идентификатор : 6
Формат : UTF-8
Идентификатор кодека : S_TEXT/UTF8
Идентификатор кодека/Информация : UTF-8 Plain Text
Заголовок : Rus, srt
Язык : Russian
Default : Нет
Forced : Нет
Текст #3
Идентификатор : 7
Формат : UTF-8
Идентификатор кодека : S_TEXT/UTF8
Идентификатор кодека/Информация : UTF-8 Plain Text
Заголовок : eng, srt
Язык : English
Default : Нет
Forced : Нет
-

Список серий


1. Былые проступки (Past Transgressions)
2. Пощада (Missio)
3. Глава семьи (Paterfamilias)
4. Под маской (Beneath The Mask)
5. Расплата (Reckoning)
6. Горький финал (The Bitter End)
-

Скриншоты

[Profile]  [PM] 
Display posts:    
Reply to topic

Current time is: 20-Sep 14:00

All times are UTC + 2



You cannot post new topics in this forum
You cannot reply to topics in this forum
You cannot edit your posts in this forum
You cannot delete your posts in this forum
You cannot vote in polls in this forum
You cannot attach files in this forum
You cannot download files in this forum