Спартак: Война проклятых / Spartacus: War of the Damned / 3 сезон / серии 01-10 (10) (2013 г., Боевик, Драма, Приключения, HDTV 720р) Профессиональный (многоголосый) [Lostfilm]

Reply to topic
 
Author
Message

LORN-V ®

Gender: Male

Longevity: 8 years 5 months

Posts: 904

Reputation: 5 [+] [-]

Location: Munchen

LORN-V · Post 08-Apr-2013 17:42

[Quote] 

Спартак: Война проклятых / Spartacus: War of the Damned- Год выпуска: 2013
Страна: США
Жанр: Боевик, Драма, Приключения
Продолжительность: 00:50:46 .
Перевод: профессиональный (многоголосый, закадровый)
Режиссер: Джесси Уарн, Майкл Херст, Рик Джейкобсон
В ролях: Лиам МакИнтайр, Джон Ханна, Люси Лоулесс, Ману Беннетт, Питер Менса, Ник Тарабэй, Вива Бьянка, Дэниэл Фьюрриджел, Катрина Ло-Описание:-Предан своей страной. Отдан в рабство. Перерожден воином. «Спартак: Кровь и песок» — это жесткий и выразительный рассказ о самом знаменитом из римских гладиаторов. Спартака разлучили с любовью всей его жизни и заставили выходить на арену, где смерть — лучшее развлечение для толпы. Спартак должен бороться за выживание, подружиться с врагами, и усвоить политику нового мира жестокости, секса и славы. Его будут соблазнять властью и изводить местью. Но его страсть даст ему силы преодолеть все испытания в этой истории о смерти, чести и стойкости.-Качество: HDTV 720р
Формат: MKV
Видео кодек: X264
Аудио кодек: AC3
Видео: 1280x720, MPEG-4 AVC (x264), 4041 Кбит/с, 23.976 fps, 0.183
Audio #1: 48,0 КГц, АС3, 2 ch, 384 Кбит/с (Lostfilm)
Audio #2: 48,0 КГц, АС3, 2 ch, 384 Кбит/с (Оригинал)-

MI

Полное имя : L:Spartacus.War.of.the.Damned.S01.720p.LostFilmSpartacus.War.of.the.Damned.S01E01.720p.rus.LostFilm.TV.mkv
Формат : Matroska
Версия формата : Version 2
Размер файла : 1,71 Гбайт
Продолжительность : 50 м.
Общий поток : 4810 Кбит/сек
Дата кодирования : UTC 2013-01-28 14:44:27
Программа кодирования : mkvmerge v4.2.0 ('No Talking') сборка от Jul 28 2010 18:38:23
Библиотека кодирования : libebml v1.0.0 + libmatroska v1.0.0
Видео
Идентификатор : 1
Формат : AVC
Формат/Информация : Advanced Video Codec
Профиль формата : High@L3.1
Параметр CABAC формата : Да
Параметр ReFrames формата : 4 кадра
Идентификатор кодека : V_MPEG4/ISO/AVC
Продолжительность : 50 м.
Битрейт : 4041 Кбит/сек
Ширина : 1280 пикселей
Высота : 720 пикселей
Соотношение сторон : 16:9
Режим частоты кадров : Постоянный
Частота кадров : 23,976 кадра/сек
Цветовое пространство : YUV
Субдискретизация насыщенности : 4:2:0
Битовая глубина : 8 бит
Тип развёртки : Прогрессивная
Бит/(Пиксели*Кадры) : 0.183
Размер потока : 1,40 Гбайт (82%)
Библиотека кодирования : x264 core 112 r1834 a51816a
Настройки программы : cabac=1 / ref=1 / deblock=1:0:0 / analyse=0x3:0x113 / me=hex / subme=7 / psy=1 / psy_rd=1.00:0.00 / mixed_ref=0 / me_range=16 / chroma_me=1 / trellis=1 / 8x8dct=1 / cqm=0 / deadzone=21,11 / fast_pskip=1 / chroma_qp_offset=-2 / threads=6 / sliced_threads=0 / nr=0 / decimate=1 / interlaced=0 / constrained_intra=0 / bframes=3 / b_pyramid=2 / b_adapt=1 / b_bias=0 / direct=1 / weightb=1 / open_gop=0 / weightp=2 / keyint=250 / keyint_min=25 / scenecut=40 / intra_refresh=0 / rc_lookahead=40 / rc=2pass / mbtree=1 / bitrate=4041 / ratetol=1.0 / qcomp=0.60 / qpmin=0 / qpmax=51 / qpstep=4 / cplxblur=20.0 / qblur=0.5 / ip_ratio=1.40 / aq=1:1.00
Default : Да
Forced : Нет
Аудио #1
Идентификатор : 2
Формат : AC-3
Формат/Информация : Audio Coding 3
Расширение режима : CM (complete main)
Параметр Endianness формата : Big
Идентификатор кодека : A_AC3
Продолжительность : 50 м.
Вид битрейта : Постоянный
Битрейт : 384 Кбит/сек
Каналы : 2 канала
Расположение каналов : Front: L R
Частота : 48,0 КГц
Битовая глубина : 16 бит
Метод сжатия : С потерями
Размер потока : 140 Мбайт (8%)
Default : Да
Forced : Нет
Аудио #2
Идентификатор : 3
Формат : AC-3
Формат/Информация : Audio Coding 3
Расширение режима : CM (complete main)
Параметр Endianness формата : Big
Идентификатор кодека : A_AC3
Продолжительность : 50 м.
Вид битрейта : Постоянный
Битрейт : 384 Кбит/сек
Каналы : 2 канала
Расположение каналов : Front: L R
Частота : 48,0 КГц
Битовая глубина : 16 бит
Метод сжатия : С потерями
Размер потока : 140 Мбайт (8%)
Default : Нет
Forced : Нет.

Внимание!: Раздача ведётся путём добавления новых серий

Внимание! Раздача ведётся путём добавления новых серий; при каждом добавлении создётся новый торрент. Чтобы начать докачку новой серии, пользователям необходимо сделать следующее:
(1) остановить скачивание,
(2) удалить старый торрент у себя из клиента (старые серии удалять не надо),
(3) скачать новый торрент и запустить его у себя в клиенте вместо старого, при этом указать клиенту путь в старую папку куда и должно происходить скачивание новых серий.
Ваш клиент при этом должен произвести хеширование (проверку) старой папки (если не производит сам - помогите ему сделать это), и будет докачивать только те серии которых у вас ещё нет. Старые серии при этом не удаляются, а продолжают раздаваться!
Eсли вы уже удалили старые серии, то предотвратить повторную закачку старых серий можно, отжав галочку в соответсвующих местах при запуске нового торрента. По возможности, желательно не удалять старые серии как можно дольше чтобы релизёр не столько продолжал раздавать старые серии, а смог сконцентрироваться на новых.
-

Скриншоты

Добавлена финальная серия!!
[Profile]  [PM] 
Display posts:    
Reply to topic

Current time is: 27-Sep 02:06

All times are UTC + 2



You cannot post new topics in this forum
You cannot reply to topics in this forum
You cannot edit your posts in this forum
You cannot delete your posts in this forum
You cannot vote in polls in this forum
You cannot attach files in this forum
You cannot download files in this forum