Касл-Рок / Castle Rock [2018](Сезон 1, Серия 1-10 из 10)(Майкл Аппендаль, Дэниэл Эттиэс) [Ужасы, фэнтези, триллер, драма, детектив,WEB-DLRip][720p][ Lostfilm+AlexFilm+Gears Media+ ProfixMedia+NewStudio+IdeaFilm+OMSKBIRD+Eng]+[Subs ENG+Rus]

Reply to topic
 
Author
Message

Враг Нароода ®

Gender: Unknown

Longevity: 5 years 7 months

Posts: 408

Reputation: 1 [+] [-]

Враг Нароода · Post 07-Aug-2018 09:43

[Quote] 

-- --Касл-Рок / Castle Rock Сезон 1, Серия 1-10 из 10-- --Год выпуска: 2018
Выпущено: США , Bad Robot, Warner Bros
Жанр:Ужасы, фэнтези, триллер, драма, детектив
Продолжительность: 00:55:00
Сезон:1
Серия: 1-10
Количество серий в сезоне: 10--Озвучка 1: - Профессиональный многоголосый -Lostfilm- Русский
Озвучка2: Профессиональный многоголосый - ProfixMedia -Русский
Озвучка 3: Профессиональный многоголосый - AlexFilm -Русский
Озвучка 4: Профессиональный многоголосый - NewStudio -Русский
Озвучка 5: Профессиональный многоголосый - OMSKBIRD -Русский
Озвучка 6: Профессиональный многоголосый - IdeaFilm -Русский
Озвучка 7: Профессиональный многоголосый - BaibaKo -Русский
Озвучка 8: Профессиональный многоголосый -Jaskier -Русский
Озвучка 9: Профессиональный двухголосый - Gears Media -Русский
Озвучка 10: Профессиональный многоголосый - Английский - Оригинал
Субтитры: : Russian, English, English SDH --Полный Комплект--Официальный сайт
MDB --Режиссер: Майкл Аппендаль, Дэниэл Эттиэс, Кевин Хукс--В ролях: Мелани Лински, Скотт Гленн, Андре Холланд, Джейн Леви, Терри О`Куинн, Билл Скарсгард, Сисси Спейсек, Калил Харрис, Чоузен Джейкобс, Эрик Шарп-- Начальник тюрьмы Шоушенк совершает самоубийство, и после его смерти в закрытом крыле здания находят странного юношу. Никто не знает, кто это, а сам он называет только имя адвоката Генри Дивера, который вырос в Касл-Роке. Дивер возвращается в город, где когда-то трагически погиб его отец, и пытается выяснить историю загадочного заключенного.-- --Качество :WEB-DLRip 720p
Формат: MKV
Видео кодек: H264
Видео: 4310Кбит/сек,1280х640(2.000), в 23.976кадр/сек,AVC (High@L3.1)(CABAC/4 Ref Frames)--Аудио Кодек:AC3
Аудио #1:AC3 384 Kbps, 48.0 KHz, 6 ch- Lostfilm -Русский
Аудио #2:AC3 , 384 Kbps, 48.0 KHz, 6 ch- ProfixMedia -Русский
Аудио #3:AC3 , 384 Kbps, 48.0 KHz, 6 ch-AlexFilm -Русский
Аудио #4:AC3 , 384 Kbps, 48.0 KHz, 6 ch- NewStudio -Русский
Аудио #5:AC3 , 384 Kbps, 48.0 KHz, 6 ch- Gears Media -Русский
Аудио #6:AC3 , 384 Kbps, 48.0 KHz, 6 ch- OMSKBIRD -Русский
Аудио #7:AC3 , 384 Kbps, 48.0 KHz, 6 ch- IdeaFilm -Русский
Аудио #8:AC3 , 384 Kbps, 48.0 KHz, 6 ch- BaibaKo -Русский
Аудио #9:AC3 , 384 Kbps, 48.0 KHz, 6 ch- Jaskier -Русский
Аудио #10: AC3, 384 Kbps, 48.0 KHz,6 ch - - English - Оригинал--

Доп. информация:

Звуковая дорожка сделана путем наложения чистого голоса озвучивателей на центральный канал оригинальной дорожки. Качество идентично звуковой дорожке.
--

Список эпизодов сезона


1 сезон 1 серия - Прощание - Severance
1 сезон 2 серия - Хабеас корпус - Habeas Corpus
1 сезон 3 серия - Краски края - Local Color
1 сезон 4 серия - Ящик - The Box
1 сезон 5 серия - Жатва - Harvest
1 сезон 6 серия - Фильтр - Filter
1 сезон 7 серия - Королева - The Queen
1 сезон 8 серия - Прекрасное прошедшее - Past Perfect
1 сезон 9 серия - Генри Дивер - Henry Deaver
1 сезон 10 серия - "К Римлянам" - Romans
--

MediaInfo сезона

Общее
Уникальный идентификатор : 211580388297088178191372364267061309260 (0x9F2CE68A3990D8E4E4A8372C2818EF4C)
Полное имя : E:\Nikolai.Baranov & PIRATIYA\Касл-Рок - Castle Rock\CASTLE_ROCK_S01_Н264_DD5.1_N.B_HD_720_7xRus_Eng\Castle_Rock_S01E01_Н264_DD5.1_N.B_HD_720_7xRus_Eng.mkv
Формат : Matroska
Версия формата : Version 4
Размер файла : 3,11 Гбайт
Продолжительность : 54 м. 32 с.
Общий поток : 8154 Кбит/сек
Название фильма : Castle Rock S01E01 @ Nikolai.Baranov & PIRATIYA
Дата кодирования : UTC 2018-09-16 17:24:50
Программа кодирования : mkvmerge v26.0.0 ('In The Game') 64-bit
Библиотека кодирования : libebml v1.3.6 + libmatroska v1.4.9
Видео
Идентификатор : 1
Формат : AVC
Формат/Информация : Advanced Video Codec
Профиль формата : High@L3.1
Настройки формата : CABAC / 4 Ref Frames
Параметр CABAC формата : Да
Параметр RefFrames формата : 4 кадра
Идентификатор кодека : V_MPEG4/ISO/AVC
Продолжительность : 54 м. 32 с.
Битрейт : 4310 Кбит/сек
Ширина : 1280 пикселей
Высота : 640 пикселей
Соотношение сторон : 2,000
Режим частоты кадров : Постоянный
Частота кадров : 23,976 кадра/сек
Цветовое пространство : YUV
Субдискретизация насыщенности : 4:2:0
Битовая глубина : 8 бит
Тип развёртки : Прогрессивная
Бит/(Пиксели*Кадры) : 0.219
Размер потока : 1,64 Гбайт (53%)
Заголовок : Castle_Rock_S01E01_Н264_DD5.1_N.B_HD_720_7xRus_Eng
Язык : Russian
Default : Нет
Forced : Нет
Аудио #1
Идентификатор : 5
Формат : AC-3
Формат/Информация : Audio Coding 3
Коммерческое название : Dolby Digital
Идентификатор кодека : A_AC3
Продолжительность : 54 м. 31 с.
Вид битрейта : Постоянный
Битрейт : 384 Кбит/сек
Каналы : 6 каналов
Channel layout : L R C LFE Ls Rs
Частота : 48,0 КГц
Частота кадров : 31,250 кадров/сек (1536 SPF)
Битовая глубина : 16 бит
Метод сжатия : С потерями
Размер потока : 150 Мбайт (5%)
Заголовок : MVO LostFilm @DD5.1 AC3, 384 Kbps, 48.0 KHz, 6 ch
Язык : Russian
ServiceKind/String : Complete Main
Default : Да
Forced : Нет
Аудио #2
Идентификатор : 6
Формат : AC-3
Формат/Информация : Audio Coding 3
Коммерческое название : Dolby Digital
Идентификатор кодека : A_AC3
Продолжительность : 54 м. 32 с.
Вид битрейта : Постоянный
Битрейт : 384 Кбит/сек
Каналы : 6 каналов
Channel layout : L R C LFE Ls Rs
Частота : 48,0 КГц
Частота кадров : 31,250 кадров/сек (1536 SPF)
Битовая глубина : 16 бит
Метод сжатия : С потерями
Размер потока : 150 Мбайт (5%)
Заголовок : MVO ProfixMedia @DD5.1 AC3, 384 Kbps, 48.0 KHz, 6 ch
Язык : Russian
ServiceKind/String : Complete Main
Default : Нет
Forced : Нет
Аудио #3
Идентификатор : 7
Формат : AC-3
Формат/Информация : Audio Coding 3
Коммерческое название : Dolby Digital
Идентификатор кодека : A_AC3
Продолжительность : 54 м. 32 с.
Вид битрейта : Постоянный
Битрейт : 384 Кбит/сек
Каналы : 6 каналов
Channel layout : L R C LFE Ls Rs
Частота : 48,0 КГц
Частота кадров : 31,250 кадров/сек (1536 SPF)
Битовая глубина : 16 бит
Метод сжатия : С потерями
Размер потока : 150 Мбайт (5%)
Заголовок : MVO NewStudio @DD5.1 AC3, 384 Kbps, 48.0 KHz, 6 ch
Язык : Russian
ServiceKind/String : Complete Main
Default : Нет
Forced : Нет
Аудио #4
Идентификатор : 8
Формат : AC-3
Формат/Информация : Audio Coding 3
Коммерческое название : Dolby Digital
Идентификатор кодека : A_AC3
Продолжительность : 54 м. 32 с.
Вид битрейта : Постоянный
Битрейт : 384 Кбит/сек
Каналы : 6 каналов
Channel layout : L R C LFE Ls Rs
Частота : 48,0 КГц
Частота кадров : 31,250 кадров/сек (1536 SPF)
Битовая глубина : 16 бит
Метод сжатия : С потерями
Размер потока : 150 Мбайт (5%)
Заголовок : MVO AlexFilm @DD5.1 AC3, 384 Kbps, 48.0 KHz, 6 ch
Язык : Russian
ServiceKind/String : Complete Main
Default : Нет
Forced : Нет
Аудио #5
Идентификатор : 9
Формат : AC-3
Формат/Информация : Audio Coding 3
Коммерческое название : Dolby Digital
Идентификатор кодека : A_AC3
Продолжительность : 54 м. 32 с.
Вид битрейта : Постоянный
Битрейт : 384 Кбит/сек
Каналы : 6 каналов
Channel layout : L R C LFE Ls Rs
Частота : 48,0 КГц
Частота кадров : 31,250 кадров/сек (1536 SPF)
Битовая глубина : 16 бит
Метод сжатия : С потерями
Размер потока : 150 Мбайт (5%)
Заголовок : MVO IdeaFilm @DD5.1 AC3, 384 Kbps, 48.0 KHz, 6 ch
Язык : Russian
ServiceKind/String : Complete Main
Default : Нет
Forced : Нет
Аудио #6
Идентификатор : 10
Формат : AC-3
Формат/Информация : Audio Coding 3
Коммерческое название : Dolby Digital
Идентификатор кодека : A_AC3
Продолжительность : 54 м. 32 с.
Вид битрейта : Постоянный
Битрейт : 384 Кбит/сек
Каналы : 6 каналов
Channel layout : L R C LFE Ls Rs
Частота : 48,0 КГц
Частота кадров : 31,250 кадров/сек (1536 SPF)
Битовая глубина : 16 бит
Метод сжатия : С потерями
Размер потока : 150 Мбайт (5%)
Заголовок : MVO GearsMedia @DD5.1 AC3, 384 Kbps, 48.0 KHz, 6 ch
Язык : Russian
ServiceKind/String : Complete Main
Default : Нет
Forced : Нет
Аудио #7
Идентификатор : 11
Формат : AC-3
Формат/Информация : Audio Coding 3
Коммерческое название : Dolby Digital
Идентификатор кодека : A_AC3
Продолжительность : 54 м. 32 с.
Вид битрейта : Постоянный
Битрейт : 384 Кбит/сек
Каналы : 6 каналов
Channel layout : L R C LFE Ls Rs
Частота : 48,0 КГц
Частота кадров : 31,250 кадров/сек (1536 SPF)
Битовая глубина : 16 бит
Метод сжатия : С потерями
Размер потока : 150 Мбайт (5%)
Заголовок : Original@DD5.1 AC3 ,384 Kbps, 48.0 KHz, 6 ch
Язык : English
ServiceKind/String : Complete Main
Default : Нет
Forced : Нет
Аудио #8
Идентификатор : 12
Формат : AC-3
Формат/Информация : Audio Coding 3
Коммерческое название : Dolby Digital
Идентификатор кодека : A_AC3
Продолжительность : 54 м. 32 с.
Вид битрейта : Постоянный
Битрейт : 384 Кбит/сек
Каналы : 6 каналов
Channel layout : L R C LFE Ls Rs
Частота : 48,0 КГц
Частота кадров : 31,250 кадров/сек (1536 SPF)
Битовая глубина : 16 бит
Метод сжатия : С потерями
Размер потока : 150 Мбайт (5%)
Заголовок : MVO OMSKBIRD @DD5.1 AC3, 384 Kbps, 48.0 KHz, 6 ch
Язык : Russian
ServiceKind/String : Complete Main
Default : Нет
Forced : Нет
Аудио #9
Идентификатор : 13
Формат : AC-3
Формат/Информация : Audio Coding 3
Коммерческое название : Dolby Digital
Идентификатор кодека : A_AC3
Продолжительность : 54 м. 32 с.
Вид битрейта : Постоянный
Битрейт : 384 Кбит/сек
Каналы : 6 каналов
Channel layout : L R C LFE Ls Rs
Частота : 48,0 КГц
Частота кадров : 31,250 кадров/сек (1536 SPF)
Битовая глубина : 16 бит
Метод сжатия : С потерями
Размер потока : 150 Мбайт (5%)
Заголовок : MVO BaibaKo @DD5.1 AC3, 384 Kbps, 48.0 KHz, 6 ch
Язык : Russian
ServiceKind/String : Complete Main
Default : Нет
Forced : Нет
Аудио #10
Идентификатор : 14
Формат : AC-3
Формат/Информация : Audio Coding 3
Коммерческое название : Dolby Digital
Идентификатор кодека : A_AC3
Продолжительность : 54 м. 32 с.
Вид битрейта : Постоянный
Битрейт : 384 Кбит/сек
Каналы : 6 каналов
Channel layout : L R C LFE Ls Rs
Частота : 48,0 КГц
Частота кадров : 31,250 кадров/сек (1536 SPF)
Битовая глубина : 16 бит
Метод сжатия : С потерями
Размер потока : 150 Мбайт (5%)
Заголовок : MVO Jaskier @DD5.1 AC3, 384 Kbps, 48.0 KHz, 6 ch
Язык : Russian
ServiceKind/String : Complete Main
Default : Нет
Forced : Нет
Текст #1
Идентификатор : 2
Формат : UTF-8
Идентификатор кодека : S_TEXT/UTF8
Идентификатор кодека/Информация : UTF-8 Plain Text
Продолжительность : 51 м. 43 с.
Битрейт : 59 бит/сек
ElementCount : 467
Размер потока : 22,5 Кбайт (0%)
Заголовок : Rus
Язык : Russian
Default : Да
Forced : Нет
Текст #2
Идентификатор : 3
Формат : UTF-8
Идентификатор кодека : S_TEXT/UTF8
Идентификатор кодека/Информация : UTF-8 Plain Text
Продолжительность : 52 м. 15 с.
Битрейт : 44 бит/сек
ElementCount : 618
Размер потока : 17,2 Кбайт (0%)
Заголовок : Original - SDH
Язык : English
Default : Нет
Forced : Нет
Текст #3
Идентификатор : 4
Формат : UTF-8
Идентификатор кодека : S_TEXT/UTF8
Идентификатор кодека/Информация : UTF-8 Plain Text
Продолжительность : 52 м. 3 с.
Битрейт : 37 бит/сек
ElementCount : 478
Размер потока : 14,1 Кбайт (0%)
Заголовок : Original
Язык : English
Default : Нет
Forced : Нет
Меню
00:00:00.000 : en:Глава 01 / en:Глава 01 / en:Глава 01 / en:Глава 01 / en:Глава 01 / en:Глава 01 / en:Глава 01 / en:Глава 01 / en:Глава 01 / en:Глава 01 / en:Глава 01 / en:Глава 01 / :Глава 01 / :Глава 01
--

Скриншоты

-- Сезон 1--

Как закачать отдельный файл

1. Открыть торрент
2. Снять галки с тех файлов торрента, которые мы не хотим закачивать. Оставляем только на нужных нам файлах (файле).
3. Нажать О.К.
В клиенте utorrent
Инструкция
1) Открыть торрент

2) Снять галки с тех файлов торрента, которые мы не хотим закачивать:
* либо вручную, снимая с каждого файла галку( скрин №1)
* либо, нажав кнопку "Снять метки (Select None)", сняв сразу со всех файлов(скрин №2)
№1

№2

Оставляем только на нужных нам файлах (файле).

3)Нажать О.К
-- -- --Внимание!!! 18.09. 2018. РАЗДАЧА ОБНОВЛЕНА. ДОБАВЛЕНА 10-СЕРИЯ. 2 -ЗВУКОВЫХ ДОРОЖКИ - BaibaKo ,Jaskier , ФИНАЛ СЕЗОНА . ОБНОВИТЕ ТОРЕНТ ФАЙЛ. ПРИЯТНОГО ПРОСМОТРА . --Релиз от: Nikolai.Baranov & PIRATIYA - Поблагодарить:
ЯД: 410017546713876
-- -- -- --Время раздачи : 24/7--
[Profile]  [PM] 
Display posts:    
Reply to topic

Current time is: 07-Apr 16:06

All times are UTC + 2



You cannot post new topics in this forum
You cannot reply to topics in this forum
You cannot edit your posts in this forum
You cannot delete your posts in this forum
You cannot vote in polls in this forum
You cannot attach files in this forum
You cannot download files in this forum