Банши / Banshee (1 сезон) (серии: 10 из 10) (Грег Айтанс / Greg Yaitanes) [2013 г., боевик, триллер, драма, HDTVRip, Профессиональный двухголосый (NewStudio)]

Reply to topic
 
Author
Message

LORN-V ®

Gender: Male

Longevity: 7 years

Posts: 904

Reputation: 5 [+] [-]

Location: Munchen

LORN-V · Post 17-Aug-2013 13:35

[Quote] 

-Основная информация:-Год выпуска: 2013
Страна: США
Жанр: боевик, триллер, драма,
Продолжительность: 10 эп. ~ 59 мин.
Перевод: Профессиональный двухголосый [NewStudio]
Ограничение по возрасту: 18+
Режиссер: Грег Айтанс / Greg Yaitanes
Студия: -В ролях: Энтони Старр / Antony Starr, Ивана Милечевич / Ivana Milicevic, Мэтт Сервитто / Matt Servitto, Деметриус Гросс / Demetrius Grosse-Описание:-Сериал о воре, вышедшем на свободу после 15 лет заключения, который выдал себя за убитого шерифа в глухом американском городке со странным названием Банши.
Внимание! Присутствует ненормативная лексика.-Доп. информация:-Качество: HDTVRip
Формат: MKV
Видео кодек: H.264
Аудио кодек: AC3
Видео: 1280 х 720 (16:9), 23.976 fps, x246(High@L4.1), ~ 2870 kbps
Аудио: AC3, 2 ch (L,R), 48.0 kHz, 192 kbps

Список серий

01. Пилот
02. Рейв
03. Знакомитесь, новый босс
04. Оглохнуть наполовину или умереть полностью
05. Кровные узы
06. Викс
07. Всадник на бледном коне
08. Будем жить вечно
09. Вечный ковбой
10. Безумная смесь

M.I

Полное имя : D:Banshee.s01e01[NewStudio].mkv
Формат : Matroska
Версия формата : Version 2
Размер файла : 1,29 Гбайт
Продолжительность : 59 м.
Общий поток : 3117 Кбит/сек
Дата кодирования : UTC 2013-08-16 01:02:06
Программа кодирования : mkvmerge v2.9.8 ('C'est le bon') built on Aug 13 2009 12:49:06
Библиотека кодирования : libebml v0.7.7 + libmatroska v0.8.1
Видео
Идентификатор : 1
Формат : AVC
Формат/Информация : Advanced Video Codec
Профиль формата : High@L4.1
Параметр CABAC формата : Да
Параметр ReFrames формата : 5 кадров
Идентификатор кодека : V_MPEG4/ISO/AVC
Продолжительность : 59 м.
Битрейт : 2863 Кбит/сек
Ширина : 1280 пикселей
Высота : 720 пикселей
Соотношение сторон : 16:9
Режим частоты кадров : Постоянный
Частота кадров : 23,976 кадра/сек
Цветовое пространство : YUV
Субдискретизация насыщенности : 4:2:0
Битовая глубина : 8 бит
Тип развёртки : Прогрессивная
Бит/(Пиксели*Кадры) : 0.130
Размер потока : 1,19 Гбайт (92%)
Библиотека кодирования : x264 core 129 r2230 1cffe9f
Настройки программы : cabac=1 / ref=5 / deblock=1:0:0 / analyse=0x3:0x113 / me=umh / subme=8 / psy=1 / psy_rd=1.00:0.00 / mixed_ref=1 / me_range=16 / chroma_me=1 / trellis=1 / 8x8dct=1 / cqm=0 / deadzone=21,11 / fast_pskip=1 / chroma_qp_offset=-2 / threads=18 / lookahead_threads=3 / sliced_threads=0 / nr=0 / decimate=1 / interlaced=0 / bluray_compat=0 / constrained_intra=0 / bframes=3 / b_pyramid=2 / b_adapt=2 / b_bias=0 / direct=3 / weightb=1 / open_gop=0 / weightp=2 / keyint=250 / keyint_min=23 / scenecut=40 / intra_refresh=0 / rc_lookahead=50 / rc=crf / mbtree=1 / crf=18.0 / qcomp=0.60 / qpmin=0 / qpmax=69 / qpstep=4 / ip_ratio=1.40 / aq=1:1.00
Язык : English
Default : Нет
Forced : Нет
Коэффициенты матрицы : BT.709
Аудио
Идентификатор : 2
Формат : AC-3
Формат/Информация : Audio Coding 3
Расширение режима : CM (complete main)
Параметр Endianness формата : Big
Идентификатор кодека : A_AC3
Продолжительность : 59 м.
Вид битрейта : Постоянный
Битрейт : 192 Кбит/сек
Каналы : 2 канала
Расположение каналов : Front: L R
Частота : 48,0 КГц
Битовая глубина : 16 бит
Метод сжатия : С потерями
Размер потока : 81,5 Мбайт (6%)
Заголовок : [NewStudio]
Язык : Russian
Default : Нет
Forced : Нет
--

Скриншоты:

[Profile]  [PM] 
Display posts:    
Reply to topic

Current time is: 07-Apr 16:44

All times are UTC + 2



You cannot post new topics in this forum
You cannot reply to topics in this forum
You cannot edit your posts in this forum
You cannot delete your posts in this forum
You cannot vote in polls in this forum
You cannot attach files in this forum
You cannot download files in this forum