Королевство / Kingdeom (Kingdom) (Сезон 1 , Серия 1-6 из 6) (Ким Сон-хун) [2019, Исторический, ужасы, триллер,WEB-DLRip 1080p] [LostFilm+Kubik v ubike+NewStudio+Eng]+[Subs Rus , ENG]

Reply to topic
 
Author
Message

Враг Нароода ®

Gender: Unknown

Longevity: 7 years

Posts: 496

Reputation: 1 [+] [-]

Враг Нароода · Post 19-Mar-2019 15:26

[Quote] 

-- --Королевство / Kingdeom (Kingdom) Сезон 1 , Серия 1-6 из 6 - Полный Комплект-- --Год выпуска: 2019
Выпущено: Корея Южная, США, Netflix, AStory
Жанр: Исторический, ужасы, триллер
Продолжительность: 00:55:00
Сезон:1
Серия:1-6
Количество серий в сезоне:6--Озвучка #1: Профессиональный многоголосый - LostFilm - Русский
Озвучка #2: Профессиональный двухголосый - Кубик в Кубе - Русский
Озвучка #3: Профессиональный многоголосый - NewStudio - Русский
Озвучка #4: Профессиональный многоголосый -Корейский - Оригинал
Субтитры: Russian , English
--Релиз Без Рекламы --MDB --Режиссер:
Ким Сон-хун--В ролях:Джи Хун Чжу, Ду На Пэ, Сын Рён Рю, Хе Джун Ким, Сан Хо Ким (I), Сон Гю Ким (I), Джун Хо Хо, Сок Хо Чон, Тэ Ёль Ким, Сок Вон Чон, Сон Гю Чжин, Сок Тхэ Чу-- Чосон после разорительной войны. Долго болевший правитель умирает, но возвращается к жизни в виде плотоядной нежити, что тщательно скрывает королевский советник Чо, при этом не забывая регулярно кормить монарха придворными. После неудачной попытки увидеться с отцом наследный принц Ли Чхан, рискуя быть обвинённым в государственной измене, покидает дворец, чтобы встретиться с лечившим правителя лекарем Ли. Прибыв в сельскую больницу, где практиковал Ли, принц и его телохранитель обнаруживают полный разгром и кучи трупов, спрятанных от солнца.-- --Качество :WEB-DLRip 1080p
Формат: MKV
Видео кодек: H264
Видео: 6930Кбит/сек,1920х960(2.000), в 23.976кадр/сек,AVC (Main@L4.1)(CABAC/4 Ref Frames)--Аудио Кодек:AC3
Аудио #1:AC3 384 Kbps, 48.0 KHz, 6 ch- Lostfilm -Русский
Аудио #2:AC3 384 Kbps, 48.0 KHz, 6 ch- Кубик в Кубе -Русский
Аудио #3:AC3 384 Kbps, 48.0 KHz, 6 ch- NewStudio -Русский
Аудио #4: AC3, 384 Kbps, 48.0 KHz,6 ch - - Korean - Оригинал--

Доп. информация:

Звуковая дорожка сделана путем наложения чистого голоса озвучивателей на центральный канал оригинальной дорожки. Качество идентично звуковой дорожке.
--

Список эпизодов сезона


1 сезон 1 серия - Эпизод 1 - Episode #1.1
1 сезон 2 серия - Эпизод 2 - Episode #1.2
1 сезон 3 серия - Эпизод 3 - Episode #1.3
1 сезон 4 серия - Эпизод 4 - Episode #1.4
1 сезон 5 серия - Эпизод 5 - Episode #1.5
1 сезон 6 серия - Эпизод 6 - Episode #1.6
--

MediaInfo сезона

Общее
Уникальный идентификатор : 127327752512351843519618922052881523661 (0x5FCA6EE1B4D781A374CE01922544A3CD)
Полное имя : C:\Users\Russian Patriot\Downloads\КОРОЛЕВСТВО - Kingdom\KINGDOM_2019_S01_Н264_DD5.1_N.B_HD_1080_3xRus_Kor\Kingdom_2019_S01E01_Н264_DD5.1_N.B_HD_1080_3xRus_Kor.mkv
Формат : Matroska
Версия формата : Version 4
Размер файла : 3,14 Гбайт
Продолжительность : 56 м. 49 с.
Общий поток : 7912 Кбит/сек
Название фильма : Kingdom 2019 S01Е01 @ Nikolai.Baranov & PIRATIY
Дата кодирования : UTC 2019-03-29 16:37:30
Программа кодирования : mkvmerge v32.0.0 ('Astral Progressions') 64-bit
Библиотека кодирования : libebml v1.3.7 + libmatroska v1.5.0
Видео
Идентификатор : 1
Формат : AVC
Формат/Информация : Advanced Video Codec
Профиль формата : Main@L4.1
Настройки формата : CABAC / 4 Ref Frames
Параметр CABAC формата : Да
Параметр RefFrames формата : 4 кадра
Идентификатор кодека : V_MPEG4/ISO/AVC
Продолжительность : 52 м. 15 с.
Битрейт : 6930 Кбит/сек
Ширина : 1920 пикселей
Высота : 960 пикселей
Соотношение сторон : 2,000
Режим частоты кадров : Постоянный
Частота кадров : 23,976 (24000/1001) кадра/сек
Цветовое пространство : YUV
Субдискретизация насыщенности : 4:2:0
Битовая глубина : 8 бит
Тип развёртки : Прогрессивная
Бит/(Пиксели*Кадры) : 0.157
Размер потока : 2,53 Гбайт (81%)
Заголовок : Kingdom_2019_S01E01_Н264_DD5.1_N.B_HD_1080_3xRus_Kor
Язык : Russian
Default : Да
Forced : Нет
Цветовой диапазон : Limited
Основные цвета : BT.709
Характеристики трансфера : BT.709
Коэффициенты матрицы : BT.709
Аудио #1
Идентификатор : 4
Формат : AC-3
Формат/Информация : Audio Coding 3
Коммерческое название : Dolby Digital
Идентификатор кодека : A_AC3
Продолжительность : 56 м. 48 с.
Вид битрейта : Постоянный
Битрейт : 384 Кбит/сек
Каналы : 6 каналов
Channel layout : L R C LFE Ls Rs
Частота : 48,0 КГц
Частота кадров : 31,250 кадров/сек (1536 SPF)
Битовая глубина : 16 бит
Метод сжатия : С потерями
Размер потока : 156 Мбайт (5%)
Заголовок : MVO LostFilm @DD5.1 AC3, 384 Kbps, 48.0 KHz, 6 ch
Язык : Russian
ServiceKind/String : Complete Main
Default : Да
Forced : Нет
Аудио #2
Идентификатор : 5
Формат : AC-3
Формат/Информация : Audio Coding 3
Коммерческое название : Dolby Digital
Идентификатор кодека : A_AC3
Продолжительность : 56 м. 49 с.
Вид битрейта : Постоянный
Битрейт : 384 Кбит/сек
Каналы : 6 каналов
Channel layout : L R C LFE Ls Rs
Частота : 48,0 КГц
Частота кадров : 31,250 кадров/сек (1536 SPF)
Битовая глубина : 16 бит
Метод сжатия : С потерями
Размер потока : 156 Мбайт (5%)
Заголовок : MVO NewStudio @DD5.1 AC3, 384 Kbps, 48.0 KHz, 6 ch
Язык : Russian
ServiceKind/String : Complete Main
Default : Нет
Forced : Нет
Аудио #3
Идентификатор : 6
Формат : AC-3
Формат/Информация : Audio Coding 3
Коммерческое название : Dolby Digital
Идентификатор кодека : A_AC3
Продолжительность : 56 м. 49 с.
Вид битрейта : Постоянный
Битрейт : 384 Кбит/сек
Каналы : 6 каналов
Channel layout : L R C LFE Ls Rs
Частота : 48,0 КГц
Частота кадров : 31,250 кадров/сек (1536 SPF)
Битовая глубина : 16 бит
Метод сжатия : С потерями
Размер потока : 156 Мбайт (5%)
Заголовок : MVO Kubik v ubike @DD5.1 AC3, 384 Kbps, 48.0 KHz, 6 ch
Язык : Russian
ServiceKind/String : Complete Main
Default : Нет
Forced : Нет
Аудио #4
Идентификатор : 7
Формат : AC-3
Формат/Информация : Audio Coding 3
Коммерческое название : Dolby Digital
Идентификатор кодека : A_AC3
Продолжительность : 56 м. 49 с.
Вид битрейта : Постоянный
Битрейт : 384 Кбит/сек
Каналы : 6 каналов
Channel layout : L R C LFE Ls Rs
Частота : 48,0 КГц
Частота кадров : 31,250 кадров/сек (1536 SPF)
Битовая глубина : 16 бит
Метод сжатия : С потерями
Размер потока : 156 Мбайт (5%)
Заголовок : Original@DD5.1 AC3 ,384 Kbps, 48.0 KHz, 6 ch
Язык : Korean
ServiceKind/String : Complete Main
Default : Нет
Forced : Нет
Текст #1
Идентификатор : 2
Формат : UTF-8
Идентификатор кодека : S_TEXT/UTF8
Идентификатор кодека/Информация : UTF-8 Plain Text
Продолжительность : 56 м. 8 с.
Битрейт : 58 бит/сек
ElementCount : 528
Размер потока : 24,2 Кбайт (0%)
Заголовок : Rus
Язык : Russian
Default : Да
Forced : Нет
Текст #2
Идентификатор : 3
Формат : UTF-8
Идентификатор кодека : S_TEXT/UTF8
Идентификатор кодека/Информация : UTF-8 Plain Text
Продолжительность : 55 м. 59 с.
Битрейт : 40 бит/сек
ElementCount : 528
Размер потока : 16,4 Кбайт (0%)
Заголовок : Eng
Язык : English
Default : Нет
Forced : Нет
Меню
00:00:00.000 : :Глава 01 / :Глава 01 / :Глава 01 / :Глава 01 / :Глава 01 / :Глава 01 / :Глава 01
--

Скриншоты

-- --

Как закачать отдельный файл

1. Открыть торрент
2. Снять галки с тех файлов торрента, которые мы не хотим закачивать. Оставляем только на нужных нам файлах (файле).
3. Нажать О.К.
В клиенте utorrent
Инструкция
1) Открыть торрент

2) Снять галки с тех файлов торрента, которые мы не хотим закачивать:
* либо вручную, снимая с каждого файла галку( скрин №1)
* либо, нажав кнопку "Снять метки (Select None)", сняв сразу со всех файлов(скрин №2)
№1

№2

Оставляем только на нужных нам файлах (файле).

3)Нажать О.К
-- -- --Внимание!!! 01.04. 2019. РАЗДАЧА ОБНОВЛЕНА. ДОБАВЛЕНА - 5 -6- СЕРИЯ. ФИНАЛ СЕЗОНА. ОБНОВИТЕ ТОРЕНТ ФАЙЛ. ПРИЯТНОГО ПРОСМОТРА . Поблагодарить:
ЯД: 410017546713876
--Релиз от: Nikolai.Baranov & PIRATIYA -- -- -- --Время раздачи : 24/7--
[Profile]  [PM] 
Display posts:    
Reply to topic

Current time is: 27-Sep 03:59

All times are UTC + 2



You cannot post new topics in this forum
You cannot reply to topics in this forum
You cannot edit your posts in this forum
You cannot delete your posts in this forum
You cannot vote in polls in this forum
You cannot attach files in this forum
You cannot download files in this forum