Жизнь после смерти / After Life (Сезон 1 , Серия 1-6 из 6) ( Рики Джервэйс) [2019, Драма, Комедия, WEB-DLRip 1080p] [Netflix+TVShows+Ozz+ENG]+[Subs Rus , ENG]

Reply to topic
 
Author
Message

Враг Нароода ®

Gender: Unknown

Longevity: 7 years

Posts: 495

Reputation: 1 [+] [-]

Враг Нароода · Post 16-Jun-2019 18:40

[Quote] 

--Жизнь после смерти / After Life Сезон 1 , Серия 1-6 из 6 - Полный Комплект-- --Год выпуска: 2019
Выпущено: Великобритания, Roughcut Television
Жанр: Драма, Комедия
Продолжительность: 00:28:00
Сезон: 1
Серия:1-6
Количество серий в сезоне:6--Озвучка #1: Профессиональный многоголосый - Netflix - Русский
Озвучка #2: Профессиональный многоголосый - TVShows - Русский
Озвучка #3: Профессиональный многоголосый - Ozz - Русский
Озвучка #4: Профессиональный многоголосый -Английский - Оригинал
Субтитры: Russian , English, English SDH
--Релиз Без Рекламы - ВНИМАНИЕ! В сериале Ненормативная лексика --MDB --Режиссеры:
Рики Джервэйс--В ролях: : Рики Джервэйс, Том Басден, Дэвид Брэдли (I), Рошин Конати, Керри Гадлимен, Эшли Дженсен, Пол Кэй, Дайан Морган, Тони Вэй, Джо Уилкинсон-- После смерти жены Тони несколько раз хочет покончить жизнь самоубийством, но каждый раз его останавливает мысль о том, что некому будет позаботиться о его собаке. В итоге мужчина принимает решение жить дальше: делать всё, что хочется, не думая о последствиях. Теперь он больше не хороший парень, каким был когда-то, поэтому друзья и близкие пытаются его вернуть.-- --Качество :WEB-DLRip 1080p
Формат: MKV
Видео кодек: H264
Видео: 5339Кбит/сек,1920х1080(16.9),в 25.000кадр/сек,AVC (High@L4)(CABAC/3 Ref Frames)--Аудио Кодек:AC3
Аудио #1:AC3 384 Kbps, 48.0 KHz, 6 ch- - Netflix -Русский
Аудио #2:AC3 384 Kbps, 48.0 KHz, 6 ch-- TVShows -Русский
Аудио #3:AC3 384 Kbps, 48.0 KHz, 6 ch- -Ozz -Русский
Аудио #4: AC3, 640 Kbps, 48.0 KHz,6 ch - - English - Оригинал--

Доп. информация:

Звуковая дорожка сделана путем наложения чистого голоса озвучивателей на центральный канал оригинальной дорожки. Качество идентично звуковой дорожке.
--

MediaInfo сезона

Общее
Уникальный идентификатор : 128398171347461836748641593001410241858 (0x6098969AD89A16C3E1A38C05BB1F2542)
Полное имя : C:\Users\Russian Patriot\Downloads\Жизнь после смерти - After Life\After_Life_2019.S01_Н264_DD5.1_N.B_HD_1080_3xRus_Eng\After_Life_2019.S01E01_Н264_DD5.1_N.B_HD_1080_3xRus_Eng.mkv
Формат : Matroska
Версия формата : Version 4
Размер файла : 1,42 Гбайт
Продолжительность : 28 м. 34 с.
Режим общего битрейта : Переменный
Общий поток : 7133 Кбит/сек
Название фильма : After Life 2019 S01E01 @ Nikolai.Baranov & PIRATIYA
Дата кодирования : UTC 2019-06-13 07:28:22
Программа кодирования : mkvmerge v34.0.0 ('Sight and Seen') 64-bit
Библиотека кодирования : libebml v1.3.7 + libmatroska v1.5.0
Видео
Идентификатор : 1
Формат : AVC
Формат/Информация : Advanced Video Codec
Профиль формата : Main@L4
Настройки формата : CABAC / 3 Ref Frames
Параметр CABAC формата : Да
Параметр RefFrames формата : 3 кадра
Идентификатор кодека : V_MPEG4/ISO/AVC
Продолжительность : 28 м. 34 с.
Вид битрейта : Переменный
Битрейт : 5339 Кбит/сек
Номинальный битрейт : 5620 Кбит/сек
Максимальный битрейт : 8430 Кбит/сек
Ширина : 1920 пикселей
Высота : 1080 пикселей
Соотношение сторон : 16:9
Режим частоты кадров : Постоянный
Частота кадров : 25,000 кадров/сек
Цветовое пространство : YUV
Субдискретизация насыщенности : 4:2:0
Битовая глубина : 8 бит
Тип развёртки : Прогрессивная
Бит/(Пиксели*Кадры) : 0.103
Размер потока : 1,07 Гбайт (75%)
Заголовок : After_Life_2019.S01E01_Н264_DD5.1_N.B_HD_1080_3xRus_Eng
Библиотека кодирования : x264 core 148 r2715 7e75228
Настройки программы : cabac=1 / ref=3 / deblock=1:0:0 / analyse=0x1:0x111 / me=umh / subme=10 / psy=1 / psy_rd=1.00:0.00 / mixed_ref=1 / me_range=24 / chroma_me=1 / trellis=2 / 8x8dct=0 / cqm=0 / deadzone=21,11 / fast_pskip=1 / chroma_qp_offset=-2 / threads=6 / lookahead_threads=1 / sliced_threads=0 / nr=0 / decimate=1 / interlaced=0 / bluray_compat=0 / stitchable=1 / constrained_intra=0 / bframes=2 / b_pyramid=0 / b_adapt=2 / b_bias=0 / direct=3 / weightb=1 / open_gop=0 / weightp=2 / keyint=50 / keyint_min=26 / scenecut=0 / intra_refresh=0 / rc_lookahead=50 / rc=2pass / mbtree=1 / bitrate=5620 / ratetol=1.0 / qcomp=0.50 / qpmin=6 / qpmax=51 / qpstep=4 / cplxblur=20.0 / qblur=0.5 / vbv_maxrate=8430 / vbv_bufsize=11240 / nal_hrd=vbr / filler=0 / ip_ratio=1.40 / aq=1:1.00
Язык : Russian
Default : Да
Forced : Нет
Аудио #1
Идентификатор : 5
Формат : AC-3
Формат/Информация : Audio Coding 3
Коммерческое название : Dolby Digital
Идентификатор кодека : A_AC3
Продолжительность : 28 м. 34 с.
Вид битрейта : Постоянный
Битрейт : 384 Кбит/сек
Каналы : 6 каналов
ChannelLayout : L R C LFE Ls Rs
Частота : 48,0 КГц
Частота кадров : 31,250 кадров/сек (1536 SPF)
Битовая глубина : 16 бит
Метод сжатия : С потерями
Размер потока : 78,5 Мбайт (5%)
Заголовок : MVO Netflix @DD5.1 AC3, 384 Kbps, 48.0 KHz, 6 ch
Язык : Russian
ServiceKind/String : Complete Main
Default : Да
Forced : Нет
Аудио #2
Идентификатор : 6
Формат : AC-3
Формат/Информация : Audio Coding 3
Коммерческое название : Dolby Digital
Идентификатор кодека : A_AC3
Продолжительность : 28 м. 34 с.
Вид битрейта : Постоянный
Битрейт : 384 Кбит/сек
Каналы : 6 каналов
ChannelLayout : L R C LFE Ls Rs
Частота : 48,0 КГц
Частота кадров : 31,250 кадров/сек (1536 SPF)
Битовая глубина : 16 бит
Метод сжатия : С потерями
Размер потока : 78,5 Мбайт (5%)
Заголовок : MVO TVShows @DD5.1 AC3, 384 Kbps, 48.0 KHz, 6 ch
Язык : Russian
ServiceKind/String : Complete Main
Default : Нет
Forced : Нет
Аудио #3
Идентификатор : 7
Формат : AC-3
Формат/Информация : Audio Coding 3
Коммерческое название : Dolby Digital
Идентификатор кодека : A_AC3
Продолжительность : 28 м. 34 с.
Вид битрейта : Постоянный
Битрейт : 384 Кбит/сек
Каналы : 6 каналов
ChannelLayout : L R C LFE Ls Rs
Частота : 48,0 КГц
Частота кадров : 31,250 кадров/сек (1536 SPF)
Битовая глубина : 16 бит
Метод сжатия : С потерями
Размер потока : 78,5 Мбайт (5%)
Заголовок : MVO Ozz @DD5.1 AC3, 384 Kbps, 48.0 KHz, 6 ch
Язык : Russian
ServiceKind/String : Complete Main
Default : Нет
Forced : Нет
Аудио #4
Идентификатор : 8
Формат : AC-3
Формат/Информация : Audio Coding 3
Коммерческое название : Dolby Digital
Идентификатор кодека : A_AC3
Продолжительность : 28 м. 34 с.
Вид битрейта : Постоянный
Битрейт : 640 Кбит/сек
Каналы : 6 каналов
ChannelLayout : L R C LFE Ls Rs
Частота : 48,0 КГц
Частота кадров : 31,250 кадров/сек (1536 SPF)
Битовая глубина : 16 бит
Метод сжатия : С потерями
Размер потока : 131 Мбайт (9%)
Заголовок : Original@DD5.1 AC3 ,640 Kbps, 48.0 KHz, 6 ch
Язык : English
ServiceKind/String : Complete Main
Default : Нет
Forced : Нет
Текст #1
Идентификатор : 2
Формат : UTF-8
Идентификатор кодека : S_TEXT/UTF8
Идентификатор кодека/Информация : UTF-8 Plain Text
Продолжительность : 27 м. 2 с.
Битрейт : 106 бит/сек
ElementCount : 501
Размер потока : 21,2 Кбайт (0%)
Заголовок : Rus
Язык : Russian
Default : Да
Forced : Нет
Текст #2
Идентификатор : 3
Формат : UTF-8
Идентификатор кодека : S_TEXT/UTF8
Идентификатор кодека/Информация : UTF-8 Plain Text
Продолжительность : 27 м. 19 с.
Битрейт : 88 бит/сек
ElementCount : 584
Размер потока : 17,7 Кбайт (0%)
Заголовок : Original - SDH
Язык : English
Default : Нет
Forced : Нет
Текст #3
Идентификатор : 4
Формат : UTF-8
Идентификатор кодека : S_TEXT/UTF8
Идентификатор кодека/Информация : UTF-8 Plain Text
Продолжительность : 27 м. 19 с.
Битрейт : 81 бит/сек
ElementCount : 542
Размер потока : 16,3 Кбайт (0%)
Заголовок : Original
Язык : English
Default : Нет
Forced : Нет
Меню
00:00:00.000 : :Глава 01 / :Глава 01 / :Глава 01 / :Глава 01 / :Глава 01 / :Глава 01 / :Глава 01 / :Глава 01
--

Скриншоты

-- --

Как закачать отдельный файл

1. Открыть торрент
2. Снять галки с тех файлов торрента, которые мы не хотим закачивать. Оставляем только на нужных нам файлах (файле).
3. Нажать О.К.
В клиенте utorrent
Инструкция
1) Открыть торрент

2) Снять галки с тех файлов торрента, которые мы не хотим закачивать:
* либо вручную, снимая с каждого файла галку( скрин №1)
* либо, нажав кнопку "Снять метки (Select None)", сняв сразу со всех файлов(скрин №2)
№1

№2

Оставляем только на нужных нам файлах (файле).

3)Нажать О.К
-- -- --Релиз от: Nikolai.Baranov & PIRATIYA
Поблагодарить:
ЯД: 410017546713876
-- -- -- --Время раздачи : 24/7--
[Profile]  [PM] 
Display posts:    
Reply to topic

Current time is: 21-Sep 13:01

All times are UTC + 2



You cannot post new topics in this forum
You cannot reply to topics in this forum
You cannot edit your posts in this forum
You cannot delete your posts in this forum
You cannot vote in polls in this forum
You cannot attach files in this forum
You cannot download files in this forum