Захват/ The Capture (Сезон 1 , Серия 1-6 из 6) ( Бен Чанан) [2019,Триллер, криминал, детектив,WEB-DLRip 1080p] [LostFilm+TVShows+ENG]+[Subs ENG]

Reply to topic
 
Author
Message

Враг Нароода ®

Gender: Unknown

Longevity: 7 years

Posts: 496

Reputation: 1 [+] [-]

Враг Нароода · Post 12-Jan-2020 18:36

[Quote] 

-- Захват/ The Capture (Сезон 1 , Серия 1- 6 из 6) - Полный Комплект -- --Год выпуска: 2019
Выпущено: Великобритания, BBC One, Heyday Television, NBCUniversal International Studios
Жанр: Триллер, криминал, детектив
Продолжительность: 00:50:00
Сезон: 1
Серия:1-6
Количество серий в сезоне:6--Озвучка #1: Профессиональный многоголосый - LostFilm - Русский
Озвучка #2: Профессиональный многоголосый - TVShows - Русский
Озвучка #3: Профессиональный многоголосый -Английский - Оригинал
Субтитры: английские SDH
--Релиз Без Рекламы --MDB 7.9 --Режиссеры:
Бен Чанан--В ролях: : Каллум Тернер, Бен Майлз, Лора Хэддок, Бэрри Уорд, Джинни Холдер, Каван Клеркин, Лия Уильямс, Питер Сингх, Рон Перлман, Софиа Браун-- Какое удивительное совпадение что на родине Оруэлла рождается сериал, центральной темой которого становятся средства наблюдения и слежки. Видимо, Большой Брат — не такой уж откровенной фантазии плод. Сюжет нового британского сериала разворачивается в Лондоне и знакомит зрителя с главным героем Шоном Эмери — военным, ставшим жертвой судилища, где главной уликой обвинения становится видеозапись. Однако, сам Шон полностью отрицает свою вину и не может вспомнить сами события, зафиксированные наружной камерой. Следствию, да и самому герою, придётся выяснить где находится истина. Отнюдь, на экране не разворачивается сюжет юридическо-процедуральной драмы. Перед зрителем предстаёт самый настоящий остросюжетный детектив, искусно подогревающий интригу от эпизода к эпизоду, создатели которого, разворачивая один сюжетный твист за другим, мастерски манипулируют зрительским вниманием и подкидывают всевозможные ответы от ПТСР до теорий заговоров и наоборот. Может ли человек доверять своим глазам и памяти, могут ли иметь место заговор внутри силовых структур? «Захват» буквально заигрывает со зрителем, представляя все ключевые ответы сугубо фрагментарно таким образом, что невозможно догадаться о главной интриге, не досмотрев мини-сериал до конца. И, возможно, идея сюжета может кому-то показаться излишне конспирологической, но само профессиональное исполнение «Захвата» делает его одним из самых примечательных проектов.-- --Качество :WEB-DLRip 1080p
Формат: MKV
Видео кодек: H264
Видео: 6287Кбит/сек,1920х1080(16.9),в 25.000кадр/сек,AVC (High@L4/1)(CABAC/4 Ref Frames)--Аудио Кодек:AC3
Аудио #1:MVO LostFilm @DD5.1 AC3, 640 Kbps, 48.0 KHz, 6 ch- Lostfilm -Русский
Аудио #2:MVO TVShows @DD5.1 AC3, 640 Kbps, 48.0 KHz, 6 ch-TVShows -Русский
Аудио #3: Original@DD5.1 AC3 ,640 Kbps, 48.0 KHz, 6 ch - English - Оригинал--

Доп. информация:

Звуковая дорожка сделана путем наложения чистого голоса озвучивателей на центральный канал оригинальной дорожки. Качество идентично звуковой дорожке.
--

Список эпизодов сезона


1 сезон 1 серия - Происшествие в Гильменде - What Happens in Helmand
1 сезон 2 серия - Оловянный солдатик - Toy Soldier
1 сезон 3 серия - Трюфельная свинья - Truffle Hog
1 сезон 4 серия - Слепые зоны - Blind Spots
1 сезон 5 серия - Пилигрим правосудия - A Pilgrim of Justice
1 сезон 6 серия - Коррекция - Correction
--

MediaInfo сезона

Общее
Уникальный идентификатор : 114292186803318073213783020872606479846 (0x55FBDFDF0FC9B5B2886AC130BB40F5E6)
Полное имя : F:\RussianPatriot\Захват - The Capture\The_Capture_S01_Н264_DD5.1_N.B_HD_1080_LostFilm+TVShows_Rus_Eng\The_Capture_2019_S01E01_Н264_DD5.1_N.B_HD_1080_2xRus_Eng.mkv
Формат : Matroska
Версия формата : Version 4
Размер файла : 3,18 Гбайт
Продолжительность : 55 м. 31 с.
Общий поток : 8209 Кбит/сек
Название фильма : The Capture 2019 S01E01 @ Nikolai.Baranov & PIRATIYA
Дата кодирования : UTC 2020-01-10 13:59:41
Программа кодирования : mkvmerge v42.0.0 ('Overtime') 64-bit
Библиотека кодирования : libebml v1.3.10 + libmatroska v1.5.2 / Lavf58.20.100
Видео
Идентификатор : 1
Формат : AVC
Формат/Информация : Advanced Video Codec
Профиль формата : High@L4.1
Настройки формата : CABAC / 4 Ref Frames
Параметр CABAC формата : Да
Параметр RefFrames формата : 4 кадра
Идентификатор кодека : V_MPEG4/ISO/AVC
Продолжительность : 55 м. 31 с.
Битрейт : 6287 Кбит/сек
Ширина : 1920 пикселей
Высота : 1080 пикселей
Соотношение сторон : 16:9
Режим частоты кадров : Постоянный
Частота кадров : 25,000 кадров/сек
Цветовое пространство : YUV
Субдискретизация насыщенности : 4:2:0
Битовая глубина : 8 бит
Тип развёртки : Прогрессивная
Бит/(Пиксели*Кадры) : 0.121
Размер потока : 2,44 Гбайт (77%)
Заголовок : The_Capture_2019_S01E01_Н264_DD5.1_N.B_HD_1080_2xRus_Eng
Библиотека кодирования : x264 core 158 r2984 3759fcb
Настройки программы : cabac=1 / ref=4 / deblock=1:0:0 / analyse=0x3:0x113 / me=hex / subme=8 / psy=1 / psy_rd=1.00:0.00 / mixed_ref=1 / me_range=16 / chroma_me=1 / trellis=2 / 8x8dct=1 / cqm=0 / deadzone=21,11 / fast_pskip=1 / chroma_qp_offset=-2 / threads=18 / lookahead_threads=3 / sliced_threads=0 / nr=0 / decimate=1 / interlaced=0 / bluray_compat=0 / constrained_intra=0 / bframes=3 / b_pyramid=2 / b_adapt=1 / b_bias=0 / direct=3 / weightb=1 / open_gop=0 / weightp=2 / keyint=250 / keyint_min=25 / scenecut=40 / intra_refresh=0 / rc_lookahead=50 / rc=crf / mbtree=1 / crf=17.0 / qcomp=0.60 / qpmin=0 / qpmax=69 / qpstep=4 / ip_ratio=1.40 / aq=1:1.00
Язык : Russian
Default : Да
Forced : Нет
Цветовой диапазон : Limited
Основные цвета : BT.709
Характеристики трансфера : BT.709
Коэффициенты матрицы : BT.709
Аудио #1
Идентификатор : 4
Формат : AC-3
Формат/Информация : Audio Coding 3
Коммерческое название : Dolby Digital
Идентификатор кодека : A_AC3
Продолжительность : 55 м. 31 с.
Вид битрейта : Постоянный
Битрейт : 640 Кбит/сек
Каналы : 6 каналов
ChannelLayout : L R C LFE Ls Rs
Частота : 48,0 КГц
Частота кадров : 31,250 кадров/сек (1536 SPF)
Метод сжатия : С потерями
Задержка видео : -80 мс.
Размер потока : 254 Мбайт (8%)
Заголовок : MVO LostFilm @DD5.1 AC3, 640 Kbps, 48.0 KHz, 6 ch
Язык : Russian
ServiceKind/String : Complete Main
Default : Да
Forced : Нет
Аудио #2
Идентификатор : 5
Формат : AC-3
Формат/Информация : Audio Coding 3
Коммерческое название : Dolby Digital
Идентификатор кодека : A_AC3
Продолжительность : 55 м. 31 с.
Вид битрейта : Постоянный
Битрейт : 640 Кбит/сек
Каналы : 6 каналов
ChannelLayout : L R C LFE Ls Rs
Частота : 48,0 КГц
Частота кадров : 31,250 кадров/сек (1536 SPF)
Метод сжатия : С потерями
Задержка видео : -80 мс.
Размер потока : 254 Мбайт (8%)
Заголовок : MVO TVShows @DD5.1 AC3, 640 Kbps, 48.0 KHz, 6 ch
Язык : Russian
ServiceKind/String : Complete Main
Default : Нет
Forced : Нет
Аудио #3
Идентификатор : 6
Формат : AC-3
Формат/Информация : Audio Coding 3
Коммерческое название : Dolby Digital
Идентификатор кодека : A_AC3
Продолжительность : 55 м. 31 с.
Вид битрейта : Постоянный
Битрейт : 640 Кбит/сек
Каналы : 6 каналов
ChannelLayout : L R C LFE Ls Rs
Частота : 48,0 КГц
Частота кадров : 31,250 кадров/сек (1536 SPF)
Метод сжатия : С потерями
Задержка видео : -80 мс.
Размер потока : 254 Мбайт (8%)
Заголовок : Original@DD5.1 AC3, 640 Kbps, 48.0 KHz, 6 ch
Язык : English
ServiceKind/String : Complete Main
Default : Нет
Forced : Нет
Текст #1
Идентификатор : 2
Формат : UTF-8
Идентификатор кодека : S_TEXT/UTF8
Идентификатор кодека/Информация : UTF-8 Plain Text
Продолжительность : 54 м. 51 с.
Битрейт : 61 бит/сек
ElementCount : 714
Размер потока : 24,7 Кбайт (0%)
Заголовок : What Happens in Helmand -Original - SDH
Язык : English
Default : Да
Forced : Нет
Текст #2
Идентификатор : 3
Формат : UTF-8
Идентификатор кодека : S_TEXT/UTF8
Идентификатор кодека/Информация : UTF-8 Plain Text
Продолжительность : 54 м. 51 с.
Битрейт : 61 бит/сек
ElementCount : 714
Размер потока : 24,7 Кбайт (0%)
Заголовок : -What Happens in Helmand -Origina
Язык : English
Default : Нет
Forced : Нет
Меню
00:00:00.080 : ru:Chapter 01 / ru:Chapter 01 / ru:Chapter 01 / ru:Chapter 01 / ru:Chapter 01 / ru:Chapter 01
--

Скриншоты

-- --

Как закачать отдельный файл

1. Открыть торрент
2. Снять галки с тех файлов торрента, которые мы не хотим закачивать. Оставляем только на нужных нам файлах (файле).
3. Нажать О.К.
В клиенте utorrent
Инструкция
1) Открыть торрент

2) Снять галки с тех файлов торрента, которые мы не хотим закачивать:
* либо вручную, снимая с каждого файла галку( скрин №1)
* либо, нажав кнопку "Снять метки (Select None)", сняв сразу со всех файлов(скрин №2)
№1

№2

Оставляем только на нужных нам файлах (файле).

3)Нажать О.К
-- -- --Внимание!!! 13.01. 2020. РАЗДАЧА ОБНОВЛЕНА. ДОБАВЛЕНА -6 - СЕРИЯ - ФИНАЛ СЕЗОНА. ОБНОВИТЕ ТОРЕНТ ФАЙЛ. ПРИЯТНОГО ПРОСМОТРА . Поблагодарить:
ЯД: 410017546713876
--Релиз от: Nikolai.Baranov & PIRATIYA -- -- -- --Время раздачи : 24/7---
[Profile]  [PM] 
Display posts:    
Reply to topic

Current time is: 27-Sep 02:48

All times are UTC + 2



You cannot post new topics in this forum
You cannot reply to topics in this forum
You cannot edit your posts in this forum
You cannot delete your posts in this forum
You cannot vote in polls in this forum
You cannot attach files in this forum
You cannot download files in this forum