Новый Папа / The New Pope (Сезон 1 , Серия 1-9 из 9) (Паоло Соррентино) [2020, Драма, WEB-DLRip 1080p] [LostFilm+Kravec +BenderBEST+ENG]+[Subs Rus , ENG]

Reply to topic
 
Author
Message

Враг Нароода ®

Gender: Unknown

Longevity: 7 years

Posts: 495

Reputation: 1 [+] [-]

Враг Нароода · Post 20-Jan-2020 21:09

[Quote] 

--Новый Папа/ The New Pope Сезон 1 , Серия 1-9 из 9
- Полный Комплект
-- --Год выпуска: 2020
Выпущено: Италия, Франция, Испания, США, Wildside, Haut et Court, Mediapro
Жанр: Драма
Продолжительность: 000:55:00
Сезон: 1
Серия:1-9
Количество серий в сезоне:9--Озвучка #1: Профессиональный многоголосый - LostFilm - Русский
Озвучка #2: Профессиональный многоголосый - BenderBEST - Русский
Озвучка #3: профессиональный (дублированный) - Kravec - Русский
Озвучка #4: Профессиональный многоголосый -Английский - Оригинал
Субтитры: Русские (Forced, Full), английские SDH
-- СКАЧАТЬ РАЗДАЧУ --Релиз Без Рекламы --MDB 8.3 --Режиссеры:
Паоло Соррентино--В ролях: : Джуд Лоу, Хавьер Камара, Сесиль Де Франс, Кика Джорджиу, Массимо Гини, Генри Гудман, Марк Иванир, Маурицио Ломбарди, Джон Малкович, Игнацио Олива-- Ленни Белардо впал в кому, так что кардиналам ничего не остаётся, кроме как выбрать нового понтифика, им становится Иоанн Павел III. Он уже готов повести католическую церковь в нужном, как видится кардиналам, направлении, когда Ленни приходит в себя, и миллиарды католиков оказываются в непростой ситуации.-- --Качество :WEB-DLRip 1080p
Формат: MKV
Видео кодек: H264
Видео: 7529Кбит/сек,1920х1080(16.9),в 23.976кадр/сек,AVC (High@L4)(CABAC/4 Ref Frames)--Аудио Кодек:AC3
Аудио #1:MVO LostFilm @DD5.1 AC3, 640 Kbps, 48.0 KHz, 6 ch- Lostfilm -Русский
Аудио #2:DUB Kravec @DD5.1 AC3, 640 Kbps, 48.0 KHz, 6 ch- Kravec -Русский
Аудио #3: DUB BenderBEST @DD5.1 AC3, 640 Kbps, 48.0 KHz, 6 ch- BenderBEST-Русский
Аудио #4: Original@DD5.1 E-AC3 ,640 Kbps, 48.0 KHz, 6 ch- English - Оригинал--

Доп. информация:

Звуковая дорожка сделана путем наложения чистого голоса озвучивателей на центральный канал оригинальной дорожки. Качество идентично звуковой дорожке.
--

Список эпизодов сезона


1 сезон 1 серия - Эпизод 1 - Episode #1.1
1 сезон 2 серия - Эпизод 2 - Episode #1.2
1 сезон 3 серия - Эпизод 3 - Episode #1.3
1 сезон 4 серия - Эпизод 4 - Episode #1.4
1 сезон 5 серия - Эпизод 5 - Episode #1.5
1 сезон 6 серия - Эпизод 6 - Episode #1.6
1 сезон 7 серия - Эпизод 7 - Episode #1.7
1 сезон 8 серия - Эпизод 8 - Episode #1.8
1 сезон 8 серия - Эпизод 9 - Episode #1. 9
--

MediaInfo сезона

Общее
Уникальный идентификатор : 39048048643885020150448438865891571066 (0x1D60617001593B8A10F541338F0A357A)
Полное имя : D:\PIRATIYA\Новый Папа - The New Pope\The.New.Pope_2020_S01_Н264_DD5.1_N.B_HD_1080_3xRus_Eng\The.New.Pope.S01E01_Н264_DD5.1_N.B_HD_1080_3xRus_Eng.mkv
Формат : Matroska
Версия формата : Version 4
Размер файла : 4,48 Гбайт
Продолжительность : 1 ч. 3 м.
Общий поток : 10,1 Мбит/сек
Название фильма : The New Pope 2020 S01E01 @ Nikolai.Baranov & PIRATIYA
Дата кодирования : UTC 2020-01-19 14:11:26
Программа кодирования : mkvmerge v42.0.0 ('Overtime') 64-bit
Библиотека кодирования : libebml v1.3.10 + libmatroska v1.5.2 / Lavf58.20.100
Видео
Идентификатор : 1
Формат : AVC
Формат/Информация : Advanced Video Codec
Профиль формата : High@L4
Настройки формата : CABAC / 4 Ref Frames
Параметр CABAC формата : Да
Параметр RefFrames формата : 4 кадра
Идентификатор кодека : V_MPEG4/ISO/AVC
Продолжительность : 1 ч. 3 м.
Вид битрейта : Постоянный
Битрейт : 7529 Кбит/сек
Номинальный битрейт : 10000 Кбит/сек
Ширина : 1920 пикселей
Высота : 1080 пикселей
Соотношение сторон : 16:9
Режим частоты кадров : Постоянный
Частота кадров : 23,976 (24000/1001) кадра/сек
Цветовое пространство : YUV
Субдискретизация насыщенности : 4:2:0
Битовая глубина : 8 бит
Тип развёртки : Прогрессивная
Бит/(Пиксели*Кадры) : 0.151
Размер потока : 3,34 Гбайт (75%)
Заголовок : The.New.Pope.S01E01_Н264_DD5.1_N.B_HD_1080_3xRus_Eng
Язык : Russian
Default : Да
Forced : Нет
Цветовой диапазон : Limited
Основные цвета : BT.709
Характеристики трансфера : BT.709
Коэффициенты матрицы : BT.709
Аудио #1
Идентификатор : 5
Формат : AC-3
Формат/Информация : Audio Coding 3
Коммерческое название : Dolby Digital
Идентификатор кодека : A_AC3
Продолжительность : 1 ч. 3 м.
Вид битрейта : Постоянный
Битрейт : 640 Кбит/сек
Каналы : 6 каналов
ChannelLayout : L R C LFE Ls Rs
Частота : 48,0 КГц
Частота кадров : 31,250 кадров/сек (1536 SPF)
Метод сжатия : С потерями
Задержка видео : -83 мс.
Размер потока : 291 Мбайт (6%)
Заголовок : MVO LostFilm @DD5.1 AC3, 640 Kbps, 48.0 KHz, 6 ch
Язык : Russian
ServiceKind/String : Complete Main
Default : Да
Forced : Нет
Аудио #2
Идентификатор : 6
Формат : AC-3
Формат/Информация : Audio Coding 3
Коммерческое название : Dolby Digital
Идентификатор кодека : A_AC3
Продолжительность : 1 ч. 3 м.
Вид битрейта : Постоянный
Битрейт : 640 Кбит/сек
Каналы : 6 каналов
ChannelLayout : L R C LFE Ls Rs
Частота : 48,0 КГц
Частота кадров : 31,250 кадров/сек (1536 SPF)
Метод сжатия : С потерями
Задержка видео : -83 мс.
Размер потока : 291 Мбайт (6%)
Заголовок : DUB BenderBEST @DD5.1 AC3, 640 Kbps, 48.0 KHz, 6 ch
Язык : Russian
ServiceKind/String : Complete Main
Default : Нет
Forced : Нет
Аудио #3
Идентификатор : 7
Формат : E-AC-3
Формат/Информация : Enhanced AC-3
Коммерческое название : Dolby Digital Plus
Идентификатор кодека : A_EAC3
Продолжительность : 1 ч. 3 м.
Вид битрейта : Постоянный
Битрейт : 640 Кбит/сек
Каналы : 6 каналов
ChannelLayout : L R C LFE Ls Rs
Частота : 48,0 КГц
Частота кадров : 31,250 кадров/сек (1536 SPF)
Метод сжатия : С потерями
Задержка видео : 28 мс.
Размер потока : 291 Мбайт (6%)
Заголовок : Original@DD5.1 E-AC3 ,640 Kbps, 48.0 KHz, 6 ch
Язык : English
ServiceKind/String : Complete Main
Default : Нет
Forced : Нет
Аудио #4
Идентификатор : 9
Формат : AC-3
Формат/Информация : Audio Coding 3
Коммерческое название : Dolby Digital
Идентификатор кодека : A_AC3
Продолжительность : 1 ч. 3 м.
Вид битрейта : Постоянный
Битрейт : 640 Кбит/сек
Каналы : 6 каналов
ChannelLayout : L R C LFE Ls Rs
Частота : 48,0 КГц
Частота кадров : 31,250 кадров/сек (1536 SPF)
Метод сжатия : С потерями
Задержка видео : -83 мс.
Размер потока : 291 Мбайт (6%)
Заголовок : DUB Kravec @DD5.1 AC3, 640 Kbps, 48.0 KHz, 6 ch
Язык : Russian
ServiceKind/String : Complete Main
Default : Нет
Forced : Нет
Текст #1
Идентификатор : 2
Формат : UTF-8
Идентификатор кодека : S_TEXT/UTF8
Идентификатор кодека/Информация : UTF-8 Plain Text
Продолжительность : 52 м. 33 с.
Битрейт : 34 бит/сек
ElementCount : 221
Размер потока : 13,1 Кбайт (0%)
Заголовок : Эпизод 1-Russian-Forced
Язык : Russian
Default : Да
Forced : Нет
Текст #2
Идентификатор : 3
Формат : UTF-8
Идентификатор кодека : S_TEXT/UTF8
Идентификатор кодека/Информация : UTF-8 Plain Text
Продолжительность : 56 м. 15 с.
Битрейт : 89 бит/сек
ElementCount : 543
Размер потока : 36,8 Кбайт (0%)
Заголовок : Эпизод 1-Russian(1)
Язык : Russian
Default : Нет
Forced : Нет
Текст #3
Идентификатор : 4
Формат : UTF-8
Идентификатор кодека : S_TEXT/UTF8
Идентификатор кодека/Информация : UTF-8 Plain Text
Продолжительность : 54 м. 43 с.
Битрейт : 81 бит/сек
ElementCount : 623
Размер потока : 32,5 Кбайт (0%)
Заголовок : Эпизод 1-Russian(2)
Язык : Russian
Default : Нет
Forced : Нет
Текст #4
Идентификатор : 8
Формат : UTF-8
Идентификатор кодека : S_TEXT/UTF8
Идентификатор кодека/Информация : UTF-8 Plain Text
Продолжительность : 1 ч. 3 м.
Битрейт : 42 бит/сек
ElementCount : 802
Размер потока : 20,0 Кбайт (0%)
Заголовок : Episode #1.1-Original - SDH
Язык : English
Default : Нет
Forced : Нет
Меню
00:00:00.083 : ru:Глава 01 / ru:Глава 01 / ru:Глава 01 / ru:Глава 01 / ru:Глава 01 / ru:Глава 01 / ru:Глава 01 / ru:Глава 01 / ru:Глава 01
--

Скриншоты

-- --

Как закачать отдельный файл

1. Открыть торрент
2. Снять галки с тех файлов торрента, которые мы не хотим закачивать. Оставляем только на нужных нам файлах (файле).
3. Нажать О.К.
В клиенте utorrent
Инструкция
1) Открыть торрент

2) Снять галки с тех файлов торрента, которые мы не хотим закачивать:
* либо вручную, снимая с каждого файла галку( скрин №1)
* либо, нажав кнопку "Снять метки (Select None)", сняв сразу со всех файлов(скрин №2)
№1

№2

Оставляем только на нужных нам файлах (файле).

3)Нажать О.К
-- -- --Внимание!!! 12.02. 2020. РАЗДАЧА ОБНОВЛЕНА. ДОБАВЛЕНА -9- СЕРИЯ . ФИНАЛ СЕЗОНА. ОБНОВИТЕ ТОРЕНТ ФАЙЛ. ПРИЯТНОГО ПРОСМОТРА . Поблагодарить:
ЯД: 410017546713876
--Релиз от: Nikolai.Baranov & PIRATIYA -- -- -- --Время раздачи : 24/7---
[Profile]  [PM] 
Display posts:    
Reply to topic

Current time is: 20-Sep 15:40

All times are UTC + 2



You cannot post new topics in this forum
You cannot reply to topics in this forum
You cannot edit your posts in this forum
You cannot delete your posts in this forum
You cannot vote in polls in this forum
You cannot attach files in this forum
You cannot download files in this forum