Половое воспитание (Все о сексе) / Sex Education (Сезон 1-2 , Серия 1-16 из 16) (Кейт Херрон, Бен Тэйлор) [2019,Драма, комедия,WEB-DLRip 1080p] [LostFilm+BTI Studios+Eng]+[Subs Rus , ENG]

Reply to topic
 
Author
Message

Враг Нароода ®

Gender: Unknown

Longevity: 7 years

Posts: 495

Reputation: 1 [+] [-]

Враг Нароода · Post 26-Jan-2020 15:36

[Quote] 

-- --Половое воспитание (Все о сексе) / Sex Education Сезон 1-2 , Серия 1-16 из 16 - Полный Комплект -- --Год выпуска: 2019 - 2020
Выпущено: США, Великобритания, Netflix, Eleven Films
Жанр:Драма, комедия
Продолжительность: 00:52:00
Сезон:1-2
Серия:1-16
Количество серий в сезоне:16--Озвучка #1: Профессиональный многоголосый - LostFilm - Русский
Озвучка #2: Профессиональный многоголосый - BTI Studios - Русский
Озвучка #3: Профессиональный многоголосый -Английский - Оригинал
Субтитры: Russian , English, English SDH
-- СКАЧАТЬ РАЗДАЧУ --Релиз Без Рекламы - ВНИМАНИЕ! В сериале Сцены Сексуального Характера.
--MDB 8.3 --Режиссеры:
Кейт Херрон, Бен Тэйлор--В ролях: Эйса Баттерфилд, Эмма Маккей, Джиллиан Андерсон, Нкути Гатуа, Шанель Кулар, Алистэр Петри, Коннор Суинделлс, Александр Вествуд, Кедар Уильямс-Стирлинг, Мими Кин, Таня Рейнольдс, Патриция Эллисон, Симон Эшли-- Действие разворачивается в начале учебного года в одной из британских школ, расположенной в живописной местности, похожей на Уэльс. Главный герой, Отис Милбёрн Эйса Баттерфилд, - скромный, умный, не стремящийся к популярности паренек, который живет со своей выдающейся мамой. Миссис Милбёрн Джиллиан Андерсон является именитым секс-терапевтом, помогает своим клиентам налаживать отношения не только в быту, но и в постели. У Отиса есть друг по имени Эрик - сын чернокожих эмигрантов, единственный мальчик в семье, да и тот гей. Понятно, что эту парочку не назовешь лидерами класса: над ними постоянно подшучивают, а когда в школе узнают, чем занимается мать Отиса, дела становятся совсем плохи. Все меняется с появлением в их тусовке Мейв Эмма Маккей - девчонки с подмоченной репутацией, наплевательским отношением к статусам, острым языком и своей точкой зрения на все. Она умна не по годам и нуждается в деньгах, поэтому предлагает Отису открыть подпольный кабинет секс-консультаций, чтобы он продавал полученные от жизни со своей мамой знания тем, кто больше всех в них нуждается, - неопытным подросткам. День за днем решая проблемы местных старшеклассников, Отис постепенно превращается в одного из самых популярных парней в школе, тогда как ворох его собственных заморочек только растет. Помимо того что он по-прежнему стыдится своей мамы и кое-что ей не договаривает, он вдруг понимает, что по уши влюбился в Мейв. Но зная о сексе больше, чем все его сверстники вместе взятые, Отис оказывается полным профаном в любви...-- --

Тех. Данные:

Качество : 1-сезон-WEB-DLRip - HEVC 10bit - 1080p.
Формат: MKV
Видео кодек: H265
Видео: 3473Кбит/сек,1920х960(2.000),в 25.000кадр/сек, HEVC (Main10@L5.2@Main)--Качество : 2-сезон-WEB-DLRip - HEVC 10bit - 1080p.
Формат: MKV
Видео кодек: H265
Видео: 3433Кбит/сек,1920х1080(16.9),в 25.000кадр/сек, HEVC (Main10@L5.2@Main)--Аудио Кодек:AC3
Аудио #1:MVO LostFilm @DD5.1 AC3, 640 Kbps, 48.0 KHz, 6 ch- LostFilm -Русский
Аудио #2:MVO BTI Studios @DD5.1 E-AC3, 640 Kbps, 48.0 KHz, 6 ch- BTI Studios -Русский
Аудио #3: Original@DD5.1 E-AC3 ,640 Kbps, 48.0 KHz, 6 ch - English - Оригинал
--

Доп. информация:

Звуковая дорожка сделана путем наложения чистого голоса озвучивателей на центральный канал оригинальной дорожки. Качество идентично звуковой дорожке.
--

Список эпизодов сезонов


1 сезон 1 серия- Эпизод 1 - Episode 1
1 сезон 2 серия - Эпизод 2 - Episode 2
1 сезон 3 серия - Эпизод 3 - Episode 3
1 сезон 4 серия - Эпизод 4 - Episode 4
1 сезон 5 серия - Эпизод 5 - Episode 5
1 сезон 6 серия - Эпизод 6 - Episode 6
1 сезон 7 серия - Эпизод 7 - Episode 7
1 сезон 8 серия - Эпизод 8 - Episode 8


2 сезон 1 серия - Эпизод 2.1 - Episode #2.1
2 сезон 2 серия - Эпизод 2.2 -Episode #2.2
2 сезон 3 серия - Эпизод 2.3 - Episode #2.3
2 сезон 4 серия - Эпизод 2.4 - Episode #2.4
2 сезон 5 серия - Эпизод 2.5 - Episode #2.5
2 сезон 6 серия - Эпизод 2.6 - Episode #2.6
2 сезон 7 серия - Эпизод 2.7 - Episode #2.7
2 сезон 8 серия - Эпизод 2.8 - Episode #2.8
--

MediaInfo 1-сезон

Общее
Уникальный идентификатор : 120373507813188901054678256757606855076 (0x5A8F18256906420B8165EE290BE231A4)
Полное имя : D:\PIRATIYA\Половое воспитание (Все о сексе) - Sex Education\Sex.Education_2019_S01-_S02_HEVC- 10Bit_Н265_DD5.1_N.B_HD_1080_2xRus_Eng\_S01\Sex.Education_S01E01_HEVC_Н265_DD5.1_N.B_HD_1080_2xRus_Eng.mkv
Формат : Matroska
Версия формата : Version 4
Размер файла : 1,95 Гбайт
Продолжительность : 51 м. 42 с.
Общий поток : 5396 Кбит/сек
Название фильма : Sex Education 2019 S01E01 @ Nikolai.Baranov & PIRATIYA
Дата кодирования : UTC 2020-01-26 07:39:31
Программа кодирования : mkvmerge v42.0.0 ('Overtime') 64-bit
Библиотека кодирования : libebml v1.3.10 + libmatroska v1.5.2
Видео
Идентификатор : 1
Формат : HEVC
Формат/Информация : High Efficiency Video Coding
Профиль формата : Main 10@L5.2@Main
Идентификатор кодека : V_MPEGH/ISO/HEVC
Продолжительность : 51 м. 42 с.
Битрейт : 3473 Кбит/сек
Ширина : 1920 пикселей
Высота : 960 пикселей
Соотношение сторон : 2,000
Режим частоты кадров : Постоянный
Частота кадров : 25,000 кадров/сек
Цветовое пространство : YUV
Субдискретизация насыщенности : 4:2:0
Битовая глубина : 10 бит
Бит/(Пиксели*Кадры) : 0.075
Размер потока : 1,25 Гбайт (64%)
Заголовок : Sex Education 2019 S01E01 @ Nikolai.Baranov & PIRATIYA
Язык : Russian
Default : Да
Forced : Нет
Цветовой диапазон : Full
Основные цвета : BT.709
Характеристики трансфера : BT.709
Коэффициенты матрицы : BT.709
Аудио #1
Идентификатор : 4
Формат : E-AC-3
Формат/Информация : Enhanced AC-3
Коммерческое название : Dolby Digital Plus
Идентификатор кодека : A_EAC3
Продолжительность : 51 м. 42 с.
Вид битрейта : Постоянный
Битрейт : 640 Кбит/сек
Каналы : 6 каналов
ChannelLayout : L R C LFE Ls Rs
Частота : 48,0 КГц
Частота кадров : 31,250 кадров/сек (1536 SPF)
Метод сжатия : С потерями
Размер потока : 237 Мбайт (12%)
Заголовок : Original@DD5.1 E-AC3 ,640 Kbps, 48.0 KHz, 6 ch
Язык : English
ServiceKind/String : Complete Main
Default : Нет
Forced : Нет
Аудио #2
Идентификатор : 7
Формат : AC-3
Формат/Информация : Audio Coding 3
Коммерческое название : Dolby Digital
Идентификатор кодека : A_AC3
Продолжительность : 51 м. 40 с.
Вид битрейта : Постоянный
Битрейт : 640 Кбит/сек
Каналы : 6 каналов
ChannelLayout : L R C LFE Ls Rs
Частота : 48,0 КГц
Частота кадров : 31,250 кадров/сек (1536 SPF)
Метод сжатия : С потерями
Размер потока : 237 Мбайт (12%)
Заголовок : MVO LostFilm @DD5.1 AC3, 640 Kbps, 48.0 KHz, 6 ch
Язык : Russian
ServiceKind/String : Complete Main
Default : Да
Forced : Нет
Аудио #3
Идентификатор : 8
Формат : E-AC-3
Формат/Информация : Enhanced AC-3
Коммерческое название : Dolby Digital Plus
Идентификатор кодека : A_EAC3
Продолжительность : 51 м. 42 с.
Вид битрейта : Постоянный
Битрейт : 640 Кбит/сек
Каналы : 6 каналов
ChannelLayout : L R C LFE Ls Rs
Частота : 48,0 КГц
Частота кадров : 31,250 кадров/сек (1536 SPF)
Метод сжатия : С потерями
Размер потока : 237 Мбайт (12%)
Заголовок : MVO BTI Studios @DD5.1 E-AC3, 640 Kbps, 48.0 KHz, 6 ch
Язык : Russian
ServiceKind/String : Complete Main
Default : Нет
Forced : Нет
Текст #1
Идентификатор : 2
Формат : UTF-8
Идентификатор кодека : S_TEXT/UTF8
Идентификатор кодека/Информация : UTF-8 Plain Text
Продолжительность : 41 м. 23 с.
Битрейт : 1 бит/сек
ElementCount : 13
Размер потока : 555 байт (0%)
Заголовок : Эпизод 1-Russian-Forced
Язык : Russian
Default : Да
Forced : Нет
Текст #2
Идентификатор : 3
Формат : UTF-8
Идентификатор кодека : S_TEXT/UTF8
Идентификатор кодека/Информация : UTF-8 Plain Text
Продолжительность : 49 м. 50 с.
Битрейт : 85 бит/сек
ElementCount : 740
Размер потока : 31,4 Кбайт (0%)
Заголовок : Эпизод 1-Russian
Язык : Russian
Default : Нет
Forced : Нет
Текст #3
Идентификатор : 5
Формат : UTF-8
Идентификатор кодека : S_TEXT/UTF8
Идентификатор кодека/Информация : UTF-8 Plain Text
Продолжительность : 51 м. 25 с.
Битрейт : 75 бит/сек
ElementCount : 914
Размер потока : 28,6 Кбайт (0%)
Заголовок : Episode 1-Original - SDH
Язык : English
Default : Нет
Forced : Нет
Текст #4
Идентификатор : 6
Формат : UTF-8
Идентификатор кодека : S_TEXT/UTF8
Идентификатор кодека/Информация : UTF-8 Plain Text
Продолжительность : 50 м. 6 с.
Битрейт : 61 бит/сек
ElementCount : 733
Размер потока : 22,5 Кбайт (0%)
Заголовок : Episode 1-Original
Язык : English
Default : Нет
Forced : Нет
Меню
00:00:00.000 : ru:Глава 01 / ru:Глава 01 / ru:Глава 01 / ru:Глава 01 / ru:Глава 01 / ru:Глава 01 / ru:Глава 01 / ru:Глава 01 / ru:Глава 01
--

MediaInfo 2-сезон

Общее
Уникальный идентификатор : 229030902677254741720089328203933386508 (0xAC4DBF535A60717D3CE1E33C2C3F870C)
Полное имя : D:\PIRATIYA\Половое воспитание (Все о сексе) - Sex Education\Sex.Education_2019_S01-_S02_HEVC- 10Bit_Н265_DD5.1_N.B_HD_1080_2xRus_Eng\_S02\Sex.Education_S02E01_HEVC_Н265_DD5.1_N.B_HD_1080_2xRus_Eng.mkv
Формат : Matroska
Версия формата : Version 4
Размер файла : 1,92 Гбайт
Продолжительность : 51 м. 16 с.
Общий поток : 5356 Кбит/сек
Название фильма : Sex Education 2019 S02E01 @ Nikolai.Baranov & PIRATIYA
Дата кодирования : UTC 2020-01-25 16:39:06
Программа кодирования : mkvmerge v42.0.0 ('Overtime') 64-bit
Библиотека кодирования : libebml v1.3.10 + libmatroska v1.5.2
Видео
Идентификатор : 1
Формат : HEVC
Формат/Информация : High Efficiency Video Coding
Профиль формата : Main 10@L5.2@Main
Идентификатор кодека : V_MPEGH/ISO/HEVC
Продолжительность : 51 м. 16 с.
Битрейт : 3433 Кбит/сек
Ширина : 1920 пикселей
Высота : 1080 пикселей
Соотношение сторон : 16:9
Режим частоты кадров : Постоянный
Частота кадров : 25,000 кадров/сек
Цветовое пространство : YUV
Субдискретизация насыщенности : 4:2:0
Битовая глубина : 10 бит
Бит/(Пиксели*Кадры) : 0.066
Размер потока : 1,23 Гбайт (64%)
Заголовок : Sex.Education_S02E01_HEVC_Н265_DD5.1_N.B_HD_1080_2xRus_Eng
Язык : Russian
Default : Да
Forced : Нет
Цветовой диапазон : Full
Основные цвета : BT.709
Характеристики трансфера : BT.709
Коэффициенты матрицы : BT.709
Аудио #1
Идентификатор : 4
Формат : AC-3
Формат/Информация : Audio Coding 3
Коммерческое название : Dolby Digital
Идентификатор кодека : A_AC3
Продолжительность : 51 м. 15 с.
Вид битрейта : Постоянный
Битрейт : 640 Кбит/сек
Каналы : 6 каналов
ChannelLayout : L R C LFE Ls Rs
Частота : 48,0 КГц
Частота кадров : 31,250 кадров/сек (1536 SPF)
Метод сжатия : С потерями
Размер потока : 235 Мбайт (12%)
Заголовок : MVO LostFilm @DD5.1 AC3, 640 Kbps, 48.0 KHz, 6 ch
Язык : Russian
ServiceKind/String : Complete Main
Default : Да
Forced : Нет
Аудио #2
Идентификатор : 5
Формат : E-AC-3
Формат/Информация : Enhanced AC-3
Коммерческое название : Dolby Digital Plus
Идентификатор кодека : A_EAC3
Продолжительность : 51 м. 16 с.
Вид битрейта : Постоянный
Битрейт : 640 Кбит/сек
Каналы : 6 каналов
ChannelLayout : L R C LFE Ls Rs
Частота : 48,0 КГц
Частота кадров : 31,250 кадров/сек (1536 SPF)
Метод сжатия : С потерями
Размер потока : 235 Мбайт (12%)
Заголовок : MVO BTI Studios @DD5.1 E-AC3, 640 Kbps, 48.0 KHz, 6 ch
Язык : Russian
ServiceKind/String : Complete Main
Default : Нет
Forced : Нет
Аудио #3
Идентификатор : 6
Формат : E-AC-3
Формат/Информация : Enhanced AC-3
Коммерческое название : Dolby Digital Plus
Идентификатор кодека : A_EAC3
Продолжительность : 51 м. 16 с.
Вид битрейта : Постоянный
Битрейт : 640 Кбит/сек
Каналы : 6 каналов
ChannelLayout : L R C LFE Ls Rs
Частота : 48,0 КГц
Частота кадров : 31,250 кадров/сек (1536 SPF)
Метод сжатия : С потерями
Размер потока : 235 Мбайт (12%)
Заголовок : Original@DD5.1 E-AC3 ,640 Kbps, 48.0 KHz, 6 ch
Язык : English
ServiceKind/String : Complete Main
Default : Нет
Forced : Нет
Текст #1
Идентификатор : 2
Формат : UTF-8
Идентификатор кодека : S_TEXT/UTF8
Идентификатор кодека/Информация : UTF-8 Plain Text
Продолжительность : 44 м. 35 с.
Битрейт : 1 бит/сек
ElementCount : 10
Размер потока : 516 байт (0%)
Заголовок : Эпизод 2.1-Russian-Forced
Язык : Russian
Default : Да
Forced : Нет
Текст #2
Идентификатор : 3
Формат : UTF-8
Идентификатор кодека : S_TEXT/UTF8
Идентификатор кодека/Информация : UTF-8 Plain Text
Продолжительность : 50 м. 11 с.
Битрейт : 96 бит/сек
ElementCount : 713
Размер потока : 35,4 Кбайт (0%)
Заголовок : Эпизод 2.1-Russian
Язык : Russian
Default : Нет
Forced : Нет
Текст #3
Идентификатор : 7
Формат : UTF-8
Идентификатор кодека : S_TEXT/UTF8
Идентификатор кодека/Информация : UTF-8 Plain Text
Продолжительность : 50 м. 10 с.
Битрейт : 83 бит/сек
ElementCount : 884
Размер потока : 30,6 Кбайт (0%)
Заголовок : Episode #2.1-Original - SDH
Язык : English
Default : Нет
Forced : Нет
Текст #4
Идентификатор : 8
Формат : UTF-8
Идентификатор кодека : S_TEXT/UTF8
Идентификатор кодека/Информация : UTF-8 Plain Text
Продолжительность : 49 м. 56 с.
Битрейт : 77 бит/сек
ElementCount : 807
Размер потока : 28,5 Кбайт (0%)
Заголовок : Episode #2.1-Original
Язык : English
Default : Нет
Forced : Нет
Меню
00:00:00.000 : ru:Глава 01 / ru:Глава 01 / ru:Глава 01 / ru:Глава 01 / ru:Глава 01 / ru:Глава 01 / ru:Глава 01 / ru:Глава 01 / ru:Глава 01
--

Скриншоты

-- 1-сезон.-- 2-сезон.--

Как закачать отдельный файл

1. Открыть торрент
2. Снять галки с тех файлов торрента, которые мы не хотим закачивать. Оставляем только на нужных нам файлах (файле).
3. Нажать О.К.
В клиенте utorrent
Инструкция
1) Открыть торрент

2) Снять галки с тех файлов торрента, которые мы не хотим закачивать:
* либо вручную, снимая с каждого файла галку( скрин №1)
* либо, нажав кнопку "Снять метки (Select None)", сняв сразу со всех файлов(скрин №2)
№1

№2

Оставляем только на нужных нам файлах (файле).

3)Нажать О.К
-- -- --Внимание!!! 12.02. 2020. РАЗДАЧА ОБНОВЛЕНА. ДОБАВЛЕНА -7-8- СЕРИЯ 1 СЕЗОНА ,-7-8- СЕРИЯ 2 СЕЗОНА . ФИНАЛ СЕЗОНА. ОБНОВИТЕ ТОРЕНТ ФАЙЛ. ПРИЯТНОГО ПРОСМОТРА . Поблагодарить:
ЯД: 410017546713876
--Релиз от: Nikolai.Baranov & PIRATIYA -- -- -- --Время раздачи : 24/7---
[Profile]  [PM] 
Display posts:    
Reply to topic

Current time is: 20-Sep 12:15

All times are UTC + 2



You cannot post new topics in this forum
You cannot reply to topics in this forum
You cannot edit your posts in this forum
You cannot delete your posts in this forum
You cannot vote in polls in this forum
You cannot attach files in this forum
You cannot download files in this forum