Родина (Чужой среди своих)/ Homeland(Сезон 8 , Серия 1-12 из 12) ( Кит Гордон,Алекс Грейвз) [2020, Триллер, драма, криминал, детектив,WEB-DLRip 1080p] [LostFilm+SDI Media+Eng]+[Subs Rus , ENG]

Reply to topic
 
Author
Message

Враг Нароода ®

Gender: Unknown

Longevity: 7 years

Posts: 496

Reputation: 1 [+] [-]

Враг Нароода · Post 15-Feb-2020 13:09

[Quote] 

-- Родина (Чужой среди своих)/ Homeland(Сезон 8 , Серия 1-12 из 12) - Полный Комплект -- --Год выпуска: 2020
Выпущено: США , Teakwood Lane Productions, Cherry Pie Productions, Keshet Broadcasting
Жанр: Триллер, драма, криминал, детектив
Продолжительность: 01:00:00
Сезон:8
Серия:1-12
Количество серий в сезоне:12--Озвучка #1: Профессиональный многоголосый - LostFilm - Русский
Озвучка #2: Профессиональный многоголосый - SDI Media - Русский
Озвучка #3: Профессиональный многоголосый -Английский - Оригинал
Субтитры: Russian , English, English SDH
--Релиз Без Рекламы --СКАЧАТЬ РАЗДАЧУ--MDB 8.3 --Режиссеры:
Кит Гордон, Лесли Линка Глаттер, Алекс Грейвз, Такер Гейтс, Дэниэл Эттиэс--В ролях: Клер Дэйнс, Руперт Френд, Элизабет Марвел, Ф. Мюррэй Абрахам, Мэнди Пэтинкин, Хилл Харпер, Мори Стерлинг, Эшли Шарп Честнат, Доминик Фумуса, Патрик Сабонги, Зайнаб Джа, Альфредо Нарцисо, Джамал Маллори-МакКри, Бернард Уайт, Аллан Кордунер, Нина Хосс, Джейк Уэбер, Дебора Хедуолл-- Сержанта морской пехоты Николаса Броуди долгое время считали пропавшим без вести и предположительно погибшим в бою. Но вот — его находят после рейда на штаб-квартиру террористов. Эксперт ЦРУ по Ближнему Востоку Кэрри Мэтисон считает, что в настоящее время сержант Броуди завербован «Аль-Каидой» и специально «оставлен» спасшему его отряду спецподразделения Дельта для возвращения в США и организации террористической атаки. Руководство страны и общественность однако верят, что сержант Броуди — герой войны, и это затрудняет расследование.-- --Качество :WEB-DLRip - HEVC 10bit - 1080p
Формат: MKV
Видео кодек: H265
Видео: 4249Кбит/сек,1920х1080(16.9),в 23.976кадр/сек, HEVC (Main10@L5.1@Main)--Аудио Кодек:AC3
Аудио #1: MVO LostFilm @DD5.1 AC3, 640 Kbps, 48.0 KHz, 6 ch- LostFilm -Русский
Аудио #2: MVO SDI Media @DD5.1 AC3, 640 Kbps, 48.0 KHz, 6 ch- SDI Media -Русский
Аудио #3: Original@DD5.1 E-AC3 ,640 Kbps, 48.0 KHz, 6 ch - English - Оригинал--

Доп. информация:

Звуковая дорожка сделана путем наложения чистого голоса озвучивателей на центральный канал оригинальной дорожки. Качество идентично звуковой дорожке.
--

Список эпизодов сезона


8 сезон 1 серия - Признаки обмана - Deception Indicated
8 сезон 2 серия - Поймать и отпустить - Catch and Release
8 сезон 3 серия - Ложные друзья - False Friends
8 сезон 4 серия - Плюс один - Chalk One Up
8 сезон 5 серия - Минус два - Chalk Two Down
8 сезон 6 серия - Две минуты - Two Minutes
8 сезон 7 серия - Этот урод меня подстрелил - F**ker Shot Me
8 сезон 8 серия - Стенания - Threnody(s)
8 сезон 9 серия - В бегах - In Full Flight
8 сезон 10 серия - Избранный водитель - Designated Driver
8 сезон 11 серия - Учитель английского - The English Teacher
8 сезон 12 серия - Узники войны - Prisoners of War
--

MediaInfo 1-сезон

Общее
Уникальный идентификатор : 93550639196816429599575447809697821150 (0x4661329EBB9DE529924FB9C338ECB1DE)
Полное имя : D:\PIRATIYA\Родина (Чужой среди своих) - Homeland\Homeland_ 2020_S08_HEVC- 10Bit_Н265_DD5.1_N.B_HD_1080_3xRus_Eng\Homeland_S08E01_HEVC_Н265_DD5.1_N.B_HD_1080_2xRus_Eng.mkv
Формат : Matroska
Версия формата : Version 4
Размер файла : 2,56 Гбайт
Продолжительность : 59 м. 22 с.
Общий поток : 6172 Кбит/сек
Название фильма : Homeland 2020 S08E01 @ Nikolai.Baranov & PIRATIYA
Дата кодирования : UTC 2020-02-15 07:35:14
Программа кодирования : mkvmerge v43.0.0 ('The Quartermaster') 64-bit
Библиотека кодирования : libebml v1.3.10 + libmatroska v1.5.2
Видео
Идентификатор : 1
Формат : HEVC
Формат/Информация : High Efficiency Video Coding
Профиль формата : Main 10@L5.1@Main
Идентификатор кодека : V_MPEGH/ISO/HEVC
Продолжительность : 59 м. 22 с.
Битрейт : 4249 Кбит/сек
Ширина : 1920 пикселей
Высота : 1080 пикселей
Соотношение сторон : 16:9
Режим частоты кадров : Постоянный
Частота кадров : 23,976 (24000/1001) кадра/сек
Цветовое пространство : YUV
Субдискретизация насыщенности : 4:2:0
Битовая глубина : 10 бит
Бит/(Пиксели*Кадры) : 0.085
Размер потока : 1,76 Гбайт (69%)
Заголовок : Homeland_S08E01_HEVC_Н265_DD5.1_N.B_HD_1080_2xRus_Eng
Язык : Russian
Default : Да
Forced : Нет
Цветовой диапазон : Full
Основные цвета : BT.709
Характеристики трансфера : BT.709
Коэффициенты матрицы : BT.709
Аудио #1
Идентификатор : 5
Формат : AC-3
Формат/Информация : Audio Coding 3
Коммерческое название : Dolby Digital
Идентификатор кодека : A_AC3
Продолжительность : 59 м. 22 с.
Вид битрейта : Постоянный
Битрейт : 640 Кбит/сек
Каналы : 6 каналов
ChannelLayout : L R C LFE Ls Rs
Частота : 48,0 КГц
Частота кадров : 31,250 кадров/сек (1536 SPF)
Метод сжатия : С потерями
Размер потока : 272 Мбайт (10%)
Заголовок : MVO LostFilm @DD5.1 AC3, 640 Kbps, 48.0 KHz, 6 ch
Язык : Russian
ServiceKind/String : Complete Main
Default : Да
Forced : Нет
Аудио #2
Идентификатор : 6
Формат : AC-3
Формат/Информация : Audio Coding 3
Коммерческое название : Dolby Digital
Идентификатор кодека : A_AC3
Продолжительность : 59 м. 22 с.
Вид битрейта : Постоянный
Битрейт : 640 Кбит/сек
Каналы : 6 каналов
ChannelLayout : L R C LFE Ls Rs
Частота : 48,0 КГц
Частота кадров : 31,250 кадров/сек (1536 SPF)
Метод сжатия : С потерями
Размер потока : 272 Мбайт (10%)
Заголовок : MVO SDI Media @DD5.1 AC3, 640 Kbps, 48.0 KHz, 6 ch
Язык : Russian
ServiceKind/String : Complete Main
Default : Нет
Forced : Нет
Аудио #3
Идентификатор : 7
Формат : E-AC-3
Формат/Информация : Enhanced AC-3
Коммерческое название : Dolby Digital Plus
Идентификатор кодека : A_EAC3
Продолжительность : 59 м. 22 с.
Вид битрейта : Постоянный
Битрейт : 640 Кбит/сек
Каналы : 6 каналов
ChannelLayout : L R C LFE Ls Rs
Частота : 48,0 КГц
Частота кадров : 31,250 кадров/сек (1536 SPF)
Метод сжатия : С потерями
Размер потока : 272 Мбайт (10%)
Заголовок : Original@DD5.1 E-AC3 ,640 Kbps, 48.0 KHz, 6 ch
Язык : English
ServiceKind/String : Complete Main
Default : Нет
Forced : Нет
Текст #1
Идентификатор : 2
Формат : UTF-8
Идентификатор кодека : S_TEXT/UTF8
Идентификатор кодека/Информация : UTF-8 Plain Text
Продолжительность : 57 м. 32 с.
Битрейт : 90 бит/сек
ElementCount : 745
Размер потока : 38,1 Кбайт (0%)
Заголовок : Признаки обмана-Russian
Язык : Russian
Default : Да
Forced : Нет
Текст #2
Идентификатор : 3
Формат : UTF-8
Идентификатор кодека : S_TEXT/UTF8
Идентификатор кодека/Информация : UTF-8 Plain Text
Продолжительность : 56 м. 47 с.
Битрейт : 67 бит/сек
ElementCount : 1060
Размер потока : 28,0 Кбайт (0%)
Заголовок : Deception Indicated-Original - SDH
Язык : English
Default : Нет
Forced : Нет
Текст #3
Идентификатор : 4
Формат : UTF-8
Идентификатор кодека : S_TEXT/UTF8
Идентификатор кодека/Информация : UTF-8 Plain Text
Продолжительность : 56 м. 35 с.
Битрейт : 57 бит/сек
ElementCount : 856
Размер потока : 24,0 Кбайт (0%)
Заголовок : Deception Indicated-Original
Язык : English
Default : Нет
Forced : Нет
Меню
00:00:00.000 : ru:Глава 01 / ru:Глава 01 / ru:Глава 01 / ru:Глава 01 / ru:Глава 01 / ru:Глава 01 / ru:Глава 01
--

Скриншоты

-- 8-сезон.--

Как закачать отдельный файл

1. Открыть торрент
2. Снять галки с тех файлов торрента, которые мы не хотим закачивать. Оставляем только на нужных нам файлах (файле).
3. Нажать О.К.
В клиенте utorrent
Инструкция
1) Открыть торрент

2) Снять галки с тех файлов торрента, которые мы не хотим закачивать:
* либо вручную, снимая с каждого файла галку( скрин №1)
* либо, нажав кнопку "Снять метки (Select None)", сняв сразу со всех файлов(скрин №2)
№1

№2

Оставляем только на нужных нам файлах (файле).

3)Нажать О.К
-- -- --Внимание!!! 30.04. 2020. РАЗДАЧА ОБНОВЛЕНА. ДОБАВЛЕНА - 12- СЕРИЯ . ФИНАЛ СЕЗОНА . ОБНОВИТЕ ТОРЕНТ ФАЙЛ. ПРИЯТНОГО ПРОСМОТРА . Поблагодарить:
ЯД: 410017546713876
--Релиз от: Nikolai.Baranov & PIRATIYA -- -- -- --Время раздачи : 24/7---
[Profile]  [PM] 
Display posts:    
Reply to topic

Current time is: 27-Sep 03:13

All times are UTC + 2



You cannot post new topics in this forum
You cannot reply to topics in this forum
You cannot edit your posts in this forum
You cannot delete your posts in this forum
You cannot vote in polls in this forum
You cannot attach files in this forum
You cannot download files in this forum