Чудотворцы / Miracle Workers (Сезон 1-2 , Серия 1-17 из 17) (Райан Кейс, Морис Мэрэбл, Йорма Такконе) [2019,Комедия,WEB-DLRip 1080p] [Кураж-Бамбей+Eng]+[Subs Rus , ENG]

Reply to topic
 
Author
Message

Враг Нароода ®

Gender: Unknown

Longevity: 7 years

Posts: 495

Reputation: 1 [+] [-]

Враг Нароода · Post 17-Feb-2020 16:15

[Quote] 

-- Чудотворцы / Miracle Workers (Сезон 1-2 , Серия 1--17 из 17) - Полный Комплект -- --Год выпуска: 2019 - 2020
Выпущено: США , Broadway Video, Studio T
Жанр:Комедия
Продолжительность: 00:23:00
Сезон:1-2
Серия:1--17
Количество серий в сезоне:17--Озвучка #1: Профессиональный одноголосый - Денис Колесников aka Кураж-Бамбей - Русский
Озвучка #2: Профессиональный многоголосый -Английский - Оригинал
Субтитры: Russian , English SDH
--Релиз Без Рекламы --MDB 6.9 --Режиссеры:
Райан Кейс, Морис Мэрэбл, Йорма Такконе--В ролях: Стив Бушеми, Дэниэл Рэдклифф, Джеральдин Висванатхан, Каран Сони, Саша Компере, Джон Басс, Париза Джонстон, Леандер Сулейман, Лолли Адефоп, Калеб Эмери, Тереза О`Ши-- Небесная канцелярия Бога — масштабный офис с множеством отделов и сотрудников, работающих в атмосфере цейтнота и многозадачности. Есть даже HR или же напоминающий службу технической поддержки отдел обработки молитв. Именно его служащие, ангелы Элиза и Крэйг, берутся за спасение Земли, когда приунывший Господь вдруг решает ее погубить.
Теперь у ангелов есть две недели, чтобы соединить несоединимое — двух одиноких людей в пару — и доказать, что человечество вовсе не безнадежно и достойно существования.
-- --Качество : 1- 2-сезон-WEB-DLRip - HEVC 10bit - 1080p.
Формат: MKV
Видео кодек: H265
Видео: 4102Кбит/сек,1920х1080(16.9),в 23.976кадр/сек, HEVC (Main10@L5.1@Main)--Аудио Кодек:AC3
Аудио #1:AC3 640 Kbps, 48.0 KHz, 6 ch- Денис Колесников aka Кураж-Бамбей -Русский
Аудио #2: AC3, 640 Kbps, 48.0 KHz,6 ch - - English - Оригинал--

Доп. информация:

Звуковая дорожка сделана путем наложения чистого голоса озвучивателей на центральный канал оригинальной дорожки. Качество идентично звуковой дорожке.
--

Список эпизодов сезонов


1 сезон 1 серия- Эпизод 1 - Episode 1
1 сезон 2 серия - Эпизод 2 - Episode 2
1 сезон 3 серия - Эпизод 3 - Episode 3
1 сезон 4 серия - Эпизод 4 - Episode 4
1 сезон 4 серия - Эпизод 5 - Episode 5
1 сезон 6 серия - Эпизод 6 - Episode 6
1 сезон 7 серия - Эпизод 7 - Episode 7


2 сезон 1 серия - Эпизод 2.1 - Episode #2.1
2 сезон 2 серия - Эпизод 2.2 -Episode #2.2
2 сезон 3 серия - Эпизод 2.3 - Episode #2.3
2 сезон 4 серия - Эпизод 2.4 - Episode #2.4
2 сезон 5 серия - Эпизод 2.5 - Episode #2.5
2 сезон 6 серия - Эпизод 2.6 - Episode #2.6
2 сезон 7 серия - Эпизод 2.7 - Episode #2.7
2 сезон 8 серия - Эпизод 2.8 - Episode #2.8
2 сезон 9 серия - Эпизод 2.9- Episode #2.9
2 сезон 10 серия - Эпизод 10- Episode #2.9
--

MediaInfo 1-сезон

Общее
Уникальный идентификатор : 127524459549751560395364444557374693266 (0x5FF0514992614BA7D7B3D090BAF09F92)
Полное имя : D:\PIRATIYA\Чудотворцы - Miracle Workers\Miracle.Workers_2019_S01-S02_HEVC- 10Bit_Н265_DD5.1_N.B_HD_1080_Rus_Kuraj-Bambey_Eng\S01\Miracle.Workers_S01E01_HEVC_DD5.1_N.B_HD_1080_Rus_Kuraj-Bambey_Eng.mkv
Формат : Matroska
Версия формата : Version 4
Размер файла : 807 Мбайт
Продолжительность : 23 м. 31 с.
Общий поток : 4792 Кбит/сек
Название фильма : Miracle Workers 2019 S01E01 @ Nikolai.Baranov & PIRATIYA
Дата кодирования : UTC 2020-02-11 14:24:42
Программа кодирования : mkvmerge v43.0.0 ('The Quartermaster') 64-bit
Библиотека кодирования : libebml v1.3.10 + libmatroska v1.5.2
Видео
Идентификатор : 1
Формат : HEVC
Формат/Информация : High Efficiency Video Coding
Профиль формата : Main 10@L5.1@Main
Идентификатор кодека : V_MPEGH/ISO/HEVC
Продолжительность : 20 м. 55 с.
Битрейт : 4105 Кбит/сек
Ширина : 1920 пикселей
Высота : 1080 пикселей
Соотношение сторон : 16:9
Режим частоты кадров : Постоянный
Частота кадров : 23,976 (24000/1001) кадра/сек
Цветовое пространство : YUV
Субдискретизация насыщенности : 4:2:0
Битовая глубина : 10 бит
Бит/(Пиксели*Кадры) : 0.083
Размер потока : 615 Мбайт (76%)
Заголовок : Miracle.Workers_S01E01_HEVC_DD5.1_N.B_HD_1080_Rus_Kuraj-Bambey_Eng
Язык : Russian
Default : Да
Forced : Нет
Цветовой диапазон : Full
Основные цвета : BT.709
Характеристики трансфера : BT.709
Коэффициенты матрицы : BT.709
Аудио #1
Идентификатор : 3
Формат : AC-3
Формат/Информация : Audio Coding 3
Коммерческое название : Dolby Digital
Идентификатор кодека : A_AC3
Продолжительность : 20 м. 55 с.
Вид битрейта : Постоянный
Битрейт : 640 Кбит/сек
Каналы : 6 каналов
ChannelLayout : L R C LFE Ls Rs
Частота : 48,0 КГц
Частота кадров : 31,250 кадров/сек (1536 SPF)
Метод сжатия : С потерями
Размер потока : 95,8 Мбайт (12%)
Заголовок : VO Kuraj-Bambey @DD5.1 AC3, 640 Kbps, 48.0 KHz, 6 ch
Язык : Russian
ServiceKind/String : Complete Main
Default : Да
Forced : Нет
Аудио #2
Идентификатор : 4
Формат : AC-3
Формат/Информация : Audio Coding 3
Коммерческое название : Dolby Digital
Идентификатор кодека : A_AC3
Продолжительность : 20 м. 55 с.
Вид битрейта : Постоянный
Битрейт : 640 Кбит/сек
Каналы : 6 каналов
ChannelLayout : L R C LFE Ls Rs
Частота : 48,0 КГц
Частота кадров : 31,250 кадров/сек (1536 SPF)
Метод сжатия : С потерями
Размер потока : 95,8 Мбайт (12%)
Заголовок : Original@DD5.1 AC3 ,640 Kbps, 48.0 KHz, 6 ch
Язык : English
ServiceKind/String : Complete Main
Default : Нет
Forced : Нет
Текст #1
Идентификатор : 2
Формат : UTF-8
Идентификатор кодека : S_TEXT/UTF8
Идентификатор кодека/Информация : UTF-8 Plain Text
Продолжительность : 23 м. 31 с.
Битрейт : 130 бит/сек
ElementCount : 415
Размер потока : 22,6 Кбайт (0%)
Заголовок : Эпизод 1.1-Russian
Язык : Russian
Default : Да
Forced : Нет
Текст #2
Идентификатор : 5
Формат : UTF-8
Идентификатор кодека : S_TEXT/UTF8
Идентификатор кодека/Информация : UTF-8 Plain Text
Продолжительность : 20 м. 50 с.
Битрейт : 87 бит/сек
ElementCount : 462
Размер потока : 13,4 Кбайт (0%)
Заголовок : Episode #1.1-Original - SDH
Язык : English
Default : Нет
Forced : Нет
Меню
00:00:00.000 : ru:Глава 01 / ru:Глава 01 / ru:Глава 01 / ru:Глава 01 / ru:Глава 01
--

MediaInfo 2-сезон

Общее
Уникальный идентификатор : 293357016098259716759738808687364790147 (0xDCB281945AF6DF87B21AC746DB55D783)
Полное имя : D:\PIRATIYA\Чудотворцы - Miracle Workers\Miracle.Workers_2019_S01-S02_HEVC- 10Bit_Н265_DD5.1_N.B_HD_1080_Rus_Kuraj-Bambey_Eng\S02\Miracle.Workers_S02E01_HEVC_DD5.1_N.B_HD_1080_Rus_Kuraj-Bambey_Eng.mkv
Формат : Matroska
Версия формата : Version 4
Размер файла : 826 Мбайт
Продолжительность : 21 м. 27 с.
Общий поток : 5385 Кбит/сек
Название фильма : Miracle Workers 2020 S02E01 @ Nikolai.Baranov & PIRATIYA
Дата кодирования : UTC 2020-02-11 08:35:33
Программа кодирования : mkvmerge v43.0.0 ('The Quartermaster') 64-bit
Библиотека кодирования : libebml v1.3.10 + libmatroska v1.5.2
Видео
Идентификатор : 1
Формат : HEVC
Формат/Информация : High Efficiency Video Coding
Профиль формата : Main 10@L5.1@Main
Идентификатор кодека : V_MPEGH/ISO/HEVC
Продолжительность : 21 м. 27 с.
Битрейт : 4102 Кбит/сек
Ширина : 1920 пикселей
Высота : 1080 пикселей
Соотношение сторон : 16:9
Режим частоты кадров : Постоянный
Частота кадров : 23,976 (24000/1001) кадра/сек
Цветовое пространство : YUV
Субдискретизация насыщенности : 4:2:0
Битовая глубина : 10 бит
Бит/(Пиксели*Кадры) : 0.083
Размер потока : 629 Мбайт (76%)
Заголовок : Miracle.Workers_S02E01_HEVC_DD5.1_N.B_HD_1080_Rus_Kuraj-Bambey_Eng
Язык : Russian
Default : Да
Forced : Нет
Цветовой диапазон : Full
Основные цвета : BT.709
Характеристики трансфера : BT.709
Коэффициенты матрицы : BT.709
Аудио #1
Идентификатор : 3
Формат : E-AC-3
Формат/Информация : Enhanced AC-3
Коммерческое название : Dolby Digital Plus
Идентификатор кодека : A_EAC3
Продолжительность : 21 м. 27 с.
Вид битрейта : Постоянный
Битрейт : 640 Кбит/сек
Каналы : 6 каналов
ChannelLayout : L R C LFE Ls Rs
Частота : 48,0 КГц
Частота кадров : 31,250 кадров/сек (1536 SPF)
Метод сжатия : С потерями
Размер потока : 98,2 Мбайт (12%)
Заголовок : VO Kuraj-Bambey @DD5.1 E-AC3, 640 Kbps, 48.0 KHz, 6 ch
Язык : Russian
ServiceKind/String : Complete Main
Default : Да
Forced : Нет
Аудио #2
Идентификатор : 4
Формат : E-AC-3
Формат/Информация : Enhanced AC-3
Коммерческое название : Dolby Digital Plus
Идентификатор кодека : A_EAC3
Продолжительность : 21 м. 27 с.
Вид битрейта : Постоянный
Битрейт : 640 Кбит/сек
Каналы : 6 каналов
ChannelLayout : L R C LFE Ls Rs
Частота : 48,0 КГц
Частота кадров : 31,250 кадров/сек (1536 SPF)
Метод сжатия : С потерями
Размер потока : 98,2 Мбайт (12%)
Заголовок : Original@DD5.1 E-AC3 ,640 Kbps, 48.0 KHz, 6 ch
Язык : English
ServiceKind/String : Complete Main
Default : Нет
Forced : Нет
Текст #1
Идентификатор : 2
Формат : UTF-8
Идентификатор кодека : S_TEXT/UTF8
Идентификатор кодека/Информация : UTF-8 Plain Text
Продолжительность : 21 м. 0 с.
Битрейт : 137 бит/сек
ElementCount : 461
Размер потока : 21,2 Кбайт (0%)
Заголовок : Эпизод 2.1-Russian
Язык : Russian
Default : Да
Forced : Нет
Текст #2
Идентификатор : 5
Формат : UTF-8
Идентификатор кодека : S_TEXT/UTF8
Идентификатор кодека/Информация : UTF-8 Plain Text
Продолжительность : 21 м. 22 с.
Битрейт : 87 бит/сек
ElementCount : 492
Размер потока : 13,7 Кбайт (0%)
Заголовок : Episode #2.1-Original - SDH
Язык : English
Default : Нет
Forced : Нет
Меню
00:00:00.000 : ru:Глава 01 / ru:Глава 01 / ru:Глава 01 / ru:Глава 01 / ru:Глава 01
--

Скриншоты

- 1-сезон.-- 2-сезон.--

Как закачать отдельный файл

1. Открыть торрент
2. Снять галки с тех файлов торрента, которые мы не хотим закачивать. Оставляем только на нужных нам файлах (файле).
3. Нажать О.К.
В клиенте utorrent
Инструкция
1) Открыть торрент

2) Снять галки с тех файлов торрента, которые мы не хотим закачивать:
* либо вручную, снимая с каждого файла галку( скрин №1)
* либо, нажав кнопку "Снять метки (Select None)", сняв сразу со всех файлов(скрин №2)
№1

№2

Оставляем только на нужных нам файлах (файле).

3)Нажать О.К
-- -- --Внимание!!! 13.04. 2020. РАЗДАЧА ОБНОВЛЕНА. ДОБАВЛЕНА -10- СЕРИЯ -2Сезона-1Сезон Полностью -ФИНАЛ - 2Сезона. ОБНОВИТЕ ТОРЕНТ ФАЙЛ. ПРИЯТНОГО ПРОСМОТРА . Поблагодарить:
ЯД: 410017546713876
--Релиз от: Nikolai.Baranov & PIRATIYA -- -- -- --Время раздачи : 24/7---
[Profile]  [PM] 
Display posts:    
Reply to topic

Current time is: 20-Sep 13:39

All times are UTC + 2



You cannot post new topics in this forum
You cannot reply to topics in this forum
You cannot edit your posts in this forum
You cannot delete your posts in this forum
You cannot vote in polls in this forum
You cannot attach files in this forum
You cannot download files in this forum