НольНольНоль / ZeroZeroZero (Сезон 1 , Серия 1-8 из 8) (Янус Мец, Пабло Траперо) [2020, Криминал, драма, триллер, HDTV 1080p] [LostFilm+Красавец+Ю. Сербин+Eng+Ital]+[Subs Rus ,ENG ,Ital]

Reply to topic
 
Author
Message

Враг Нароода ®

Gender: Unknown

Longevity: 7 years

Posts: 495

Reputation: 1 [+] [-]

Враг Нароода · Post 01-Mar-2020 09:45

[Quote] 

-- НольНольНоль/ ZeroZeroZero (Сезон 1 , Серия 1-8 из 8) - Полный Комплект -- --Год выпуска: 2020
Выпущено: Италия, Cattleya, Bartlebyfilm
Жанр: Криминал, драма, триллер
Продолжительность: 01:00:00
Сезон:1
Серия:1-8
Количество серий в сезоне:8--Озвучка #1: Профессиональный многоголосый - LostFilm - Русский
Озвучка #2: Профессиональный многоголосый - Красавец-Рекордз по заказу Amedia - Русский
Озвучка #3: Aвторский Одноголосый, Ю. Сербин - - Русский
Озвучка #4: Профессиональный многоголосый -Английский - Английский
Озвучка #5: Профессиональный многоголосый - итальянский - итальянский
Субтитры: Russian , English, итальянскиe SDH
--Релиз Без Рекламы --СКАЧАТЬ РАЗДАЧУ
MDB 8.2 --Режиссеры:
Янус Мец, Пабло Траперо, Стефано Соллима--В ролях: Андреа Райзборо, Дэйн ДеХаан, Гэбриел Бирн, Эрик Израэль Консуэло, Джузеппе Де Доменико, Маурисио Мендес, Арольд Торрес, Диего Катаньо, Хесус Лозаньо, Армандо Комонфорт Сантьяго-- В Калабрии глава мафиозного клана дон Муно прячется от врагов в подземном бункере и заказывает крупную партию кокаина на 900 млн евро. Дон Муно не знает, что внук Стефано его ненавидит, хочет скормить свиньям и планирует предательство. Между тем в Мехико спецотряд по борьбе с наркотиками проводит операцию, героем которой становится оперативник по кличке Вампиро. Никто не знает, что он работает на местных наркобаронов и должен обеспечить трафик той самой партии для дона Муно.-- --Качество : HDTV 1080p
Формат: MKV
Видео кодек: H264
Видео: 5255Кбит/сек,1920х1080(16.9),в 50.000кадр/сек,AVC (High@L4)(CABAC/4 Ref Frames)--Аудио Кодек:AC3
Аудио #1: MVO LostFilm @DD5.1 AC3, 384 Kbps, 48.0 KHz, 6 ch- LostFilm -Русский
Аудио #2: MVO Кравец-Рекордз @DD5.1 AC3, 384 Kbps, 48.0 KHz, 6 ch- Кравец-Рекордз -Русский
Аудио #3: VO Ю. Сербин @DD5.1 AC3, 384 Kbps, 48.0 KHz, 6 ch- Ю. Сербин -Русский
Аудио #4: English @DD5.1 AC3 , 384 Kbps, 48.0 KHz, 6 ch - English
Аудио #5: Italian @DD5.1 AC3 , 384 Kbps, 48.0 KHz, 6 ch - Italian--

Доп. информация:

Звуковая дорожка сделана путем наложения чистого голоса озвучивателей на центральный канал оригинальной дорожки. Качество идентично звуковой дорожке.
--

Список эпизодов сезона


1 сезон 1 серия - Поставка - The Shipment
1 сезон 2 серия - Тампикское небо - Tampico Skies
1 сезон 3 серия - Миранда - Episode #1.3
1 сезон 4 серия - Перегрузка - Episode #1.4
1 сезон 5 серия - Шариат - Episode #1.5
1 сезон 6 серия - Единым путем - En el Mismo Camino
1 сезон 7 серия - Семья - Family
1 сезон 8 серия - Одной крови - Same Blood
--

MediaInfo 1-сезон

Общее
Уникальный идентификатор : 244962416571067660432801295114626142198 (0xB84A0B9AE6EDAF3C8823147C53CC0FF6)
Полное имя : D:\PIRATIYA\НольНольНоль - ZeroZeroZero\ZeroZeroZero_2020_S01_Н264_DD5.1_N.B_HD_1080_2xRus_Eng_Ital\ZeroZeroZero_S01E01_Н264_DD5.1_N.B_HD_1080_2xRus_Eng_Ital.mkv
Формат : Matroska
Версия формата : Version 4
Размер файла : 2,86 Гбайт
Продолжительность : 57 м. 9 с.
Общий поток : 7170 Кбит/сек
Название фильма : ZeroZeroZeroe 2020 S01E01 @ Nikolai.Baranov & PIRATIYA
Дата кодирования : UTC 2020-03-04 11:12:17
Программа кодирования : mkvmerge v43.0.0 ('The Quartermaster') 64-bit
Библиотека кодирования : libebml v1.3.10 + libmatroska v1.5.2
Видео
Идентификатор : 1
Формат : AVC
Формат/Информация : Advanced Video Codec
Профиль формата : High@L4
Настройки формата : CABAC / 4 Ref Frames
Параметр CABAC формата : Да
Параметр RefFrames формата : 4 кадра
Идентификатор кодека : V_MPEG4/ISO/AVC
Продолжительность : 57 м. 8 с.
Битрейт : 5255 Кбит/сек
Ширина : 1920 пикселей
Высота : 1080 пикселей
Соотношение сторон : 16:9
Режим частоты кадров : Переменный
Частота кадров : 50,000 кадров/сек
Частота кадров в оригинале : 25,000 кадров/сек
Стандарт вещания : Component
Цветовое пространство : YUV
Субдискретизация насыщенности : 4:2:0
Битовая глубина : 8 бит
Тип развёртки : Чересстрочная
Метод сохранения типа развёртки : Раздельные поля
Порядок развёртки : Верхнее поле первое
Бит/(Пиксели*Кадры) : 0.051
Размер потока : 2,10 Гбайт (73%)
Заголовок : ZeroZeroZero_S01E01_Н264_DD5.1_N.B_HD_1080_2xRus_Eng_Ital
Язык : Russian
Default : Да
Forced : Нет
Цветовой диапазон : Limited
Основные цвета : BT.709
Характеристики трансфера : BT.709
Коэффициенты матрицы : BT.709
Аудио #1
Идентификатор : 3
Формат : AC-3
Формат/Информация : Audio Coding 3
Коммерческое название : Dolby Digital
Идентификатор кодека : A_AC3
Продолжительность : 57 м. 8 с.
Вид битрейта : Постоянный
Битрейт : 384 Кбит/сек
Каналы : 6 каналов
ChannelLayout : L R C LFE Ls Rs
Частота : 48,0 КГц
Частота кадров : 31,250 кадров/сек (1536 SPF)
Метод сжатия : С потерями
Размер потока : 157 Мбайт (5%)
Заголовок : MVO Кравец-Рекордз @DD5.1 AC3, 384 Kbps, 48.0 KHz, 6 ch
Язык : Russian
ServiceKind/String : Complete Main
Default : Да
Forced : Нет
Аудио #2
Идентификатор : 4
Формат : AC-3
Формат/Информация : Audio Coding 3
Коммерческое название : Dolby Digital
Идентификатор кодека : A_AC3
Продолжительность : 55 м. 57 с.
Вид битрейта : Постоянный
Битрейт : 384 Кбит/сек
Каналы : 6 каналов
ChannelLayout : L R C LFE Ls Rs
Частота : 48,0 КГц
Частота кадров : 31,250 кадров/сек (1536 SPF)
Метод сжатия : С потерями
Размер потока : 154 Мбайт (5%)
Заголовок : MVO LostFilm @DD5.1 AC3, 384 Kbps, 48.0 KHz, 6 ch
Язык : Russian
ServiceKind/String : Complete Main
Default : Нет
Forced : Нет
Аудио #3
Идентификатор : 5
Формат : AC-3
Формат/Информация : Audio Coding 3
Коммерческое название : Dolby Digital
Идентификатор кодека : A_AC3
Продолжительность : 57 м. 9 с.
Вид битрейта : Постоянный
Битрейт : 384 Кбит/сек
Каналы : 6 каналов
ChannelLayout : L R C LFE Ls Rs
Частота : 48,0 КГц
Частота кадров : 31,250 кадров/сек (1536 SPF)
Метод сжатия : С потерями
Размер потока : 157 Мбайт (5%)
Заголовок : _English @DD5.1 AC3 , 384 Kbps, 48.0 KHz, 6 ch
Язык : English
ServiceKind/String : Complete Main
Default : Нет
Forced : Нет
Аудио #4
Идентификатор : 6
Формат : AC-3
Формат/Информация : Audio Coding 3
Коммерческое название : Dolby Digital
Идентификатор кодека : A_AC3
Продолжительность : 57 м. 9 с.
Вид битрейта : Постоянный
Битрейт : 384 Кбит/сек
Каналы : 6 каналов
ChannelLayout : L R C LFE Ls Rs
Частота : 48,0 КГц
Частота кадров : 31,250 кадров/сек (1536 SPF)
Метод сжатия : С потерями
Размер потока : 157 Мбайт (5%)
Заголовок : Italian @DD5.1 AC3 , 384 Kbps, 48.0 KHz, 6 ch
Язык : Italian
ServiceKind/String : Complete Main
Default : Нет
Forced : Нет
Аудио #5
Идентификатор : 9
Формат : AC-3
Формат/Информация : Audio Coding 3
Коммерческое название : Dolby Digital
Идентификатор кодека : A_AC3
Продолжительность : 57 м. 9 с.
Вид битрейта : Постоянный
Битрейт : 384 Кбит/сек
Каналы : 6 каналов
ChannelLayout : L R C LFE Ls Rs
Частота : 48,0 КГц
Частота кадров : 31,250 кадров/сек (1536 SPF)
Метод сжатия : С потерями
Размер потока : 157 Мбайт (5%)
Заголовок : VO Ю. Сербин @DD5.1 AC3, 384 Kbps, 48.0 KHz, 6 ch
Язык : Russian
ServiceKind/String : Complete Main
Default : Нет
Forced : Нет
Текст #1
Идентификатор : 2
Формат : UTF-8
Идентификатор кодека : S_TEXT/UTF8
Идентификатор кодека/Информация : UTF-8 Plain Text
Продолжительность : 54 м. 44 с.
Битрейт : 61 бит/сек
ElementCount : 414
Размер потока : 24,5 Кбайт (0%)
Заголовок : Поставка-Russian
Язык : Russian
Default : Да
Forced : Нет
Текст #2
Идентификатор : 7
Формат : UTF-8
Идентификатор кодека : S_TEXT/UTF8
Идентификатор кодека/Информация : UTF-8 Plain Text
Продолжительность : 54 м. 39 с.
Битрейт : 37 бит/сек
ElementCount : 436
Размер потока : 14,9 Кбайт (0%)
Заголовок : The Shipment-English
Язык : English
Default : Нет
Forced : Нет
Текст #3
Идентификатор : 8
Формат : UTF-8
Идентификатор кодека : S_TEXT/UTF8
Идентификатор кодека/Информация : UTF-8 Plain Text
Продолжительность : 54 м. 46 с.
Битрейт : 30 бит/сек
ElementCount : 376
Размер потока : 12,2 Кбайт (0%)
Заголовок : The Shipment-Italian - SDH
Язык : Italian
Default : Нет
Forced : Нет
Меню
00:00:00.000 : ru:Глава 01 / ru:Глава 01 / ru:Глава 01 / ru:Глава 01 / ru:Глава 01 / ru:Глава 01 / ru:Глава 01 / ru:Глава 01 / ru:Глава 01
--

Скриншоты

-- -1-сезон.--

Как закачать отдельный файл

1. Открыть торрент
2. Снять галки с тех файлов торрента, которые мы не хотим закачивать. Оставляем только на нужных нам файлах (файле).
3. Нажать О.К.
В клиенте utorrent
Инструкция
1) Открыть торрент

2) Снять галки с тех файлов торрента, которые мы не хотим закачивать:
* либо вручную, снимая с каждого файла галку( скрин №1)
* либо, нажав кнопку "Снять метки (Select None)", сняв сразу со всех файлов(скрин №2)
№1

№2

Оставляем только на нужных нам файлах (файле).

3)Нажать О.К
-- -- --Внимание!!! 19.03. 2020. РАЗДАЧА ОБНОВЛЕНА. ДОБАВЛЕНА -8- СЕРИЯ ФИНАЛ СЕЗОНА - ЗВУКОВАЯ ДОРОЖКА Ю. Сербин ОБНОВИТЕ ТОРЕНТ ФАЙЛ. ПРИЯТНОГО ПРОСМОТРА . Поблагодарить:
ЯД: 410017546713876
--Релиз от: Nikolai.Baranov & PIRATIYA -- -- -- --Время раздачи : 24/7---
[Profile]  [PM] 
Display posts:    
Reply to topic

Current time is: 20-Sep 12:55

All times are UTC + 2



You cannot post new topics in this forum
You cannot reply to topics in this forum
You cannot edit your posts in this forum
You cannot delete your posts in this forum
You cannot vote in polls in this forum
You cannot attach files in this forum
You cannot download files in this forum