Венская кровь (Убийство по Фрейду)/ Vienna Blood) (Сезон 1, Серия 1-6 из 6) (Умут Даг, Роберт Дорнхельм) [2019, Детектив, драма, криминал,WEB-DLRip 1080p] [LostFilm +Eng]+[Subs ENG]

Reply to topic
 
Author
Message

Враг Нароода ®

Gender: Unknown

Longevity: 7 years

Posts: 495

Reputation: 1 [+] [-]

Враг Нароода · Post 02-Apr-2020 10:27

[Quote] 

-- Венская кровь (Убийство по Фрейду)/ Vienna Blood (Сезон 1, Серия 1-6 из 6) - Полный Комплект -- --Год выпуска: 2019
Выпущено: Австрия, Великобритания, Германия, Österreichischer Rundfunk (ORF), Endor Productions, MR TV-Film, Zweites Deutsches Fernsehen (ZDF)
Жанр: Детектив, драма, криминал
Продолжительность: 00:45:00
Сезон:1
Серия:1-6
Количество серий в сезоне:6--Озвучка #1: Профессиональный многоголосый - LostFilm - Русский
Озвучка #5: Профессиональный многоголосый -Английский - Оригинал
Субтитры: English (SDH)
--Релиз Без Рекламы --MDB 7.5 --Режиссеры:
Умут Даг, Роберт Дорнхельм--В ролях: Мэттью Бирд, Юрген Маурер, Амелия Баллмор, Джессика Де Гау, Джозеф Эллерс, Симон Хатцль, Конлет Хилл, Шарлин МакКенна, Оливер Штоковски, Рафаэль фон Бэрген-- Вена — столица тысячелетней империи и рай для педантов. Фрейд читает свои лекции, выставки Климта полны ценителей искусства, Густав Малер дает концерты, и для всего есть правила. Но под этой красотой цветет и пахнет теневое царство, которое город пытается укрыть от глаз посторонних. Медиумы-шарлатаны, грязные кабаре, кровожадные маньяки и прочий сброд регулярно подкидывают местной полиции непростую работу. Одним из тружеников мрачного венского тыла является инспектор Оскар Рейнхардт (Юрген Маурер), которому поручают расследовать дело о загадочном самоубийстве женщины в запертой комнате. В качестве помощника ему навязывают стажера Макса Либермана (Мэттью Бирд) — большого поклонника основоположника современного психоанализа Зигмунда Фрейда и весьма самоуверенного джентльмена. Макс мечтает исследовать психику преступников на практике, а невезучему в последнее время Оскару очень нужно хоть одно раскрытое дело. И если поначалу им никак не удается сработаться из-за несхожести характеров и гордыни, то вскоре они поймут, что только в команде смогут найти того, кто совершил злодеяние. Правда, пока они перекидываются завуалированными оскорблениями и пробуют на прочность нервы друг друга, убийца не дремлет и по скрипучей лестнице уже поднимается в каморку к очередной жертве, чтобы размозжить ей череп деревянным молотом...-- --Качество : -WEB-DLRip - HEVC 10bit - 1080p.
Формат: MKV
Видео кодек: H265
Видео: 5059Кбит/сек,1920х1080(16.9),в 25.000кадр/сек, HEVC (Main10@L5.2@Main)--Аудио Кодек:AC3
Аудио #1: MVO LostFilm @DD5.1 AC3, 640 Kbps, 48.0 KHz, 6 ch- LostFilm -Русский
Аудио #2: Original@DD5.1 E-AC3 , 640 Kbps, 48.0 KHz, 6 ch - English - Оригинал--

Доп. информация:

Звуковая дорожка сделана путем наложения чистого голоса озвучивателей на центральный канал оригинальной дорожки. Качество идентично звуковой дорожке.
--

Список эпизодов сезона


1 сезон 1 серия - Последний сеанс Чать1 - The Last Seance Part1
1 сезон 2 серия - Последний сеанс Чать2 - The Last Seance Part2
1 сезон 3 серия - Царица Ночи Чать1 - Queen of the Night Part1
1 сезон 4 серия - Царица Ночи Чать2 - Queen of the Night Part2
1 сезон 5 серия - Потерянное дитя Чать1 - The Lost Child Part1
1 сезон 6 серия - Потерянное дитя Чать2 - The Lost Child Part2
--

MediaInfo

Общее
Уникальный идентификатор : 165852182172971249478075258532494515914 (0x7CC5F7E8FD56B1D69FA5A183B0FF1ECA)
Полное имя : E:\RussianPatriot\Венская кровь (Убийство по Фрейду) - Vienna Blood\Vienna_Blood_2019_S01_HEVC- 10Bit_Н265_DD5.1_N.B_HD_1080_Rus_LostFilm_Eng\Vienna_Blood_S01E01-E02_HEVC_DD5.1_N.B_HD_1080_Rus_LostFilm_Eng.mkv
Формат : Matroska
Версия формата : Version 4
Размер файла : 3,98 Гбайт
Продолжительность : 1 ч. 29 м.
Общий поток : 6341 Кбит/сек
Название фильма : Vienna Blood 2019 S01E01-E02 @ Nikolai.Baranov & PIRATIYA
Дата кодирования : UTC 2020-04-01 15:36:04
Программа кодирования : mkvmerge v44.0.0 ('Domino') 64-bit
Библиотека кодирования : libebml v1.3.10 + libmatroska v1.5.2
Видео
Идентификатор : 1
Формат : HEVC
Формат/Информация : High Efficiency Video Coding
Профиль формата : Main 10@L5.2@Main
Идентификатор кодека : V_MPEGH/ISO/HEVC
Продолжительность : 1 ч. 29 м.
Битрейт : 5059 Кбит/сек
Ширина : 1920 пикселей
Высота : 1080 пикселей
Соотношение сторон : 16:9
Режим частоты кадров : Постоянный
Частота кадров : 25,000 кадров/сек
Цветовое пространство : YUV
Субдискретизация насыщенности : 4:2:0
Битовая глубина : 10 бит
Бит/(Пиксели*Кадры) : 0.098
Размер потока : 3,18 Гбайт (80%)
Заголовок : Vienna_Blood_S01E01-E02_HEVC_DD5.1_N.B_HD_1080_Rus_LostFilm_Eng
Язык : Russian
Default : Нет
Forced : Нет
Цветовой диапазон : Full
Основные цвета : BT.709
Характеристики трансфера : BT.709
Коэффициенты матрицы : BT.709
Аудио #1
Идентификатор : 2
Формат : AC-3
Формат/Информация : Audio Coding 3
Коммерческое название : Dolby Digital
Идентификатор кодека : A_AC3
Продолжительность : 1 ч. 29 м.
Вид битрейта : Постоянный
Битрейт : 640 Кбит/сек
Каналы : 6 каналов
ChannelLayout : L R C LFE Ls Rs
Частота : 48,0 КГц
Частота кадров : 31,250 кадров/сек (1536 SPF)
Метод сжатия : С потерями
Размер потока : 412 Мбайт (10%)
Заголовок : MVO LostFilm @DD5.1 AC3, 640 , Kbps, 48.0 KHz, 6 ch
Язык : Russian
ServiceKind/String : Complete Main
Default : Нет
Forced : Нет
Аудио #2
Идентификатор : 3
Формат : E-AC-3
Формат/Информация : Enhanced AC-3
Коммерческое название : Dolby Digital Plus
Идентификатор кодека : A_EAC3
Продолжительность : 1 ч. 29 м.
Вид битрейта : Постоянный
Битрейт : 640 Кбит/сек
Каналы : 6 каналов
ChannelLayout : L R C LFE Ls Rs
Частота : 48,0 КГц
Частота кадров : 31,250 кадров/сек (1536 SPF)
Метод сжатия : С потерями
Задержка видео : 8 мс.
Размер потока : 412 Мбайт (10%)
Заголовок : Original@DD5.1 E-AC3 ,640 Kbps, 48.0 KHz, 6 ch
Язык : English
ServiceKind/String : Complete Main
Default : Нет
Forced : Нет
Текст
Идентификатор : 4
Формат : UTF-8
Идентификатор кодека : S_TEXT/UTF8
Идентификатор кодека/Информация : UTF-8 Plain Text
Продолжительность : 1 ч. 28 м.
Битрейт : 53 бит/сек
ElementCount : 1270
Размер потока : 35,0 Кбайт (0%)
Заголовок : The Last Seance-Part1-2-Original - SDH
Язык : English
Default : Да
Forced : Нет
Меню
00:00:00.000 : ru:Глава 01 / ru:Глава 01 / ru:Глава 01 / ru:Глава 01
--

Скриншоты

- 1-сезон.--

Как закачать отдельный файл

1. Открыть торрент
2. Снять галки с тех файлов торрента, которые мы не хотим закачивать. Оставляем только на нужных нам файлах (файле).
3. Нажать О.К.
В клиенте utorrent
Инструкция
1) Открыть торрент

2) Снять галки с тех файлов торрента, которые мы не хотим закачивать:
* либо вручную, снимая с каждого файла галку( скрин №1)
* либо, нажав кнопку "Снять метки (Select None)", сняв сразу со всех файлов(скрин №2)
№1

№2

Оставляем только на нужных нам файлах (файле).

3)Нажать О.К
-- -- --Внимание!!! 19.04 2020. РАЗДАЧА ОБНОВЛЕНА. ДОБАВЛЕНА -5-6- СЕРИЯ. ФИНАЛ СЕЗОНА . ОБНОВИТЕ ТОРЕНТ ФАЙЛ. ПРИЯТНОГО ПРОСМОТРА . Поблагодарить:
ЯД: 410017546713876
--Релиз от: Nikolai.Baranov & PIRATIYA -- -- -- --Время раздачи : 24/7---
[Profile]  [PM] 
Display posts:    
Reply to topic

Current time is: 21-Sep 12:18

All times are UTC + 2



You cannot post new topics in this forum
You cannot reply to topics in this forum
You cannot edit your posts in this forum
You cannot delete your posts in this forum
You cannot vote in polls in this forum
You cannot attach files in this forum
You cannot download files in this forum