Чужестранка / Outlander (Сезон 5, Серия 1-12 из 12) (Метин Хусейн, Анна Ферстер) [2020, Фэнтези, драма, мелодрама,WEB-DLRip 1080p] [NewStudio +Eng]+[Subs Rus , ENG]

Reply to topic
 
Author
Message

Враг Нароода ®

Gender: Unknown

Longevity: 7 years

Posts: 496

Reputation: 1 [+] [-]

Враг Нароода · Post 25-Apr-2020 17:35

[Quote] 

---- Чужестранка / Outlander - (Сезон 5, Серия 1-12 из 12) - Полный Комплект -- --Год выпуска: 2020
Выпущено: США, Великобритания, Left Bank Pictures, Sony Pictures Television, Soundtrack New York, Story Mining & Supply Co., Tall Ship Productions
Жанр: Фэнтези, драма, мелодрама
Продолжительность: 00:45:00
Сезон:5
Серия:1-12
Количество серий в сезоне:12--Озвучка #1: Профессиональный многоголосый - NewStudio - Русский
Озвучка #5: Профессиональный многоголосый -Английский - Оригинал
Субтитры: Russian , English, English (SDH)
--Релиз Без Рекламы --СКАЧАТЬ РАЗДАЧУ--MDB 8.4 --Режиссеры:
Метин Хусейн, Анна Ферстер, Брайан Келли--В ролях: Катрина Балф, Сэм Хьюэн, Джон Белл, Софи Скелтон, Ричард Рэнкин, Тобайас Мензис, Дункан Лакруа, Трэйси Уилкинсон, Финн Ден Хертог, Нелл Хадсон, Стивен Кри, Джон Хеффернан (II), Прентис Хэнкок, Дуглас Расселл, Тим МакИннерни, Джон Сешнс, Саймон Кэллоун-- Сериал рассказывает историю Клэр Рэндалл, военной медсестры из 40-х годов XX века, которая во время прогулки у легендарных шотландских каменных кругов загадочно перемещается во времени в 1743-й год. Попадая в XVIII век, Клэр оказывается в неизвестном мире, где ее жизни угрожает опасность. Девушка должна найти возможность выжить и вернуться обратно в будущее, где остался ее муж Фрэнк Рэндалл. Чтобы спастись в неизвестном и незнакомом героине прошлом, она вынуждена выйти замуж за Джейми Фрейзера, галантного шотландского воина со сложной судьбой и обезоруживающим чувством юмора.-- --Качество : -WEB-DLRip - HEVC 10bit - 1080p.
Формат: MKV
Видео кодек: H265
Видео: 4648Кбит/сек,1920х1080(16.9),в 23.976кадр/сек, HEVC (Main10@L5.1@Main)--Аудио Кодек:AC3
Аудио #1: MVO LostFilm @DD5.1 AC3, 640 Kbps, 48.0 KHz, 6 ch- NewStudio -Русский
Аудио #2: Original@DD5.1 E-AC3 , 640 Kbps, 48.0 KHz, 6 ch - English - Оригинал--

Доп. информация:

Звуковая дорожка сделана путем наложения чистого голоса озвучивателей на центральный канал оригинальной дорожки. Качество идентично звуковой дорожке.
--

Список эпизодов сезона


5 сезон 1 серия - Огненный крест - The Fiery Cross
5 сезон 2 серия - Меж двух огней - Between Two Fires
5 сезон 3 серия - По своей воле - Free Will
5 сезон 4 серия - Наш круг общения - The Company We Keep
5 сезон 5 серия - Непрерывное поклонение - Perpetual Adoration
5 сезон 6 серия - Лучше замуж, чем сгореть - Better to Marry Than Burn
5 сезон 7 серия - Баллада Роджера Мака - Ballad of Roger Mac
5 сезон 8 серия - Известные предсмертные слова - Famous Last Words
5 сезон 9 серия - Чудовища и герои - Monsters and Heroes
5 сезон 10 серия - Благодать последует за мной - Mercy Shall Follow Me
5 сезон 11 серия - Лепёшка в дорогу - Journeycake
5 сезон 12 серия - Никогда, любовь моя - Never My Love
--

MediaInfo

Общее
Уникальный идентификатор : 21946025301749429783032914264885237904 (0x1082A6962B2D565C2B12016D9C831890)
Полное имя : E:\RussianPatriot\Чужестранка - Outlander\Outlander_2020_S05_HEVC- 10Bit_Н265_DD5.1_N.B_HD_1080_Rus_NewStudio_Eng\Outlander.s05e01_HEVC_DD5.1_N.B_HD_1080_Rus_NewStudio_Eng.mkv
Формат : Matroska
Версия формата : Version 4
Размер файла : 2,59 Гбайт
Продолжительность : 1 ч. 2 м.
Общий поток : 5 930 Кбит/сек
Название фильма : Outlander 2020 S05E01 @ Nikolai.Baranov & PIRATIYA
Дата кодирования : UTC 2020-03-27 19:17:18
Программа кодирования : mkvmerge v44.0.0 ('Domino') 64-bit
Библиотека кодирования : libebml v1.3.10 + libmatroska v1.5.2
Видео
Идентификатор : 1
Формат : HEVC
Формат/Информация : High Efficiency Video Coding
Профиль формата : Main 10@L5.1@Main
Идентификатор кодека : V_MPEGH/ISO/HEVC
Продолжительность : 1 ч. 2 м.
Битрейт : 4 648 Кбит/сек
Ширина : 1 920 пикселей
Высота : 1 080 пикселей
Соотношение сторон : 16:9
Режим частоты кадров : Постоянный
Частота кадров : 23,976 (24000/1001) кадра/сек
Цветовое пространство : YUV
Субдискретизация насыщенности : 4:2:0
Битовая глубина : 10 бит
Бит/(Пиксели*Кадры) : 0.093
Размер потока : 2,03 Гбайт (78%)
Заголовок : Outlander.s05e01_HEVC_DD5.1_N.B_HD_1080_Rus_NewStudio_Eng
Язык : Russian
Default : Да
Forced : Нет
Цветовой диапазон : Full
Основные цвета : BT.709
Характеристики трансфера : BT.709
Коэффициенты матрицы : BT.709
Аудио #1
Идентификатор : 5
Формат : AC-3
Формат/Информация : Audio Coding 3
Коммерческое название : Dolby Digital
Идентификатор кодека : A_AC3
Продолжительность : 1 ч. 2 м.
Вид битрейта : Постоянный
Битрейт : 640 Кбит/сек
Каналы : 6 каналов
Channel layout : L R C LFE Ls Rs
Частота : 48,0 КГц
Частота кадров : 31,250 кадров/сек (1536 SPF)
Метод сжатия : С потерями
Размер потока : 287 Мбайт (11%)
Заголовок : MVO NewStudio @DD5.1 AC3, 640 Kbps, 48.0 KHz, 6 ch
Язык : Russian
Service kind : Complete Main
Default : Да
Forced : Нет
Аудио #2
Идентификатор : 6
Формат : E-AC-3
Формат/Информация : Enhanced AC-3
Коммерческое название : Dolby Digital Plus
Идентификатор кодека : A_EAC3
Продолжительность : 1 ч. 2 м.
Вид битрейта : Постоянный
Битрейт : 640 Кбит/сек
Каналы : 6 каналов
Channel layout : L R C LFE Ls Rs
Частота : 48,0 КГц
Частота кадров : 31,250 кадров/сек (1536 SPF)
Метод сжатия : С потерями
Задержка видео : 4 мс.
Размер потока : 287 Мбайт (11%)
Заголовок : Original@DD5.1 E-AC3 , 640 Kbps, 48.0 KHz, 6 ch
Язык : English
Service kind : Complete Main
Default : Нет
Forced : Нет
Текст #1
Идентификатор : 2
Формат : UTF-8
Идентификатор кодека : S_TEXT/UTF8
Идентификатор кодека/Информация : UTF-8 Plain Text
Продолжительность : 59 м. 50 с.
Битрейт : 91 бит/сек
Count of elements : 685
Размер потока : 40,2 Кбайт (0%)
Заголовок : Огненный крест-Russian
Язык : Russian
Default : Да
Forced : Нет
Текст #2
Идентификатор : 3
Формат : UTF-8
Идентификатор кодека : S_TEXT/UTF8
Идентификатор кодека/Информация : UTF-8 Plain Text
Продолжительность : 1 ч. 0 м.
Битрейт : 56 бит/сек
Count of elements : 865
Размер потока : 25,2 Кбайт (0%)
Заголовок : The Fiery Cross-Original - SDH
Язык : English
Default : Нет
Forced : Нет
Текст #3
Идентификатор : 4
Формат : UTF-8
Идентификатор кодека : S_TEXT/UTF8
Идентификатор кодека/Информация : UTF-8 Plain Text
Продолжительность : 1 ч. 0 м.
Битрейт : 52 бит/сек
Count of elements : 748
Размер потока : 23,3 Кбайт (0%)
Заголовок : The Fiery Cross-Original
Язык : English
Default : Нет
Forced : Нет
Меню
00:00:00.000 : ru:Глава 01 / ru:Глава 01 / ru:Глава 01 / ru:Глава 01 / ru:Глава 01 / ru:Глава 01
--

Скриншоты

- 5-сезон.--

Как закачать отдельный файл

1. Открыть торрент
2. Снять галки с тех файлов торрента, которые мы не хотим закачивать. Оставляем только на нужных нам файлах (файле).
3. Нажать О.К.
В клиенте utorrent
Инструкция
1) Открыть торрент

2) Снять галки с тех файлов торрента, которые мы не хотим закачивать:
* либо вручную, снимая с каждого файла галку( скрин №1)
* либо, нажав кнопку "Снять метки (Select None)", сняв сразу со всех файлов(скрин №2)
№1

№2

Оставляем только на нужных нам файлах (файле).

3)Нажать О.К
-- -- --Внимание!!! 14.05 2020. РАЗДАЧА ОБНОВЛЕНА. ДОБАВЛЕНА -12- СЕРИЯ ФИНАЛ СЕЗОНА . ОБНОВИТЕ ТОРЕНТ ФАЙЛ. ПРИЯТНОГО ПРОСМОТРА . Поблагодарить:
ЯД: 410017546713876
--Релиз от: Nikolai.Baranov & PIRATIYA -- -- -- --Время раздачи : 24/7---
[Profile]  [PM] 
Display posts:    
Reply to topic

Current time is: 27-Sep 02:10

All times are UTC + 2



You cannot post new topics in this forum
You cannot reply to topics in this forum
You cannot edit your posts in this forum
You cannot delete your posts in this forum
You cannot vote in polls in this forum
You cannot attach files in this forum
You cannot download files in this forum