Сквозь снег / Snowpiercer (Сезон 1-2, Серия 1-20 из 20) (Джеймс Хоуз, Сэм Миллер) [2020 - 2021, Фантастика, боевик, триллер, драма,WEB-DLRip - HEVC 10bit 1080p] [ DUB Пифагор +LostFilm+NewStudio+Eng]+[Subs Rus , ENG]

Reply to topic
 
Author
Message

Враг Нароода ®

Gender: Unknown

Longevity: 7 years

Posts: 496

Reputation: 1 [+] [-]

Враг Нароода · Post 31-May-2020 10:08

[Quote] 

---- Сквозь снег / Snowpiercer - (Сезон 1-2, Серия 1-20 из 20) - Полный Комплект --- --Год выпуска: 2020 - 2021
Выпущено: США, CJ Entertainment, Studio T, Tomorrow Studioss
Жанр: Фантастика, боевик, триллер, драма
Продолжительность: 00:52:00
Сезон:1-2
Серия:1-20
Количество серий в сезоне:20 -- Сезон 1
Озвучка #1: Профессиональный (дублированный) - Пифагор - Русский
Озвучка #2: Профессиональный (многоголосый закадровый) - NewStudio - Русский
Озвучка #3: Профессиональный (многоголосый закадровый) - LostFilm- Русский
Озвучка #4: Профессиональный многоголосый -Английский - Оригинал
Сезон 2
Озвучка #1: Профессиональный (дублированный) - Пифагор - Русский
Озвучка #2: Профессиональный (многоголосый закадровый) - NewStudio - Русский
Озвучка #3: Профессиональный (многоголосый закадровый) - LostFilm- Русский
Озвучка #4: Профессиональный (многоголосый закадровый) - AlexFilm - Русский
Озвучка #5: Профессиональный (многоголосый закадровый) - TVShows - Русский
Озвучка #6: Профессиональный (многоголосый закадровый) - HDRezka Studio - Русский
Озвучка #7: Профессиональный многоголосый -Английский - Оригинал--

Субтитры :


Субтитры (UTF-8):вшитые
#1 - Русские - Russian (включены по умолчанию)
#2 - Русские- Russian (Forced)
#3- Английские - English (SDH)
#4- Английские - English (Original)


Внешние:
#1 - Русские - Russian
#2 - Русские- Russian (Forced)
#3- Английские - English (SDH)
#4- Английские - English (Original)
--Релиз Без Рекламы -- СКАЧАТЬ РАЗДАЧУ --MDB 6.1 --Режиссеры:
Джеймс Хоуз, Сэм Миллер, Хелен Шейвер--В ролях: Дженнифер Коннелли, Давид Диггс, Мики Самнер, Шейла Ванд, Лена Холл, Элисон Райт, Иддо Голдберг, Аарон Гленнэйн, Карин Коновал, Анналиса Бассо-- Мир претерпел техногенную катастрофу, которая привела к новому ледниковому периоду. По трансевразийской магистрали мчится гигантский поезд, заполненный выжившими. В поезде царит строгая классовая иерархия: от правящей элиты в первых вагонах до угнетённых в хвосте.-- --

Тех.Данные:

Сезон 1
Качество : -WEB-DLRip - HEVC 10bit - 1080p.
Формат: MKV
Видео кодек: H265
Видео: 5070Кбит/сек,1920х1080(16.9),в 23.976кадр/сек, HEVC (Main10@L5.1@Main)--Аудио Кодек:AC3
Аудио #1: MVO LostFilm @DD5.1 E-AC3, 768 Kbps, 48.0 KHz, 6 ch- LostFilm -Русский
Аудио #2: DUB-Rus- Пифагор @DD5.1 E-AC3, 640 Kbps, 48.0 KHz, 6 ch- Пифагор -Русский
Аудио #3: MVO NewStudio @DD5.1 AC3, 384 Kbps, 48.0 KHz, 6 ch- NewStudio -Русский
Аудио #4: English @DD5.1 E-AC3 ,768 Kbps, 48.0 KHz, 6 ch - English - Оригинал
Сезон 2
Качество : -WEB-DLRip - HEVC 10bit - 1080p.
Формат: MKV
Видео кодек: H265
Видео: 5064 Кбит/сек,1920х1080(16.9),в 25.000 кадр/сек, HEVC (Main10@L5.2@Main)--Аудио Кодек:AC3
Аудио #1: MVO LostFilm @DD5.1 AC3, 384 Kbps, 48.0 KHz, 6 ch- LostFilm -Русский
Аудио #2: DUB-Rus- Пифагор @DD5.1 E-AC3, 640 Kbps, 48.0 KHz, 6 ch- Пифагор -Русский
Аудио #3: MVO NewStudio @DD5.1 AC3, 384 Kbps, 48.0 KHz, 6 ch- NewStudio -Русский
Аудио #4: MVO AlexFilm @DD5.1 AC3, 384 Kbps, 48.0 KHz, 6 ch- AlexFilm -Русский
Аудио #5: MVO TVShows @DD5.1 AC3, 384 Kbps, 48.0 KHz, 6 ch- TVShows -Русский
Аудио #6: MVO HDRezka Studio @DD5.1 AC3, 384 Kbps, 48.0 KHz, 6 ch- HDRezka Studio -Русский
Аудио #7: English @DD5.1 E-AC3, 640 Kbps, 48.0 KHz, 6 ch- English - Оригинал
--

Доп. информация:

Звуковая дорожка сделана путем наложения чистого голоса озвучивателей на центральный канал оригинальной дорожки. Качество идентично звуковой дорожке.
--

Список эпизодов сезона

Сезон 1

1 сезон 1 серия - Вначале изменилась погода - First, the Weather Changed
1 сезон 2 серия - Готовьтесь к тряске - Prepare to Brace
1 сезон 3 серия - Допуск - это сила - Access Is Power
1 сезон 4 серия - В отсутствие создателя - Without Their Maker
1 сезон 5 серия - Правосудию не хватило билета - Justice Never Boarded
1 сезон 6 серия - Неприятности Приходят Боком - Trouble Comes Sideways
1 сезон 7 серия - - Вселенной всё равно - The Universe Is Indifferent
1 сезон 8 серия - Оборот за оборотом - These Are His Revolutions
1 сезон 9 серия - Поезд требовал крови - The Train Demanded Blood
1 сезон 10 серия - Длиной в 994 вагона - 994 Cars Long

Сезон 2

2 сезон 1 серия - Эра двух двигателей - The Time of Two Engines
2 сезон 2 серия - Затеплится вновь - Smoulder to Life
2 сезон 3 серия - Великая одиссея - A Great Odyssey
2 сезон 4 серия - Единственный обмен - A Single Trade
2 сезон 5 серия - Сохранить надежду - Keep Hope Alive
2 сезон 6 серия - За тысячи километров от Рассекающего - Many Miles from Snowpiercer Snowpiercer
2 сезон 7 серия - Наш ответ на все вопросы - Our Answer for Everything
2 сезон 8 серия - Вечный машинист - The Eternal Engineer
2 сезон 9 серия - Шоу должно продолжаться - The Show Must Go On
2 сезон 10 серия - В белизну - Into the White
--

MediaInfo Сезон 1

Общее
Уникальный идентификатор : 61730222354551446626447883071522293678 (0x2E70CEF160B077CB2D47EF76D74747AE)
Полное имя : F:\Nikolai.Baranov & PIRATIYA\Сквозь снег - Snowpiercer\Snowpiercer_2020_S01_HEVC- 10Bit_Н265_DD5.1_N.B_HD_1080_3xRus_Eng\Snowpiercer_S01E01_HEVC_Н265_DD5.1_N.B_HD_1080_3xRus_Eng.mkv
Формат : Matroska
Версия формата : Version 4
Размер файла : 2,81 Гбайт
Продолжительность : 52 м. 43 с.
Общий поток : 7 633 Кбит/сек
Название фильма : Snowpiercer 2020 S01E01 @ Nikolai.Baranov & PIRATIYA
Дата кодирования : UTC 2020-05-30 10:54:09
Программа кодирования : mkvmerge v46.0.0 ('No Deeper Escape') 64-bit
Библиотека кодирования : libebml v1.3.10 + libmatroska v1.5.2
Видео
Идентификатор : 1
Формат : HEVC
Формат/Информация : High Efficiency Video Coding
Профиль формата : Main 10@L5.1@Main
Идентификатор кодека : V_MPEGH/ISO/HEVC
Продолжительность : 52 м. 43 с.
Битрейт : 5 070 Кбит/сек
Ширина : 1 920 пикселей
Высота : 1 080 пикселей
Соотношение сторон : 16:9
Режим частоты кадров : Постоянный
Частота кадров : 23,976 (24000/1001) кадра/сек
Цветовое пространство : YUV
Субдискретизация насыщенности : 4:2:0
Битовая глубина : 10 бит
Бит/(Пиксели*Кадры) : 0.102
Размер потока : 1,87 Гбайт (66%)
Заголовок : Snowpiercer_S01E01_HEVC_Н265_DD5.1_N.B_HD_1080_3xRus_Eng
Язык : Russian
Default : Да
Forced : Нет
Цветовой диапазон : Full
Основные цвета : BT.709
Характеристики трансфера : BT.709
Коэффициенты матрицы : BT.709
Аудио #1
Идентификатор : 4
Формат : E-AC-3
Формат/Информация : Enhanced AC-3
Коммерческое название : Dolby Digital Plus
Идентификатор кодека : A_EAC3
Продолжительность : 52 м. 43 с.
Вид битрейта : Постоянный
Битрейт : 640 Кбит/сек
Каналы : 6 каналов
Channel layout : L R C LFE Ls Rs
Частота : 48,0 КГц
Частота кадров : 31,250 кадров/сек (1536 SPF)
Метод сжатия : С потерями
Размер потока : 241 Мбайт (8%)
Заголовок : DUB-Rus- Пифагор @DD5.1 E-AC3, 640 Kbps, 48.0 KHz, 6 ch
Язык : Russian
Service kind : Complete Main
Default : Да
Forced : Нет
Аудио #2
Идентификатор : 5
Формат : E-AC-3
Формат/Информация : Enhanced AC-3
Коммерческое название : Dolby Digital Plus
Идентификатор кодека : A_EAC3
Продолжительность : 52 м. 43 с.
Вид битрейта : Постоянный
Битрейт : 768 Кбит/сек
Каналы : 6 каналов
Channel layout : L R C LFE Ls Rs
Частота : 48,0 КГц
Частота кадров : 31,250 кадров/сек (1536 SPF)
Метод сжатия : С потерями
Размер потока : 290 Мбайт (10%)
Заголовок : MVO LostFilm @DD5.1 E-AC3, 768 Kbps, 48.0 KHz, 6 ch
Язык : Russian
Service kind : Complete Main
Default : Нет
Forced : Нет
Аудио #3
Идентификатор : 6
Формат : AC-3
Формат/Информация : Audio Coding 3
Коммерческое название : Dolby Digital
Идентификатор кодека : A_AC3
Продолжительность : 52 м. 43 с.
Вид битрейта : Постоянный
Битрейт : 384 Кбит/сек
Каналы : 6 каналов
Channel layout : L R C LFE Ls Rs
Частота : 48,0 КГц
Частота кадров : 31,250 кадров/сек (1536 SPF)
Метод сжатия : С потерями
Размер потока : 145 Мбайт (5%)
Заголовок : MVO NewStudio @DD5.1 AC3, 384 Kbps, 48.0 KHz, 6 ch
Язык : Russian
Service kind : Complete Main
Default : Нет
Forced : Нет
Аудио #4
Идентификатор : 7
Формат : E-AC-3 JOC
Формат/Информация : Enhanced AC-3 with Joint Object Coding
Коммерческое название : Dolby Digital Plus with Dolby Atmos
Идентификатор кодека : A_EAC3
Продолжительность : 52 м. 43 с.
Вид битрейта : Постоянный
Битрейт : 768 Кбит/сек
Каналы : 6 каналов
Channel layout : L R C LFE Ls Rs
Частота : 48,0 КГц
Частота кадров : 31,250 кадров/сек (1536 SPF)
Метод сжатия : С потерями
Размер потока : 290 Мбайт (10%)
Заголовок : Original@DD5.1 E-AC3 ,768 Kbps, 48.0 KHz, 6 ch
Язык : English
Service kind : Complete Main
Default : Нет
Forced : Нет
Complexity index : 16
Number of dynamic objects : 15
Bed channel count : 1 канал
Bed channel configuration : LFE
Текст #1
Идентификатор : 2
Формат : UTF-8
Идентификатор кодека : S_TEXT/UTF8
Идентификатор кодека/Информация : UTF-8 Plain Text
Продолжительность : 51 м. 22 с.
Битрейт : 0 бит/сек
Count of elements : 10
Размер потока : 340 байт (0%)
Заголовок : Вначале изменилась погода-Russian-Forced
Язык : Russian
Default : Да
Forced : Нет
Текст #2
Идентификатор : 3
Формат : UTF-8
Идентификатор кодека : S_TEXT/UTF8
Идентификатор кодека/Информация : UTF-8 Plain Text
Продолжительность : 51 м. 22 с.
Битрейт : 86 бит/сек
Count of elements : 620
Размер потока : 32,5 Кбайт (0%)
Заголовок : Вначале изменилась погода-Russian
Язык : Russian
Default : Нет
Forced : Нет
Текст #3
Идентификатор : 8
Формат : UTF-8
Идентификатор кодека : S_TEXT/UTF8
Идентификатор кодека/Информация : UTF-8 Plain Text
Продолжительность : 50 м. 50 с.
Битрейт : 68 бит/сек
Count of elements : 732
Размер потока : 25,4 Кбайт (0%)
Заголовок : First, the Weather Changed-Original - SDH
Язык : English
Default : Нет
Forced : Нет
Текст #4
Идентификатор : 9
Формат : UTF-8
Идентификатор кодека : S_TEXT/UTF8
Идентификатор кодека/Информация : UTF-8 Plain Text
Продолжительность : 50 м. 45 с.
Битрейт : 58 бит/сек
Count of elements : 621
Размер потока : 21,8 Кбайт (0%)
Заголовок : First, the Weather Changed-Original
Язык : English
Default : Нет
Forced : Нет
Меню
00:00:00.000 : ru:Глава 01 / ru:Глава 01 / ru:Глава 01 / ru:Глава 01 / ru:Глава 01 / ru:Глава 01 / ru:Глава 01 / ru:Глава 01 / ru:Глава 01
--

MediaInfo Сезон 2

Общее
Уникальный идентификатор : 138768612981605264003580378931316681587 (0x6865DCDA726A453925BE9B54346C6B73)
Полное имя : D:\Сквозь снег - Snowpiercer\Snowpiercer_2020_S01-S02_HEVC- 10Bit_Н265_DD5.1_N.B_HD_1080_3xRus_Eng\S02\2021_Snowpiercer_S02E01_HEVC_Н265_DD5.1_N.B_HD_1080_5xRus_Eng.mkv
Формат : Matroska
Версия формата : Version 4
Размер файла : 2,55 Гбайт
Продолжительность : 47 м. 37 с.
Общий поток : 7 675 Кбит/сек
Название фильма : 2021 Snowpiercer S02E01 @ Nikolai.Baranov & PIRATIYA
Дата кодирования : UTC 2021-01-30 07:58:25
Программа кодирования : mkvmerge v52.0.0 ('Secret For The Mad') 64-bit
Библиотека кодирования : libebml v1.4.1 + libmatroska v1.6.2
Видео
Идентификатор : 1
Формат : HEVC
Формат/Информация : High Efficiency Video Coding
Профиль формата : Main 10@L5.2@Main
Идентификатор кодека : V_MPEGH/ISO/HEVC
Продолжительность : 46 м. 15 с.
Битрейт : 5 064 Кбит/сек
Ширина : 1 920 пикселей
Высота : 1 080 пикселей
Соотношение сторон : 16:9
Режим частоты кадров : Постоянный
Частота кадров : 25,000 кадров/сек
Цветовое пространство : YUV
Субдискретизация насыщенности : 4:2:0
Битовая глубина : 10 бит
Бит/(Пиксели*Кадры) : 0.098
Размер потока : 1,64 Гбайт (64%)
Заголовок : 2021_Snowpiercer_S02E01_HEVC_Н265_DD5.1_N.B_HD_1080_5xRus_Eng
Язык : Russian
Default : Да
Forced : Нет
Цветовой диапазон : Full
Основные цвета : BT.709
Характеристики трансфера : BT.709
Коэффициенты матрицы : BT.709
Аудио #1
Идентификатор : 4
Формат : E-AC-3
Формат/Информация : Enhanced AC-3
Коммерческое название : Dolby Digital Plus
Идентификатор кодека : A_EAC3
Продолжительность : 47 м. 37 с.
Вид битрейта : Постоянный
Битрейт : 640 Кбит/сек
Каналы : 6 каналов
Channel layout : L R C LFE Ls Rs
Частота : 48,0 КГц
Частота кадров : 31,250 кадров/сек (1536 SPF)
Метод сжатия : С потерями
Размер потока : 218 Мбайт (8%)
Заголовок : DUB-Rus- Пифагор @DD5.1 E-AC3, 640 Kbps, 48.0 KHz, 6 ch
Язык : Russian
Service kind : Complete Main
Default : Да
Forced : Нет
Аудио #2
Идентификатор : 5
Формат : AC-3
Формат/Информация : Audio Coding 3
Коммерческое название : Dolby Digital
Идентификатор кодека : A_AC3
Продолжительность : 46 м. 15 с.
Вид битрейта : Постоянный
Битрейт : 384 Кбит/сек
Каналы : 6 каналов
Channel layout : L R C LFE Ls Rs
Частота : 48,0 КГц
Частота кадров : 31,250 кадров/сек (1536 SPF)
Метод сжатия : С потерями
Размер потока : 127 Мбайт (5%)
Заголовок : MVO LostFilm @DD5.1 AC3, 384 Kbps, 48.0 KHz, 6 ch
Язык : Russian
Service kind : Complete Main
Default : Нет
Forced : Нет
Аудио #3
Идентификатор : 6
Формат : AC-3
Формат/Информация : Audio Coding 3
Коммерческое название : Dolby Digital
Идентификатор кодека : A_AC3
Продолжительность : 46 м. 15 с.
Вид битрейта : Постоянный
Битрейт : 384 Кбит/сек
Каналы : 6 каналов
Channel layout : L R C LFE Ls Rs
Частота : 48,0 КГц
Частота кадров : 31,250 кадров/сек (1536 SPF)
Метод сжатия : С потерями
Размер потока : 127 Мбайт (5%)
Заголовок : MVO AlexFilm @DD5.1 AC3, 384 Kbps, 48.0 KHz, 6 ch
Язык : Russian
Service kind : Complete Main
Default : Нет
Forced : Нет
Аудио #4
Идентификатор : 7
Формат : AC-3
Формат/Информация : Audio Coding 3
Коммерческое название : Dolby Digital
Идентификатор кодека : A_AC3
Продолжительность : 46 м. 15 с.
Вид битрейта : Постоянный
Битрейт : 384 Кбит/сек
Каналы : 6 каналов
Channel layout : L R C LFE Ls Rs
Частота : 48,0 КГц
Частота кадров : 31,250 кадров/сек (1536 SPF)
Метод сжатия : С потерями
Размер потока : 127 Мбайт (5%)
Заголовок : MVO TVShows @DD5.1 AC3, 384 Kbps, 48.0 KHz, 6 ch
Язык : Russian
Service kind : Complete Main
Default : Нет
Forced : Нет
Аудио #5
Идентификатор : 8
Формат : AC-3
Формат/Информация : Audio Coding 3
Коммерческое название : Dolby Digital
Идентификатор кодека : A_AC3
Продолжительность : 46 м. 15 с.
Вид битрейта : Постоянный
Битрейт : 384 Кбит/сек
Каналы : 6 каналов
Channel layout : L R C LFE Ls Rs
Частота : 48,0 КГц
Частота кадров : 31,250 кадров/сек (1536 SPF)
Метод сжатия : С потерями
Размер потока : 127 Мбайт (5%)
Заголовок : MVO NewStudio @DD5.1 AC3, 384 Kbps, 48.0 KHz, 6 ch
Язык : Russian
Service kind : Complete Main
Default : Нет
Forced : Нет
Аудио #6
Идентификатор : 9
Формат : E-AC-3
Формат/Информация : Enhanced AC-3
Коммерческое название : Dolby Digital Plus
Идентификатор кодека : A_EAC3
Продолжительность : 46 м. 15 с.
Вид битрейта : Постоянный
Битрейт : 640 Кбит/сек
Каналы : 6 каналов
Channel layout : L R C LFE Ls Rs
Частота : 48,0 КГц
Частота кадров : 31,250 кадров/сек (1536 SPF)
Метод сжатия : С потерями
Размер потока : 212 Мбайт (8%)
Заголовок : English @DD5.1 E-AC3, 640 Kbps, 48.0 KHz, 6 ch
Язык : English
Service kind : Complete Main
Default : Нет
Forced : Нет
Текст #1
Идентификатор : 2
Формат : UTF-8
Идентификатор кодека : S_TEXT/UTF8
Идентификатор кодека/Информация : UTF-8 Plain Text
Продолжительность : 42 м. 5 с.
Битрейт : 0 бит/сек
Count of elements : 8
Размер потока : 305 байт (0%)
Заголовок : Эра двух двигателей-Russian-Forced
Язык : Russian
Default : Да
Forced : Нет
Текст #2
Идентификатор : 3
Формат : UTF-8
Идентификатор кодека : S_TEXT/UTF8
Идентификатор кодека/Информация : UTF-8 Plain Text
Продолжительность : 45 м. 56 с.
Битрейт : 84 бит/сек
Count of elements : 598
Размер потока : 28,5 Кбайт (0%)
Заголовок : Эра двух двигателей-Russian
Язык : Russian
Default : Нет
Forced : Нет
Текст #3
Идентификатор : 10
Формат : UTF-8
Идентификатор кодека : S_TEXT/UTF8
Идентификатор кодека/Информация : UTF-8 Plain Text
Продолжительность : 45 м. 28 с.
Битрейт : 74 бит/сек
Count of elements : 937
Размер потока : 24,9 Кбайт (0%)
Заголовок : The Time of Two Engines-English - SDH
Язык : English
Default : Нет
Forced : Нет
Текст #4
Идентификатор : 11
Формат : UTF-8
Идентификатор кодека : S_TEXT/UTF8
Идентификатор кодека/Информация : UTF-8 Plain Text
Продолжительность : 45 м. 25 с.
Битрейт : 66 бит/сек
Count of elements : 823
Размер потока : 22,3 Кбайт (0%)
Заголовок : The Time of Two Engines-English
Язык : English
Default : Нет
Forced : Нет
Меню
00:00:00.000 : ru:Глава 01 / ru:Глава 01 / ru:Глава 01 / ru:Глава 01 / ru:Глава 01 / ru:Глава 01 / ru:Глава 01 / ru:Глава 01 / ru:Глава 01 / ru:Глава 01
--

Скриншоты

Сезон 1

Сезон 2
-- 1-сезон.-- 2-сезон.--

Как закачать отдельный файл

1. Открыть торрент
2. Снять галки с тех файлов торрента, которые мы не хотим закачивать. Оставляем только на нужных нам файлах (файле).
3. Нажать О.К.
В клиенте utorrent
Инструкция
1) Открыть торрент

2) Снять галки с тех файлов торрента, которые мы не хотим закачивать:
* либо вручную, снимая с каждого файла галку( скрин №1)
* либо, нажав кнопку "Снять метки (Select None)", сняв сразу со всех файлов(скрин №2)
№1

№2

Оставляем только на нужных нам файлах (файле).

3)Нажать О.К
-- -- --Внимание!!! 07 .04. 2021. РАЗДАЧА ОБНОВЛЕНА. ДОБАВЛЕНА - 9-10- СЕРИЯ - ФИНАЛ 2СЕЗОНА. ОБНОВИТЕ ТОРЕНТ ФАЙЛ. ПРИЯТНОГО ПРОСМОТРА . Поблагодарить:
ЯД: 410017546713876
--Релиз от: Nikolai.Baranov & PIRATIYA -- -- -- --Время раздачи : 24/7---
[Profile]  [PM] 
Display posts:    
Reply to topic

Current time is: 27-Sep 03:03

All times are UTC + 2



You cannot post new topics in this forum
You cannot reply to topics in this forum
You cannot edit your posts in this forum
You cannot delete your posts in this forum
You cannot vote in polls in this forum
You cannot attach files in this forum
You cannot download files in this forum