Проклятая / Cursed (Сезон 1 , Серия 1-10 из 10) (Джон Ист, Зетна Фуэнтес) [2020, Фэнтези, драма, приключения, экранизацияа,WEB-DLRip - HEVC 10bit - 720p] [LostFilm+Пифагор+NewStudio+ Eng]+[Subs Rus , ENG]

Reply to topic
 
Author
Message

Враг Нароода ®

Gender: Unknown

Longevity: 7 years

Posts: 495

Reputation: 1 [+] [-]

Враг Нароода · Post 07-Aug-2020 13:25

[Quote] 

---- -- Проклятая / Cursed (Сезон 1 , Серия 1-10 из 10) - Полный Комплект -- --Год выпуска: 2020
Выпущено: США , Netflix
Жанр: Фэнтези, драма, приключения, экранизация
Продолжительность:00:55:00
Сезон:1
Серия:1-10
Количество серий в сезоне: 10--Озвучка #1:Дублированный - Пифагор - Русский
Озвучка 2: Профессиональный многоголосый- LostFilm - Русский
Озвучка 3: Профессиональный многоголосый- NewStudio - Русский
Озвучка #4: Профессиональный многоголосый -Английский - Оригинал--Субтитры (UTF-8): вшитые
#1 - Русские - Russian (включены по умолчанию)
#2 - Русские- Russian (Forced)
#3- Английские - English (SDH)
#4- Английские - English (Original)--Внешние:
#1- Английские - English (SDH)
#2- Английские - English (Original)
#3 - Русские- Russian (Forced)
#4 - Русские- Russian
--Релиз Без Рекламы --MDB 5.2 --Режиссеры:
Джон Ист, Зетна Фуэнтес, Дэниэл Неттхейм, Сара О’Горман --В ролях: Кэтрин Лэнгфорд, Девон Террелл, Густаф Скарсгард, Питер Муллан, Лили Ньюмарк, Шалом Брюн-Фрэнклин, Дэниэл Шарман, Себастьян Арместо, Билли Дженкинс, Зак Холлэнд, Ники Виккери, Катрин Уокер-- После смерти матери Ниму знакомится с молодым наёмником Артуром, занятым поисками загадочного Мерлина, чтобы передать старцу древний меч. Во время странствий с Артуром Ниму превращается в символ храбрости и сопротивления и помогает организовать восстание против красных паладинов и их короля Утера.-- --Качество :WEB-DLRip - HEVC 10bit - 720p
Формат: MKV
Видео кодек: H265
Видео: 1052 Кбит/сек,,1280х640(2.000),в 25.000кадр/сек,HEVC (Main10@L3.1@Main)--Аудио Кодек:Аудио Кодек:AC3
Аудио #1: Dub Пифагор @DD5.1 E-AC3 , 640 Kbps, 48.0 KHz, 6 ch - Dub
Пифагор- Русский

Аудио #2: MVO LostFilm @ DD5.1 AC3, 640 Kbps, 48.0 KHz, 6 ch - LostFilm - Русский
Аудио #3: MVO NewStudio @DD5.1 AC3, 640 Kbps, 48.0 KHz, 6 ch - NewStudio - Русский
Аудио #4: Original@DD5.1 E-AC3 ,768 Kbps, 48.0 KHz, 6 ch - English - Оригинал-

Доп. информация:

Звуковая дорожка сделана путем наложения чистого голоса озвучивателей на центральный канал оригинальной дорожки. Качество идентично звуковой дорожке.
--

Список эпизодов сезона


1 сезон 1 серия - Нимуэ - Nimue
1 сезон 2 серия - Проклятая - Cursed
1 сезон 3 серия - Одна - Alone
1 сезон 4 серия - Красное озеро - The Red Lake
1 сезон 5 серия - Объединение - The Joining
1 сезон 6 серия - Феста и Морей - Festa and Moreii
1 сезон 7 серия - Принеси нам хорошего эля - Bring Us in Good Ale
1 сезон 8 серия - Королева Фейри - The Fey Queen
1 сезон 9 серия - Яды - Poisons
1 сезон 10 серия - Жертва - The Sacrifice
--

MediaInfo

Общее
Уникальный идентификатор : 244677508693984999429196713016058491683 (0xB8132C8FEDCF442A7812777549D0B323)
Полное имя : E:\Baranov\Проклятая - Cursed\Cursed_S01_2020_HEVC- 10Bit_Н265_DD5.1_N.B_HD_720_DUB_ 3x_Rus_Eng\Cursed_S01E01_2020_HEVC_Н265_DD5.1_N.B_HD_720_DUB_ 3x_Rus_Eng.mkv
Формат : Matroska
Версия формата : Version 4
Размер файла : 1,40 Гбайт
Продолжительность : 53 м. 43 с.
Общий поток : 3 743 Кбит/сек
Название фильма : Cursed S01E01 2020 @ Nikolai.Baranov & PIRATIYA
Дата кодирования : UTC 2020-08-03 14:55:06
Программа кодирования : mkvmerge v49.0.0 ('Sick Of Losing Soulmates') 64-bit
Библиотека кодирования : libebml v1.4.0 + libmatroska v1.6.1 / Lavf58.20.100
Видео
Идентификатор : 1
Формат : HEVC
Формат/Информация : High Efficiency Video Coding
Профиль формата : Main 10@L3.1@Main
Идентификатор кодека : V_MPEGH/ISO/HEVC
Продолжительность : 53 м. 42 с.
Битрейт : 1 052 Кбит/сек
Ширина : 1 280 пикселей
Высота : 640 пикселей
Соотношение сторон : 2,000
Режим частоты кадров : Постоянный
Частота кадров : 25,000 кадров/сек
Цветовое пространство : YUV
Субдискретизация насыщенности : 4:2:0
Битовая глубина : 10 бит
Бит/(Пиксели*Кадры) : 0.051
Размер потока : 404 Мбайт (28%)
Заголовок : Cursed_S01E01_2020_HEVC_Н265_DD5.1_N.B_HD_720_DUB_ 3x_Rus_Eng
Язык : Russian
Default : Да
Forced : Нет
Аудио #1
Идентификатор : 4
Формат : E-AC-3
Формат/Информация : Enhanced AC-3
Коммерческое название : Dolby Digital Plus
Идентификатор кодека : A_EAC3
Продолжительность : 53 м. 42 с.
Вид битрейта : Постоянный
Битрейт : 640 Кбит/сек
Каналы : 6 каналов
Channel layout : L R C LFE Ls Rs
Частота : 48,0 КГц
Частота кадров : 31,250 кадров/сек (1536 SPF)
Метод сжатия : С потерями
Задержка видео : -80 мс.
Размер потока : 246 Мбайт (17%)
Заголовок : Dub Rus Пифагор @DD5.1 E-AC3 , 640 Kbps, 48.0 KHz, 6 ch
Язык : Russian
Service kind : Complete Main
Default : Да
Forced : Нет
Аудио #2
Идентификатор : 5
Формат : AC-3
Формат/Информация : Audio Coding 3
Коммерческое название : Dolby Digital
Идентификатор кодека : A_AC3
Продолжительность : 53 м. 43 с.
Вид битрейта : Постоянный
Битрейт : 640 Кбит/сек
Каналы : 6 каналов
Channel layout : L R C LFE Ls Rs
Частота : 48,0 КГц
Частота кадров : 31,250 кадров/сек (1536 SPF)
Метод сжатия : С потерями
Задержка видео : -80 мс.
Размер потока : 246 Мбайт (17%)
Заголовок : MVO LostFilm @DD5.1 AC3, 640 Kbps, 48.0 KHz, 6 ch
Язык : Russian
Service kind : Complete Main
Default : Нет
Forced : Нет
Аудио #3
Идентификатор : 6
Формат : AC-3
Формат/Информация : Audio Coding 3
Коммерческое название : Dolby Digital
Идентификатор кодека : A_AC3
Продолжительность : 53 м. 42 с.
Вид битрейта : Постоянный
Битрейт : 640 Кбит/сек
Каналы : 6 каналов
Channel layout : L R C LFE Ls Rs
Частота : 48,0 КГц
Частота кадров : 31,250 кадров/сек (1536 SPF)
Метод сжатия : С потерями
Задержка видео : -80 мс.
Размер потока : 246 Мбайт (17%)
Заголовок : MVO NewStudio @DD5.1 AC3, 640 Kbps, 48.0 KHz, 6 ch
Язык : Russian
Service kind : Complete Main
Default : Нет
Forced : Нет
Аудио #4
Идентификатор : 7
Формат : E-AC-3 JOC
Формат/Информация : Enhanced AC-3 with Joint Object Coding
Коммерческое название : Dolby Digital Plus with Dolby Atmos
Идентификатор кодека : A_EAC3
Продолжительность : 53 м. 42 с.
Вид битрейта : Постоянный
Битрейт : 768 Кбит/сек
Каналы : 6 каналов
Channel layout : L R C LFE Ls Rs
Частота : 48,0 КГц
Частота кадров : 31,250 кадров/сек (1536 SPF)
Метод сжатия : С потерями
Задержка видео : -80 мс.
Размер потока : 295 Мбайт (21%)
Заголовок : Original@DD5.1 E-AC3 ,768 Kbps, 48.0 KHz, 6 ch
Язык : English
Service kind : Complete Main
Default : Нет
Forced : Нет
Complexity index : 16
Number of dynamic objects : 15
Bed channel count : 1 канал
Bed channel configuration : LFE
Текст #1
Идентификатор : 2
Формат : UTF-8
Идентификатор кодека : S_TEXT/UTF8
Идентификатор кодека/Информация : UTF-8 Plain Text
Продолжительность : 52 м. 5 с.
Битрейт : 1 бит/сек
Count of elements : 10
Размер потока : 402 байт (0%)
Заголовок : Нимуэ-Russian-Forced
Язык : Russian
Default : Да
Forced : Нет
Текст #2
Идентификатор : 3
Формат : UTF-8
Идентификатор кодека : S_TEXT/UTF8
Идентификатор кодека/Информация : UTF-8 Plain Text
Продолжительность : 52 м. 5 с.
Битрейт : 59 бит/сек
Count of elements : 547
Размер потока : 22,6 Кбайт (0%)
Заголовок : Нимуэ-Russian
Язык : Russian
Default : Нет
Forced : Нет
Текст #3
Идентификатор : 8
Формат : UTF-8
Идентификатор кодека : S_TEXT/UTF8
Идентификатор кодека/Информация : UTF-8 Plain Text
Продолжительность : 52 м. 5 с.
Битрейт : 50 бит/сек
Count of elements : 739
Размер потока : 19,2 Кбайт (0%)
Заголовок : Nimue-Original - SDH.srt SDH
Язык : English
Default : Нет
Forced : Нет
Текст #4
Идентификатор : 9
Формат : UTF-8
Идентификатор кодека : S_TEXT/UTF8
Идентификатор кодека/Информация : UTF-8 Plain Text
Продолжительность : 49 м. 15 с.
Битрейт : 41 бит/сек
Count of elements : 562
Размер потока : 14,9 Кбайт (0%)
Заголовок : Nimue-Original
Язык : English
Default : Нет
Forced : Нет
Меню
00:00:00.080 : ru:Глава 01 / ru:Глава 01 / ru:Глава 01 / ru:Глава 01 / ru:Глава 01 / ru:Глава 01 / ru:Глава 01 / ru:Глава 01 / ru:Глава 01
--

Скриншоты

-- -- --

Как закачать отдельный файл

1. Открыть торрент
2. Снять галки с тех файлов торрента, которые мы не хотим закачивать. Оставляем только на нужных нам файлах (файле).
3. Нажать О.К.
В клиенте utorrent
Инструкция
1) Открыть торрент

2) Снять галки с тех файлов торрента, которые мы не хотим закачивать:
* либо вручную, снимая с каждого файла галку( скрин №1)
* либо, нажав кнопку "Снять метки (Select None)", сняв сразу со всех файлов(скрин №2)
№1

№2

Оставляем только на нужных нам файлах (файле).

3)Нажать О.К
-- -- --Внимание!!! 12.08. 2020. РАЗДАЧА ОБНОВЛЕНА. ДОБАВЛЕНА -9-10- СЕРИЯ . Финал Сезона . ОБНОВИТЕ ТОРЕНТ ФАЙЛ. ПРИЯТНОГО ПРОСМОТРА . Поблагодарить:
ЯД: 410017546713876
--Релиз от: Nikolai.Baranov & PIRATIYA -- -- -- --Время раздачи : 24/7---
[Profile]  [PM] 
Display posts:    
Reply to topic

Current time is: 21-Sep 14:02

All times are UTC + 2



You cannot post new topics in this forum
You cannot reply to topics in this forum
You cannot edit your posts in this forum
You cannot delete your posts in this forum
You cannot vote in polls in this forum
You cannot attach files in this forum
You cannot download files in this forum