Звёздный путь: Дискавери / Star Trek: Discovery (Сезон 3 , Серия 1 - 13 из 13 ) (Олатунде Осунсанми, Джонатан Фрейкс) [2020,Фантастика, боевик, приключения,WEB-DLRip - HEVC 10bit - 1080p] [LostFilm +SDI Media + NewStudio+Eng]+[Subs Rus , ENG]

Reply to topic
 
Author
Message

Враг Нароода ®

Gender: Unknown

Longevity: 7 years

Posts: 495

Reputation: 1 [+] [-]

Враг Нароода · Post 19-Oct-2020 16:59

[Quote] 

---- ---- Звёздный путь: Дискавери / Star Trek: Discovery (Сезон 3 , Серия 1 - 13 из 13 ) --- --Год выпуска: 2020
Выпущено: США , CBS Television Studios, Living Dead Guy Productions, Roddenberry Entertainment
Жанр: Фантастика, боевик, приключения, драма
Продолжительность:00:55:00
Сезон:3
Серия:1 - 13
Количество серий в сезоне: 13--Озвучка # 1: Профессиональный многоголосый- LostFilm - Русский
Озвучка # 2: Профессиональный многоголосый- SDI Media - Русский
Озвучка # 3: Профессиональный многоголосый- NewStudio - Русский
Озвучка #4: Профессиональный многоголосый -Английский - Оригинал--

Субтитры :

--Субтитры (UTF-8): вшитые
#1 - Русские - Russian (включены по умолчанию)
#2 - Русские- Russian (Forced)
#3- Английские - English (SDH)--Внешние:
#1- Английские - English (SDH)
#2 - Русские- Russian (Forced)
#3 - Русские- Russian
--Релиз Без Рекламы -- СКАЧАТЬ РАЗДАЧУ --MDB 7.3 --Режиссеры:
Олатунде Осунсанми, Джонатан Фрейкс, Дуглас Арниокоски --В ролях: Сонекуа Мартин-Грин, Даг Джонс, Энтони Рэпп, Мэри Вайсман, Эмили Куттс, Шазад Латиф, Ойин Оладехо, Патрик Квок-Чун, Джулианна Гроссман, Ронни Роу-- 10 лет до начала истории, описанной в оригинальном сериале «Звёздный путь», экипаж корабля USS Discovery NCC-1031 отправляется в путешествие, чтобы изучать глубокий космос и открыть новые миры и цивилизации.-- ----Качество : WEB-DLRip - HEVC 10bit - 1080p
Формат: MKV
Видео кодек: H265
Видео: 4114 Кбит/сек,1920х800 , (2.40.1),в 24.000 кадр/сек, HEVC (Main10@L5.1@Main)--Аудио Кодек:Аудио Кодек:AC3
Аудио #1: MVO LostFilm @DD5.1 AC3, 640 Kbps, 48.0 KHz, 6 ch - LostFilm - Русский
Аудио #2: MVO SDI Media @DD5.1 E-AC3 , 640 Kbps, 48.0 KHz, 6 ch -
SDI Media - Русский
Аудио #3: MVO NewStudio @DD5.1 AC3, 640 Kbps, 48.0 KHz, 6 ch - NewStudio - Русский
Аудио #4: Original @DD5.1, E-AC3 ,640 Kbps, 48.0 KHz, 6 ch - English - Оригинал-

Доп. информация:

Звуковая дорожка сделана путем наложения чистого голоса озвучивателей на центральный канал оригинальной дорожки. Качество идентично звуковой дорожке.
--

Список эпизодов сезона


3 сезон 1 серия - Эта надежда — вы - That Hope Is You
3 сезон 2 серия - Вдали от дома - Far from Home
3 сезон 3 серия - Люди Земли - People of Earth
3 сезон 4 серия - Незабудка - Forget Me Not
3 сезон 5 серия - Расшибиться в лепешку - Die Trying
3 сезон 6 серия - Сборщики утиля - Scavengers
3 сезон 7 серия - Объединение III - Unification III
3 сезон 8 серия - Убежище - The Sanctuary
3 сезон 9 серия - Терра фирма, часть 1 - Terra Firma (1)3 сезон 10 серия -
3 сезон 10 серия - Терра фирма, часть 2 -Terra Firma, Part 2
3 сезон 11 серия - Su'Kal - Su'Kal
3 сезон 12 серия - Приливная волна -There Is a Tide...
3 сезон 13 серия - Эта надежда - ты, часть 2 - That Hope Is You, Part 2
--

MediaInfo

Общее
Уникальный идентификатор : 258004111163423841735736414336298951459 (0xC219C8CAEE10610E6C55D80C5D56A323)
Полное имя : E:\Baranov\Звёздный путь Дискавери - Star Trek Discovery\Star.Trek.Discovery_S03_2020_HEVC- 10Bit_Н265_DD5.1_N.B_HD_1080_2x_Rus_Eng\Star.Trek.Discovery_S03E01_HEVC_Н265_DD5.1_N.B_HD_1080_2xRus_Eng.mkv
Формат : Matroska
Версия формата : Version 4
Размер файла : 2,45 Гбайт
Продолжительность : 52 м. 38 с.
Общий поток : 6 665 Кбит/сек
Название фильма : Star Trek Discovery 2020 S03E01 @ Nikolai.Baranov & PIRATIYA
Дата кодирования : UTC 2020-11-14 09:38:24
Программа кодирования : mkvmerge v51.0.0 ('I Wish') 64-bit
Библиотека кодирования : libebml v1.4.0 + libmatroska v1.6.2
Видео
Идентификатор : 1
Формат : HEVC
Формат/Информация : High Efficiency Video Coding
Профиль формата : Main 10@L5.2@Main
Идентификатор кодека : V_MPEGH/ISO/HEVC
Продолжительность : 52 м. 38 с.
Битрейт : 4 114 Кбит/сек
Ширина : 1 920 пикселей
Высота : 800 пикселей
Соотношение сторон : 2,40:1
Режим частоты кадров : Постоянный
Частота кадров : 24,000 кадра/сек
Цветовое пространство : YUV
Субдискретизация насыщенности : 4:2:0
Битовая глубина : 10 бит
Бит/(Пиксели*Кадры) : 0.112
Размер потока : 1,51 Гбайт (62%)
Заголовок : Star.Trek.Discovery_S03E01_HEVC_Н265_DD5.1_N.B_HD_1080_2xRus_Eng
Язык : Russian
Default : Да
Forced : Нет
Цветовой диапазон : Full
Основные цвета : BT.709
Характеристики трансфера : BT.709
Коэффициенты матрицы : BT.709
Аудио #1
Идентификатор : 4
Формат : AC-3
Формат/Информация : Audio Coding 3
Коммерческое название : Dolby Digital
Идентификатор кодека : A_AC3
Продолжительность : 52 м. 38 с.
Вид битрейта : Постоянный
Битрейт : 640 Кбит/сек
Каналы : 6 каналов
Channel layout : L R C LFE Ls Rs
Частота : 48,0 КГц
Частота кадров : 31,250 кадров/сек (1536 SPF)
Метод сжатия : С потерями
Размер потока : 241 Мбайт (10%)
Заголовок : MVO LostFilm @DD5.1 AC3, 640 Kbps, 48.0 KHz, 6 ch
Язык : Russian
Service kind : Complete Main
Default : Да
Forced : Нет
Аудио #2
Идентификатор : 5
Формат : E-AC-3
Формат/Информация : Enhanced AC-3
Коммерческое название : Dolby Digital Plus
Идентификатор кодека : A_EAC3
Продолжительность : 51 м. 37 с.
Вид битрейта : Постоянный
Битрейт : 640 Кбит/сек
Каналы : 6 каналов
Channel layout : L R C LFE Ls Rs
Частота : 48,0 КГц
Частота кадров : 31,250 кадров/сек (1536 SPF)
Метод сжатия : С потерями
Задержка видео : 17 мс.
Размер потока : 236 Мбайт (9%)
Заголовок : MVO SDI Media @DD5.1 E-AC3 , 640 Kbps, 48.0 KHz, 6 ch
Язык : Russian
Service kind : Complete Main
Default : Нет
Forced : Нет
Аудио #3
Идентификатор : 6
Формат : E-AC-3
Формат/Информация : Enhanced AC-3
Коммерческое название : Dolby Digital Plus
Идентификатор кодека : A_EAC3
Продолжительность : 52 м. 38 с.
Вид битрейта : Постоянный
Битрейт : 640 Кбит/сек
Каналы : 6 каналов
Channel layout : L R C LFE Ls Rs
Частота : 48,0 КГц
Частота кадров : 31,250 кадров/сек (1536 SPF)
Метод сжатия : С потерями
Задержка видео : 2 мс.
Размер потока : 241 Мбайт (10%)
Заголовок : Original@DD5.1 E-AC3 ,640 Kbps, 48.0 KHz, 6 ch
Язык : English
Service kind : Complete Main
Default : Нет
Forced : Нет
Аудио #4
Идентификатор : 9
Формат : AC-3
Формат/Информация : Audio Coding 3
Коммерческое название : Dolby Digital
Идентификатор кодека : A_AC3
Продолжительность : 52 м. 38 с.
Вид битрейта : Постоянный
Битрейт : 640 Кбит/сек
Каналы : 6 каналов
Channel layout : L R C LFE Ls Rs
Частота : 48,0 КГц
Частота кадров : 31,250 кадров/сек (1536 SPF)
Метод сжатия : С потерями
Размер потока : 241 Мбайт (10%)
Заголовок : MVO NewStudio @DD5.1 AC3, 640 Kbps, 48.0 KHz, 6 ch
Язык : Russian
Service kind : Complete Main
Default : Нет
Forced : Нет
Текст #1
Идентификатор : 2
Формат : UTF-8
Идентификатор кодека : S_TEXT/UTF8
Идентификатор кодека/Информация : UTF-8 Plain Text
Продолжительность : 26 м. 56 с.
Битрейт : 3 бит/сек
Count of elements : 19
Размер потока : 673 байт (0%)
Заголовок : Эта надежда — вы-Russian-Forced
Язык : Russian
Default : Да
Forced : Нет
Текст #2
Идентификатор : 3
Формат : UTF-8
Идентификатор кодека : S_TEXT/UTF8
Идентификатор кодека/Информация : UTF-8 Plain Text
Продолжительность : 49 м. 47 с.
Битрейт : 78 бит/сек
Count of elements : 544
Размер потока : 28,5 Кбайт (0%)
Заголовок : Эта надежда — вы-Russian
Язык : Russian
Default : Нет
Forced : Нет
Текст #3
Идентификатор : 7
Формат : UTF-8
Идентификатор кодека : S_TEXT/UTF8
Идентификатор кодека/Информация : UTF-8 Plain Text
Продолжительность : 25 м. 34 с.
Битрейт : 1 бит/сек
Count of elements : 15
Размер потока : 327 байт (0%)
Заголовок : That Hope Is You Part 1-Eng-Forced
Язык : English
Default : Нет
Forced : Нет
Текст #4
Идентификатор : 8
Формат : UTF-8
Идентификатор кодека : S_TEXT/UTF8
Идентификатор кодека/Информация : UTF-8 Plain Text
Продолжительность : 49 м. 52 с.
Битрейт : 52 бит/сек
Count of elements : 701
Размер потока : 19,3 Кбайт (0%)
Заголовок : That Hope Is You Part 1-Original - SDH
Язык : English
Default : Нет
Forced : Нет
Меню
00:00:00.000 : ru:Глава 01 / ru:Глава 01 / ru:Глава 01 / ru:Глава 01 / ru:Глава 01 / ru:Глава 01 / ru:Глава 01 / ru:Глава 01 / ru:Глава 01
--

Скриншоты

----
3 Сезон
--

Как закачать отдельный файл

1. Открыть торрент
2. Снять галки с тех файлов торрента, которые мы не хотим закачивать. Оставляем только на нужных нам файлах (файле).
3. Нажать О.К.
В клиенте utorrent
Инструкция
1) Открыть торрент

2) Снять галки с тех файлов торрента, которые мы не хотим закачивать:
* либо вручную, снимая с каждого файла галку( скрин №1)
* либо, нажав кнопку "Снять метки (Select None)", сняв сразу со всех файлов(скрин №2)
№1

№2

Оставляем только на нужных нам файлах (файле).

3)Нажать О.К
-- -- --Внимание!!! 12.01. 2021. РАЗДАЧА ОБНОВЛЕНА. ДОБАВЛЕНЫ ОТСУТСТВУЮЩИЕ АУДИО ДОРОЖКИ . ФИНАЛ СЕЗОНА .
ОБНОВИТЕ ТОРЕНТ ФАЙЛ. ПРИЯТНОГО ПРОСМОТРА . Поблагодарить:
ЯД: 410017546713876
--Релиз от: Nikolai.Baranov & PIRATIYA -- -- -- --Время раздачи : 24/7---
[Profile]  [PM] 
Display posts:    
Reply to topic

Current time is: 20-Sep 13:54

All times are UTC + 2



You cannot post new topics in this forum
You cannot reply to topics in this forum
You cannot edit your posts in this forum
You cannot delete your posts in this forum
You cannot vote in polls in this forum
You cannot attach files in this forum
You cannot download files in this forum