Ваша честь / Your Honor (Сезон 1 , Серия 1-10 из 10 ) (Эдвард Бергер) [2020, Триллер, драма, криминал, ремейк,WEB-DLRip - HEVC - 1080p] [LostFilm +HDRezka+Novamedia+DniproFilm+ Eng]+[Subs Rus , ENG]

Reply to topic
 
Author
Message

Враг Нароода ®

Gender: Unknown

Longevity: 7 years

Posts: 495

Reputation: 1 [+] [-]

Враг Нароода · Post 11-Dec-2020 16:02

[Quote] 

---- ---- Ваша честь / Your Honor (Сезон 1 , Серия 1-10 из 10 ) - Полный Комплект ----- --Год выпуска: 2020
Выпущено: США , CBS Television Studios, Scripted World
Жанр: Триллер, драма, криминал, ремейк
Продолжительность: 00:57:00
Сезон:1
Серия:1-10
Количество серий в сезоне: 10--Озвучка # 1: Профессиональный многоголосый- LostFilm - Русский
Озвучка # 2: Профессиональный многоголосый- HDRezka Studio - Русский
Озвучка # 3: Профессиональный многоголосый- Novamedia - Русский
Озвучка # 4: Профессиональный многоголосый- DniproFilm - Украинский
Озвучка #5: Профессиональный многоголосый -Английский - Оригинал--

Субтитры :

Субтитры (UTF-8): вшитые
#1 - Русские - Russian ( Full) (включены по умолчанию)
#2 - Английские - English
#3- Английские - English (SDH)--Внешние:
#1 - Русские - Russian ( Full)
#2 - Английские - English
#3- Английские - English (SDH)
-Релиз Без Рекламы -- СКАЧАТЬ РАЗДАЧУ --MDB 8.6 ----Режиссеры:
Эдвард Бергер ----В ролях: Брайан Крэнстон, Хантер Дуэн, Майкл Стулбарг, Хоуп Дэвис, София Блэк-Д’Элиа, Исайя Уитлок мл., Тони Карран, Лилли Кэй, Кармен Эджого, Бенжамин Флорес мл. -- Сын влиятельного и успешного судьи сбивает пешехода и скрывается с места преступления, в результате чего семья оказывается втянутой в опасную игру из лжи и обмана, ведь погибший был сыном местного криминального босса. -- --Качество : WEB-DLRip - HEVC 10bit - 1080p
Формат: MKV
Видео кодек: H265
Видео: 3803 Кбит/сек,1920х800 , (2.40.1),в 25.000 кадр/сек, HEVC (Main10@L5.2@Main)--Аудио Кодек:Аудио Кодек:AC3
Аудио #1: MVO LostFilm @DD5.1 AC3, 640 Kbps, 48.0 KHz, 6 ch - LostFilm - Русский
Аудио #2: MVO HDRezka Studio @DD5.1 E-AC3 , 640 Kbps, 48.0 KHz, 6 ch - HDRezka Studio - Русский
Аудио #3: MVO Novamedia @DD5.1 E-AC3 , 640 Kbps, 48.0 KHz, 6 ch - Novamedia - Русский
Аудио #4: MVO Ukr DniproFilm @DD5.1 AC3, 384 Kbps, 48.0 KHz, 6 ch - - DniproFilm Украинский
Аудио #5: Original@DD5.1 E-AC3 , 640 Kbps, 48.0 KHz, 6 ch - English - Оригинал-

Доп. информация:

Звуковая дорожка сделана путем наложения чистого голоса озвучивателей на центральный канал оригинальной дорожки. Качество идентично звуковой дорожке.
--

Список эпизодов сезона


1 сезон 1 серия- Часть 1 - Part One
1 сезон 2 серия - Часть 2 - Part Two
1 сезон 3 серия - Часть 3 - Part Three
1 сезон 4 серия - Часть 4 - Part Four
1 сезон 5 серия - Часть 5 - Part Five
1 сезон 6 серия - Часть 6 - Part Six
1 сезон 7 серия - Часть 7 - Part Seven
1 сезон 8 серия - Часть 8 - Part Eight
1 сезон 9 серия - Часть 9 - Part Nine
1 сезон 10 серия - Часть 10 - Part Ten
--

MediaInfo

Общее
Уникальный идентификатор : 286979587634285917362655256095641002064 (0xD7E642147F87E950FBE5DE65351F6050)
Полное имя : F:\Nikolai.Baranov & PIRATIYA\Ваша честь - Your Honor US\Your_Honor_US_2020_S01_HEVC- 10Bit_Н265_DD5.1_N.B_HD_1080_3xRus_Eng\Your_Honor_US_2020_S01E01_HEVC_Н265_DD5.1_N.B_HD_1080_3xRus_Eng.mkv
Формат : Matroska
Версия формата : Version 4
Размер файла : 2,60 Гбайт
Продолжительность : 56 м. 55 с.
Общий поток : 6 550 Кбит/сек
Название фильма : Your Honor US 2020 S01E01 @ Nikolai.Baranov & PIRATIYA
Дата кодирования : UTC 2020-12-24 07:35:49
Программа кодирования : mkvmerge v51.0.0 ('I Wish') 64-bit
Библиотека кодирования : libebml v1.4.0 + libmatroska v1.6.2
Видео
Идентификатор : 1
Формат : HEVC
Формат/Информация : High Efficiency Video Coding
Профиль формата : Main 10@L5.2@Main
Идентификатор кодека : V_MPEGH/ISO/HEVC
Продолжительность : 56 м. 55 с.
Битрейт : 3 803 Кбит/сек
Ширина : 1 920 пикселей
Высота : 800 пикселей
Соотношение сторон : 2,40:1
Режим частоты кадров : Постоянный
Частота кадров : 25,000 кадров/сек
Цветовое пространство : YUV
Субдискретизация насыщенности : 4:2:0
Битовая глубина : 10 бит
Бит/(Пиксели*Кадры) : 0.099
Размер потока : 1,51 Гбайт (58%)
Заголовок : Your_Honor_US_2020_S01E01_HEVC_Н265_DD5.1_N.B_HD_1080_3xRus_Eng
Язык : Russian
Default : Да
Forced : Нет
Цветовой диапазон : Full
Основные цвета : BT.709
Характеристики трансфера : BT.709
Коэффициенты матрицы : BT.709
Аудио #1
Идентификатор : 3
Формат : E-AC-3
Формат/Информация : Enhanced AC-3
Коммерческое название : Dolby Digital Plus
Идентификатор кодека : A_EAC3
Продолжительность : 55 м. 45 с.
Вид битрейта : Постоянный
Битрейт : 640 Кбит/сек
Каналы : 6 каналов
Channel layout : L R C LFE Ls Rs
Частота : 48,0 КГц
Частота кадров : 31,250 кадров/сек (1536 SPF)
Метод сжатия : С потерями
Задержка видео : 18 мс.
Размер потока : 179 Мбайт (7%)
Заголовок : MVO HDRezka Studio @DD5.1 E-AC3, 640 Kbps, 48.0 KHz, 6 ch
Язык : Russian
Service kind : Complete Main
Default : Да
Forced : Нет
Аудио #2
Идентификатор : 4
Формат : AC-3
Формат/Информация : Audio Coding 3
Коммерческое название : Dolby Digital
Идентификатор кодека : A_AC3
Продолжительность : 56 м. 55 с.
Вид битрейта : Постоянный
Битрейт : 640 Кбит/сек
Каналы : 6 каналов
Channel layout : L R C LFE Ls Rs
Частота : 48,0 КГц
Частота кадров : 31,250 кадров/сек (1536 SPF)
Метод сжатия : С потерями
Размер потока : 261 Мбайт (10%)
Заголовок : MVO Novamedia @DD5.1 AC3, 640 Kbps, 48.0 KHz, 6 ch
Язык : Russian
Service kind : Complete Main
Default : Нет
Forced : Нет
Аудио #3
Идентификатор : 5
Формат : AC-3
Формат/Информация : Audio Coding 3
Коммерческое название : Dolby Digital
Идентификатор кодека : A_AC3
Продолжительность : 56 м. 55 с.
Вид битрейта : Постоянный
Битрейт : 640 Кбит/сек
Каналы : 6 каналов
Channel layout : L R C LFE Ls Rs
Частота : 48,0 КГц
Частота кадров : 31,250 кадров/сек (1536 SPF)
Метод сжатия : С потерями
Размер потока : 261 Мбайт (10%)
Заголовок : MVO LostFilm @DD5.1 AC3, 640 Kbps, 48.0 KHz, 6 ch
Язык : Russian
Service kind : Complete Main
Default : Нет
Forced : Нет
Аудио #4
Идентификатор : 6
Формат : E-AC-3
Формат/Информация : Enhanced AC-3
Коммерческое название : Dolby Digital Plus
Идентификатор кодека : A_EAC3
Продолжительность : 56 м. 55 с.
Вид битрейта : Постоянный
Битрейт : 640 Кбит/сек
Каналы : 6 каналов
Channel layout : L R C LFE Ls Rs
Частота : 48,0 КГц
Частота кадров : 31,250 кадров/сек (1536 SPF)
Метод сжатия : С потерями
Задержка видео : 18 мс.
Размер потока : 261 Мбайт (10%)
Заголовок : Original@DD5.1 E-AC3 , 640 Kbps, 48.0 KHz, 6 ch
Язык : English
Service kind : Complete Main
Default : Нет
Forced : Нет
Аудио #5
Идентификатор : 9
Формат : AC-3
Формат/Информация : Audio Coding 3
Коммерческое название : Dolby Digital
Идентификатор кодека : A_AC3
Продолжительность : 56 м. 55 с.
Вид битрейта : Постоянный
Битрейт : 384 Кбит/сек
Каналы : 6 каналов
Channel layout : L R C LFE Ls Rs
Частота : 48,0 КГц
Частота кадров : 31,250 кадров/сек (1536 SPF)
Метод сжатия : С потерями
Размер потока : 156 Мбайт (6%)
Заголовок : MVO Ukr DniproFilm @DD5.1 AC3, 384 Kbps, 48.0 KHz, 6 ch
Язык : Ukrainian
Service kind : Complete Main
Default : Нет
Forced : Нет
Текст #1
Идентификатор : 2
Формат : UTF-8
Идентификатор кодека : S_TEXT/UTF8
Идентификатор кодека/Информация : UTF-8 Plain Text
Продолжительность : 52 м. 26 с.
Битрейт : 43 бит/сек
Count of elements : 384
Размер потока : 16,6 Кбайт (0%)
Заголовок : Часть 1-Russian
Язык : Russian
Default : Да
Forced : Нет
Текст #2
Идентификатор : 7
Формат : UTF-8
Идентификатор кодека : S_TEXT/UTF8
Идентификатор кодека/Информация : UTF-8 Plain Text
Продолжительность : 52 м. 44 с.
Битрейт : 36 бит/сек
Count of elements : 563
Размер потока : 14,2 Кбайт (0%)
Заголовок : Part One-Original - SDH
Язык : English
Default : Нет
Forced : Нет
Текст #3
Идентификатор : 8
Формат : UTF-8
Идентификатор кодека : S_TEXT/UTF8
Идентификатор кодека/Информация : UTF-8 Plain Text
Продолжительность : 52 м. 28 с.
Битрейт : 29 бит/сек
Count of elements : 444
Размер потока : 11,5 Кбайт (0%)
Заголовок : Part One-Original
Язык : English
Default : Нет
Forced : Нет
Меню
00:00:00.000 : ru:Глава 01 / ru:Глава 01 / ru:Глава 01 / ru:Глава 01 / ru:Глава 01 / ru:Глава 01 / ru:Глава 01 / ru:Глава 01 / ru:Глава 01
--

Скриншоты

----
1 Сезон
--

Как закачать отдельный файл

1. Открыть торрент
2. Снять галки с тех файлов торрента, которые мы не хотим закачивать. Оставляем только на нужных нам файлах (файле).
3. Нажать О.К.
В клиенте utorrent
Инструкция
1) Открыть торрент

2) Снять галки с тех файлов торрента, которые мы не хотим закачивать:
* либо вручную, снимая с каждого файла галку( скрин №1)
* либо, нажав кнопку "Снять метки (Select None)", сняв сразу со всех файлов(скрин №2)
№1

№2

Оставляем только на нужных нам файлах (файле).

3)Нажать О.К
-- -- --Внимание!!! 17.02. 2021. РАЗДАЧА ОБНОВЛЕНА. ДОБАВЛЕНА -10 - СЕРИЯ + ЗВУКОВАЯ ДОРОЖКА DniproFilm Украинский . ФИНАЛ СЕЗОНА . ОБНОВИТЕ ТОРЕНТ ФАЙЛ. ПРИЯТНОГО ПРОСМОТРА . Поблагодарить:
ЯД: 410017546713876
--Релиз от: Nikolai.Baranov & PIRATIYA -- -- -- --Время раздачи : 24/7---
[Profile]  [PM] 
Display posts:    
Reply to topic

Current time is: 21-Sep 12:24

All times are UTC + 2



You cannot post new topics in this forum
You cannot reply to topics in this forum
You cannot edit your posts in this forum
You cannot delete your posts in this forum
You cannot vote in polls in this forum
You cannot attach files in this forum
You cannot download files in this forum