Противостояние / The Stand (Сезон 1 , Серия 1 - 9 из 9) (Джош Бун, Бриджет Палард) [2020,Ужасы, фантастика, фэнтези, триллер, драма, приключения, экранизация,WEB-DLRip - HEVC 10bit - 1080p] [LostFilm +HDRezka + Kravec +TVShows+ Eng]+[Subs Rus , ENG]

Reply to topic
 
Author
Message

Враг Нароода ®

Gender: Unknown

Longevity: 7 years

Posts: 495

Reputation: 1 [+] [-]

Враг Нароода · Post 28-Dec-2020 19:18

[Quote] 

---- ---- Противостояние / The Stand (Сезон 1 , Серия 1- 9 из 9) - Полный Комплект ----Год выпуска: 2020
Выпущено: США , CBS Television Studios, Mosaic Media Group, Vertigo Entertainment
Жанр: Ужасы, фантастика, фэнтези, триллер, драма, приключения, экранизация
Продолжительность: 00:59:00
Сезон:1
Серия:1- 9
Количество серий в сезоне: 9--Озвучка #1:Профессиональный многоголосый LostFilm - Русский
Озвучка # 2: Профессиональный многоголосый- HDRezka Studio - Русский
Озвучка # 3: Профессиональный многоголосый- Kravec -По умолчанию - Русский
Озвучка # 4: Профессиональный многоголосый- TVShows - Русский
Озвучка # 5: Профессиональный многоголосый -Английский - Оригинал--

Субтитры :


Субтитры (UTF-8):вшитые
#1 - Русские - Russian (включены по умолчанию)
#2 - Русские- Russian (Forced)
#3- Английские - English (SDH)
#4- Английские - English (Original)


Внешние:
#1 - Русские - Russian
#2 - Русские- Russian (Forced)
#3- Английские - English (SDH)
#4- Английские - English (Original)
--Релиз Без Рекламы - Ненормативная лексика - --MDB 5.4 --Режиссеры:
Джош Бун, Бриджет Паларди, Даниэль Круди --В ролях: Джеймс Марсден, Джован Адепо, Вупи Голдберг, Эмбер Хёрд, Брэд Уильям Хенке, Кэтрин МакНамара, Александр Скарсгард, Дэниел Сунджата, Оуэн Тиг, Нат Вулф -- На секретной базе происходит утечка смертельного вируса. Весь штат лаборатории погибает на рабочих местах. Чудом выживает один из охранников вместе с женой и ребенком. Однако его освобождение с базы стоит жизни тысячам людей — начинается эпидемия. Немногие уцелевшие разделились на два лагеря: одни остались верны идеалам прошлого, другие примкнули к загадочному Черному Человеку, который стремится к мировому господству..-- --Качество : WEB-DLRip - HEVC 10bit - 1080p
Формат: MKV
Видео кодек: H265
Видео: 1179 Кбит/сек,1920х808 , (2.40.1),в 24.000 кадр/сек, HEVC (Main10@L4@Main)--Аудио Кодек:Аудио Кодек:AC3
Аудио #1: MVO LostFilm @DD5.1 AC3, 384 Kbps, 48.0 KHz, 6 ch- LostFilm - Русский
Аудио # 2: MVO HDRezka Studio @DD5.1 AC3, 384 Kbps, 48.0 KHz, 6 ch- HDRezka Studio - Русский
Аудио #3: MVO Kravec @DD5.1 AC3, 384 Kbps, 48.0 KHz, 6 ch - Kravec - Русский
Аудио #4: MVO TVShows @DD5.1 AC3, 384 Kbps, 48.0 KHz, 6 ch - TVShows - Русский
Аудио #5: Original @DD5.1 AC3, 384 Kbps, 48.0 KHz, 6 ch - English - Оригинал-

Доп. информация:

Звуковая дорожка сделана путем наложения чистого голоса озвучивателей на центральный канал оригинальной дорожки. Качество идентично звуковой дорожке.
--

Список эпизодов сезона


1 сезон 1 серия - Конец - The End
1 сезон 2 серия - Карманный спаситель - Pocket Savior
1 сезон 3 серия - Чистые страницы - Blank Pages
1 сезон 4 серия - Дом мертвых - The House of the Dead
1 сезон 5 серия - Страх и ненависть в Новом Вегасе - Fear and Loathing in New Vegas
1 сезон 6 серия - Бдение - The Vigil
1 сезон 7 серия - Прогулка - The Walk
1 сезон 8 серия - Противостояние - The Stand
1 сезон 9 серия - Круг замыкается - The Circle Closes
--

MediaInfo

Общее
Уникальный идентификатор : 264786286406587229068859106193078889657 (0xC733FBD95B623FD0EF27C0A01D7E2CB9)
Полное имя : F:\Противостояние - The Stand\The.Stand.2020.S01_HEVC- 10Bit_Н265_DD5.1_N.B_HD_1080_ 4xRus_Eng\The.Stand.2020.S01E02_HEVC_Н265_DD5.1_N.B_HD_1080_4xRus_Eng.mkv
Формат : Matroska
Версия формата : Version 4
Размер файла : 1,41 Гбайт
Продолжительность : 1 ч. 5 м.
Общий поток : 3 103 Кбит/сек
Название фильма : The Stand 2020 S01E02 @ Nikolai.Baranov & PIRATIYA
Дата кодирования : UTC 2020-12-28 09:56:30
Программа кодирования : mkvmerge v51.0.0 ('I Wish') 64-bit
Библиотека кодирования : libebml v1.4.0 + libmatroska v1.6.2
Видео
Идентификатор : 1
Формат : HEVC
Формат/Информация : High Efficiency Video Coding
Профиль формата : Main 10@L4@Main
Идентификатор кодека : V_MPEGH/ISO/HEVC
Продолжительность : 1 ч. 5 м.
Битрейт : 1 179 Кбит/сек
Ширина : 1 920 пикселей
Высота : 808 пикселей
Соотношение сторон : 2,40:1
Режим частоты кадров : Постоянный
Частота кадров : 24,000 кадра/сек
Цветовое пространство : YUV
Субдискретизация насыщенности : 4:2:0
Битовая глубина : 10 бит
Бит/(Пиксели*Кадры) : 0.032
Размер потока : 550 Мбайт (38%)
Заголовок : The.Stand.2020.S01E02_HEVC_Н265_DD5.1_N.B_HD_1080_4xRus_Eng
Язык : Russian
Default : Да
Forced : Нет
Цветовой диапазон : Limited
Основные цвета : BT.709
Характеристики трансфера : BT.709
Коэффициенты матрицы : BT.709
Аудио #1
Идентификатор : 4
Формат : AC-3
Формат/Информация : Audio Coding 3
Коммерческое название : Dolby Digital
Идентификатор кодека : A_AC3
Продолжительность : 1 ч. 5 м.
Вид битрейта : Постоянный
Битрейт : 384 Кбит/сек
Каналы : 6 каналов
Channel layout : L R C LFE Ls Rs
Частота : 48,0 КГц
Частота кадров : 31,250 кадров/сек (1536 SPF)
Метод сжатия : С потерями
Размер потока : 179 Мбайт (12%)
Заголовок : MVO HDRezka Studio @DD5.1 AC3, 384 Kbps, 48.0 KHz, 6 ch
Язык : Russian
Service kind : Complete Main
Default : Нет
Forced : Нет
Аудио #2
Идентификатор : 5
Формат : AC-3
Формат/Информация : Audio Coding 3
Коммерческое название : Dolby Digital
Идентификатор кодека : A_AC3
Продолжительность : 1 ч. 5 м.
Вид битрейта : Постоянный
Битрейт : 384 Кбит/сек
Каналы : 6 каналов
Channel layout : L R C LFE Ls Rs
Частота : 48,0 КГц
Частота кадров : 31,250 кадров/сек (1536 SPF)
Метод сжатия : С потерями
Размер потока : 179 Мбайт (12%)
Заголовок : MVO Kravec @DD5.1 AC3, 384 Kbps, 48.0 KHz, 6 ch
Язык : Russian
Service kind : Complete Main
Default : Да
Forced : Нет
Аудио #3
Идентификатор : 6
Формат : AC-3
Формат/Информация : Audio Coding 3
Коммерческое название : Dolby Digital
Идентификатор кодека : A_AC3
Продолжительность : 1 ч. 5 м.
Вид битрейта : Постоянный
Битрейт : 384 Кбит/сек
Каналы : 6 каналов
Channel layout : L R C LFE Ls Rs
Частота : 48,0 КГц
Частота кадров : 31,250 кадров/сек (1536 SPF)
Метод сжатия : С потерями
Размер потока : 179 Мбайт (12%)
Заголовок : MVO LostFilm @DD5.1 AC3, 384 Kbps, 48.0 KHz, 6 ch
Язык : Russian
Service kind : Complete Main
Default : Нет
Forced : Нет
Аудио #4
Идентификатор : 7
Формат : AC-3
Формат/Информация : Audio Coding 3
Коммерческое название : Dolby Digital
Идентификатор кодека : A_AC3
Продолжительность : 1 ч. 5 м.
Вид битрейта : Постоянный
Битрейт : 384 Кбит/сек
Каналы : 6 каналов
Channel layout : L R C LFE Ls Rs
Частота : 48,0 КГц
Частота кадров : 31,250 кадров/сек (1536 SPF)
Метод сжатия : С потерями
Размер потока : 179 Мбайт (12%)
Заголовок : MVO TVShows @DD5.1 AC3, 384 Kbps, 48.0 KHz, 6 ch
Язык : Russian
Service kind : Complete Main
Default : Нет
Forced : Нет
Аудио #5
Идентификатор : 8
Формат : AC-3
Формат/Информация : Audio Coding 3
Коммерческое название : Dolby Digital
Идентификатор кодека : A_AC3
Продолжительность : 1 ч. 5 м.
Вид битрейта : Постоянный
Битрейт : 384 Кбит/сек
Каналы : 6 каналов
Channel layout : L R C LFE Ls Rs
Частота : 48,0 КГц
Частота кадров : 31,250 кадров/сек (1536 SPF)
Метод сжатия : С потерями
Размер потока : 179 Мбайт (12%)
Заголовок : Original@DD5.1 AC3 , 384 Kbps, 48.0 KHz, 6 ch
Язык : English
Service kind : Complete Main
Default : Нет
Forced : Нет
Текст #1
Идентификатор : 2
Формат : UTF-8
Идентификатор кодека : S_TEXT/UTF8
Идентификатор кодека/Информация : UTF-8 Plain Text
Продолжительность : 1 ч. 2 м.
Битрейт : 2 бит/сек
Count of elements : 22
Размер потока : 1,12 Кбайт (0%)
Заголовок : The.Stand.2020.s01e02 -Карманный спаситель-Russian-Forced
Язык : Russian
Default : Да
Forced : Нет
Текст #2
Идентификатор : 3
Формат : UTF-8
Идентификатор кодека : S_TEXT/UTF8
Идентификатор кодека/Информация : UTF-8 Plain Text
Продолжительность : 1 ч. 2 м.
Битрейт : 77 бит/сек
Count of elements : 790
Размер потока : 35,5 Кбайт (0%)
Заголовок : Карманный спаситель-Russian
Язык : Russian
Default : Нет
Forced : Нет
Текст #3
Идентификатор : 9
Формат : UTF-8
Идентификатор кодека : S_TEXT/UTF8
Идентификатор кодека/Информация : UTF-8 Plain Text
Продолжительность : 1 ч. 4 м.
Битрейт : 63 бит/сек
Count of elements : 1039
Размер потока : 30,2 Кбайт (0%)
Заголовок : Pocket Savior-Original - SDH
Язык : English
Default : Нет
Forced : Нет
Текст #4
Идентификатор : 10
Формат : UTF-8
Идентификатор кодека : S_TEXT/UTF8
Идентификатор кодека/Информация : UTF-8 Plain Text
Продолжительность : 1 ч. 4 м.
Битрейт : 47 бит/сек
Count of elements : 781
Размер потока : 22,6 Кбайт (0%)
Заголовок : Pocket Savior-Original
Язык : English
Default : Нет
Forced : Нет
Меню
00:00:00.000 : ru:Глава 01 / ru:Глава 01 / ru:Глава 01 / ru:Глава 01 / ru:Глава 01 / ru:Глава 01 / ru:Глава 01 / ru:Глава 01 / ru:Глава 01 / ru:Глава 01
--

Скриншоты

----
1 Сезон
--

Как закачать отдельный файл

1. Открыть торрент
2. Снять галки с тех файлов торрента, которые мы не хотим закачивать. Оставляем только на нужных нам файлах (файле).
3. Нажать О.К.
В клиенте utorrent
Инструкция
1) Открыть торрент

2) Снять галки с тех файлов торрента, которые мы не хотим закачивать:
* либо вручную, снимая с каждого файла галку( скрин №1)
* либо, нажав кнопку "Снять метки (Select None)", сняв сразу со всех файлов(скрин №2)
№1

№2

Оставляем только на нужных нам файлах (файле).

3)Нажать О.К
-- -- --Внимание!!! 14.02. 2021. РАЗДАЧА ОБНОВЛЕНА. ДОБАВЛЕНА - 9- СЕРИЯ . ФИНАЛ СЕЗОНА . ОБНОВИТЕ ТОРЕНТ ФАЙЛ. ПРИЯТНОГО ПРОСМОТРА . Поблагодарить:
ЯД: 410017546713876
--Релиз от: Nikolai.Baranov & PIRATIYA -- -- -- --Время раздачи : 24/7---
[Profile]  [PM] 
Display posts:    
Reply to topic

Current time is: 21-Sep 13:14

All times are UTC + 2



You cannot post new topics in this forum
You cannot reply to topics in this forum
You cannot edit your posts in this forum
You cannot delete your posts in this forum
You cannot vote in polls in this forum
You cannot attach files in this forum
You cannot download files in this forum