Люпен / Lupin (Сезон 1-2 , Серия 1 - 10 из 10) (Марсела Саид, Людовик Бернард) [22021, Боевик, драма, криминал, детектив,WEB-DLRip - HEVC 10bit - 1080p] [DUB- Пифагор+LostFilm +HDRezka +Jaskier+Fr+ Eng]+[Subs Rus , Fr ,ENG]

Reply to topic
 
Author
Message

Враг Нароода ®

Gender: Unknown

Longevity: 7 years

Posts: 495

Reputation: 1 [+] [-]

Враг Нароода · Post 23-Jan-2021 16:57

[Quote] 

---- ---- Люпен / Lupin (Сезон 1-2 , Серия 1- 10 из 10) - Полный Комплект -- --Год выпуска: 2021
Выпущено: США, Франция, Gaumont Television, NetFlix
Жанр: Боевик, драма, криминал, детектив
Продолжительность: 00:59:00
Сезон:1-2
Серия:1- 10
Количество серий в сезоне: 10--Озвучка # 1: Профессиональный Дубляж Пифагор по заказу Netflix- -Пифагор - Русский
Озвучка #2:Профессиональный многоголосый LostFilm - Русский
Озвучка # 3: Профессиональный многоголосый- HDRezka Studio - Русский
Озвучка # 4: Профессиональный многоголосый- Jaskier - Русский
Озвучка # 5: Профессиональный многоголосый- TVShows - Русский
Озвучка # 6: Профессиональный многоголосый-ЫФФранцузский - French
Озвучка # 7: Профессиональный многоголосый -Английский - English --

Субтитры :


Субтитры (UTF-8):вшитые
#1 - Русские - Russian (включены по умолчанию)
#2 - Русские- Russian (Forced)
#3- Английские - English (SDH)
#4- Английские - English (Original)
#5- Французские - -French (SDH)


Внешние:
#1 - Русские - Russian
#2 - Русские- Russian (Forced)
#3- Английские - English (SDH)
#4- Английские - English (Original)
#5- Французские - -French (SDH)
--Релиз Без Рекламы --MDB 7.8 --Режиссеры:
Марсела Саид, Людовик Бернард, Луи Летерье --В ролях: Омар Си, Винсент Лондез, Ширин Бутелла, Николь Гарсиа, Антуан Гуи, Клотильда Эм, Эрве Пьер, Людивин Санье, Кристиан Газио, Софьян Герраб-- В центре истории оказывается Ассан Диопа, чья жизнь перевернулась с ног на голову, когда умер его отец, обвинённый в преступлении, которого не совершал. Спустя четверть века Ассан, вдохновлённый романами про знаменитого джентльмена-грабителя Арсена Люпена, планирует отомстить за своего отца. И частью его плана становится похищение музейного сокровища — бесценного колье Марии-Антуанетты.-- --Качество : WEB-DLRip - HEVC 10bit - 1080p
Формат: MKV
Видео кодек: H265
Видео: 2630 Кбит/сек,1920х960 , (2.000),в 25.000 кадр/сек, HEVC (Main10@L5.2@Main)--Аудио Кодек:Аудио Кодек:AC3
Аудио #1: Пифагор @DD5.1 E-AC3, 640 Kbps, 48.0 KHz, 6 ch- Пифагор - Русский
Аудио #2: MVO LostFilm @DD5.1 AC3, 384 Kbps, 48.0 KHz, 6 ch- LostFilm - Русский
Аудио # 3: MVO HDRezka Studio @DD5.1 AC3, 384 Kbps, 48.0 KHz, 6 ch- HDRezka Studio - Русский
Аудио #4: MVO Jaskier @DD5.1 AC3, 384 Kbps, 48.0 KHz, 6 ch - Jaskier - Русский
Аудио #5: MVO TVShows @DD5.1 AC3, 384 Kbps, 48.0 KHz, 6 ch - TVShows - Русский
Аудио #6: French @DD5.1 AC3, 640 Kbps, 48.0 KHz, 6 ch - French - французский
Аудио #7 English @DD5.1 AC3, 640 Kbps, 48.0 KHz, 6 ch - English - Английский-- --

Доп. информация:

Звуковая дорожка сделана путем наложения чистого голоса озвучивателей на центральный канал оригинальной дорожки. Качество идентично звуковой дорожке.
--

Список эпизодов сезона


1 сезон 1 серия - Глава 1 - Chapter 1
1 сезон 2 серия - Глава 2 -Chapter 2
1 сезон 3 серия - Глава 3 - Chapter 3
1 сезон 4 серия - Глава 4 - Chapter 4
1 сезон 5 серия - Глава 5 - Chapter 5
2 сезон 1 серия - Глава 6 - Chapter 6
2 сезон 2 серия - Глава 7 - Chapter 7
2 сезон 3 серия - Глава 8 - Chapter 8
2 сезон 4 серия - Глава 9 - Chapter 9
2 сезон 5 серия - Глава 10 - Chapter 10
--

MediaInfo

Общее
Уникальный идентификатор : 158445008691583253507072014724042912357 (0x7733660FBF41A12FDD881C7FF358F265)
Полное имя : D:\Люпен - Lupin\2021_Lupin_S01-S02_HEVC- 10Bit_Н265_DD5.1_N.B_HD_1080_DUB_3xRus_Fr_Eng\2021_Lupin_S01E01_HEVC- 10Bit_DD5.1_N.B_HD_1080_3xRus_Fr_Eng.mkv
Формат : Matroska
Версия формата : Version 4
Размер файла : 1,99 Гбайт
Продолжительность : 48 м. 8 с.
Общий поток : 5 907 Кбит/сек
Название фильма : 2021 Lupin S01E01 @ Nikolai.Baranov & PIRATIYA
Дата кодирования : UTC 2021-06-17 14:58:40
Программа кодирования : mkvmerge v58.0.0 ('Supper's Ready') 64-bit
Библиотека кодирования : libebml v1.4.2 + libmatroska v1.6.4
Видео
Идентификатор : 1
Формат : HEVC
Формат/Информация : High Efficiency Video Coding
Профиль формата : Main 10@L5.2@Main
Идентификатор кодека : V_MPEGH/ISO/HEVC
Продолжительность : 46 м. 19 с.
Битрейт : 2 630 Кбит/сек
Ширина : 1 920 пикселей
Высота : 960 пикселей
Соотношение сторон : 2,000
Режим частоты кадров : Постоянный
Частота кадров : 25,000 кадров/сек
Цветовое пространство : YUV
Субдискретизация насыщенности : 4:2:0
Битовая глубина : 10 бит
Бит/(Пиксели*Кадры) : 0.057
Размер потока : 872 Мбайт (43%)
Заголовок : 2021_Lupin_S01E01_HEVC- 10Bit_DD5.1_N.B_HD_1080_3xRus_Fr_Eng
Язык : Russian
Default : Да
Forced : Нет
Цветовой диапазон : Full
Основные цвета : BT.709
Характеристики трансфера : BT.709
Коэффициенты матрицы : BT.709
Аудио #1
Идентификатор : 4
Формат : AC-3
Формат/Информация : Audio Coding 3
Коммерческое название : Dolby Digital
Идентификатор кодека : A_AC3
Продолжительность : 46 м. 19 с.
Вид битрейта : Постоянный
Битрейт : 384 Кбит/сек
Каналы : 6 каналов
Channel layout : L R C LFE Ls Rs
Частота : 48,0 КГц
Частота кадров : 31,250 кадров/сек (1536 SPF)
Метод сжатия : С потерями
Размер потока : 127 Мбайт (6%)
Заголовок : MVO HDRezka Studio @DD5.1 AC3, 384 Kbps, 48.0 KHz, 6 ch
Язык : Russian
Service kind : Complete Main
Default : Да
Forced : Нет
Аудио #2
Идентификатор : 5
Формат : AC-3
Формат/Информация : Audio Coding 3
Коммерческое название : Dolby Digital
Идентификатор кодека : A_AC3
Продолжительность : 47 м. 14 с.
Вид битрейта : Постоянный
Битрейт : 384 Кбит/сек
Каналы : 6 каналов
Channel layout : L R C LFE Ls Rs
Частота : 48,0 КГц
Частота кадров : 31,250 кадров/сек (1536 SPF)
Метод сжатия : С потерями
Размер потока : 130 Мбайт (6%)
Заголовок : MVO LostFilm @DD5.1 AC3, 384 Kbps, 48.0 KHz, 6 ch
Язык : Russian
Service kind : Complete Main
Default : Нет
Forced : Нет
Аудио #3
Идентификатор : 6
Формат : AC-3
Формат/Информация : Audio Coding 3
Коммерческое название : Dolby Digital
Идентификатор кодека : A_AC3
Продолжительность : 47 м. 14 с.
Вид битрейта : Постоянный
Битрейт : 384 Кбит/сек
Каналы : 6 каналов
Channel layout : L R C LFE Ls Rs
Частота : 48,0 КГц
Частота кадров : 31,250 кадров/сек (1536 SPF)
Метод сжатия : С потерями
Размер потока : 130 Мбайт (6%)
Заголовок : MVO Jaskier @DD5.1 AC3, 384 Kbps, 48.0 KHz, 6 ch
Язык : Russian
Service kind : Complete Main
Default : Нет
Forced : Нет
Аудио #4
Идентификатор : 7
Формат : AC-3
Формат/Информация : Audio Coding 3
Коммерческое название : Dolby Digital
Идентификатор кодека : A_AC3
Продолжительность : 46 м. 19 с.
Вид битрейта : Постоянный
Битрейт : 640 Кбит/сек
Каналы : 6 каналов
Channel layout : L R C LFE Ls Rs
Частота : 48,0 КГц
Частота кадров : 31,250 кадров/сек (1536 SPF)
Метод сжатия : С потерями
Размер потока : 212 Мбайт (10%)
Заголовок : French @DD5.1 AC3, 640 Kbps, 48.0 KHz, 6 ch
Язык : French
Service kind : Complete Main
Default : Нет
Forced : Нет
Аудио #5
Идентификатор : 9
Формат : AC-3
Формат/Информация : Audio Coding 3
Коммерческое название : Dolby Digital
Идентификатор кодека : A_AC3
Продолжительность : 46 м. 19 с.
Вид битрейта : Постоянный
Битрейт : 640 Кбит/сек
Каналы : 6 каналов
Channel layout : L R C LFE Ls Rs
Частота : 48,0 КГц
Частота кадров : 31,250 кадров/сек (1536 SPF)
Метод сжатия : С потерями
Размер потока : 212 Мбайт (10%)
Заголовок : English @DD5.1 AC3, 640 Kbps, 48.0 KHz, 6 ch
Язык : English
Service kind : Complete Main
Default : Нет
Forced : Нет
Аудио #6
Идентификатор : 12
Формат : AC-3
Формат/Информация : Audio Coding 3
Коммерческое название : Dolby Digital
Идентификатор кодека : A_AC3
Продолжительность : 47 м. 14 с.
Вид битрейта : Постоянный
Битрейт : 384 Кбит/сек
Каналы : 6 каналов
Channel layout : L R C LFE Ls Rs
Частота : 48,0 КГц
Частота кадров : 31,250 кадров/сек (1536 SPF)
Метод сжатия : С потерями
Размер потока : 130 Мбайт (6%)
Заголовок : MVO TVShows @DD5.1 AC3, 384 Kbps, 48.0 KHz, 6 ch
Язык : Russian
Service kind : Complete Main
Default : Нет
Forced : Нет
Аудио #7
Идентификатор : 13
Формат : E-AC-3
Формат/Информация : Enhanced AC-3
Коммерческое название : Dolby Digital Plus
Идентификатор кодека : A_EAC3
Продолжительность : 48 м. 8 с.
Вид битрейта : Постоянный
Битрейт : 640 Кбит/сек
Каналы : 6 каналов
Channel layout : L R C LFE Ls Rs
Частота : 48,0 КГц
Частота кадров : 31,250 кадров/сек (1536 SPF)
Метод сжатия : С потерями
Размер потока : 220 Мбайт (11%)
Заголовок : DUB-Rus- Пифагор @DD5.1 E-AC3, 640 Kbps, 48.0 KHz, 6 ch
Язык : Russian
Service kind : Complete Main
Default : Нет
Forced : Нет
Текст #1
Идентификатор : 2
Формат : UTF-8
Идентификатор кодека : S_TEXT/UTF8
Идентификатор кодека/Информация : UTF-8 Plain Text
Продолжительность : 44 м. 32 с.
Битрейт : 3 бит/сек
Count of elements : 36
Размер потока : 1,25 Кбайт (0%)
Заголовок : Глава 1-Russian-Forced
Язык : Russian
Default : Да
Forced : Нет
Текст #2
Идентификатор : 3
Формат : UTF-8
Идентификатор кодека : S_TEXT/UTF8
Идентификатор кодека/Информация : UTF-8 Plain Text
Продолжительность : 44 м. 40 с.
Битрейт : 77 бит/сек
Count of elements : 547
Размер потока : 25,4 Кбайт (0%)
Заголовок : Глава 1-Russian
Язык : Russian
Default : Нет
Forced : Нет
Текст #3
Идентификатор : 8
Формат : UTF-8
Идентификатор кодека : S_TEXT/UTF8
Идентификатор кодека/Информация : UTF-8 Plain Text
Продолжительность : 44 м. 33 с.
Битрейт : 55 бит/сек
Count of elements : 566
Размер потока : 18,1 Кбайт (0%)
Заголовок : Chapter 1-French - SDH
Язык : French
Default : Нет
Forced : Нет
Текст #4
Идентификатор : 10
Формат : UTF-8
Идентификатор кодека : S_TEXT/UTF8
Идентификатор кодека/Информация : UTF-8 Plain Text
Продолжительность : 44 м. 37 с.
Битрейт : 64 бит/сек
Count of elements : 680
Размер потока : 21,1 Кбайт (0%)
Заголовок : Chapter 1-English - SDH
Язык : English
Default : Нет
Forced : Нет
Текст #5
Идентификатор : 11
Формат : UTF-8
Идентификатор кодека : S_TEXT/UTF8
Идентификатор кодека/Информация : UTF-8 Plain Text
Продолжительность : 44 м. 40 с.
Битрейт : 56 бит/сек
Count of elements : 587
Размер потока : 18,5 Кбайт (0%)
Заголовок : Chapter 1-English
Язык : English
Default : Нет
Forced : Нет
Меню
00:00:00.000 : ru:Глава 01 / ru:Глава 01 / ru:Глава 01 / ru:Глава 01 / ru:Глава 01 / ru:Глава 01 / ru:Глава 01 / ru:Глава 01 / ru:Глава 01 / ru:Глава 01 / ru:Глава 01 / ru:Глава 01
--

Скриншоты

----
1 Сезон
--

Как закачать отдельный файл

1. Открыть торрент
2. Снять галки с тех файлов торрента, которые мы не хотим закачивать. Оставляем только на нужных нам файлах (файле).
3. Нажать О.К.
В клиенте utorrent
Инструкция
1) Открыть торрент

2) Снять галки с тех файлов торрента, которые мы не хотим закачивать:
* либо вручную, снимая с каждого файла галку( скрин №1)
* либо, нажав кнопку "Снять метки (Select None)", сняв сразу со всех файлов(скрин №2)
№1

№2

Оставляем только на нужных нам файлах (файле).

3)Нажать О.К
-- -- --Внимание!!!25 .06. 2021. РАЗДАЧА ОБНОВЛЕНА. ДОБАВЛЕНА - 9-10- СЕРИЯ ФИНАЛ 2СЕЗОНА . . ОБНОВИТЕ ТОРЕНТ ФАЙЛ. ПРИЯТНОГО ПРОСМОТРА . Поблагодарить:
ЯД: 410017546713876
--Релиз от: Nikolai.Baranov & PIRATIYA -- -- -- --Время раздачи : 24/7---
[Profile]  [PM] 
Display posts:    
Reply to topic

Current time is: 21-Sep 14:22

All times are UTC + 2



You cannot post new topics in this forum
You cannot reply to topics in this forum
You cannot edit your posts in this forum
You cannot delete your posts in this forum
You cannot vote in polls in this forum
You cannot attach files in this forum
You cannot download files in this forum