Засланец из космоса / Resident Alien (Сезон 1 , Серия 1- 10 из 10) (Дэвид Добкин, Шеннон Коли) [2021,Фантастика, драма, комедия, детектив,WEB-DLRip - HEVC 10bit - 1080p] [LostFilm +HDRezka +AlexFilm +TVShows+NewStudio+Eng]+[Subs Rus , ENG]

Reply to topic
 
Author
Message

Враг Нароода ®

Gender: Unknown

Longevity: 7 years

Posts: 495

Reputation: 1 [+] [-]

Враг Нароода · Post 09-Feb-2021 18:59

[Quote] 

---- ---- Засланец из космоса / Resident Alien - (Сезон 1 , Серия 1- 10 из 10) - Полный Комплект ----Год выпуска: 2021
Выпущено: США, Universal Cable Productions, Dark Horse Entertainment, Amblin Televisionn
Жанр: Фантастика, драма, комедия, детектив
Продолжительность: 00:45:00
Сезон:1
Серия:1- 10
Количество серий в сезоне: 10--Озвучка # 1: Профессиональный многоголосый- HDRezka Studio - Русский
Озвучка # 2: Профессиональный многоголосый- AlexFilm - Русский
Озвучка # 3: Профессиональный многоголосый- TVShows - Русский
Озвучка # 4: Профессиональный многоголосый- NewStudio - Русский
Озвучка # 5: Профессиональный многоголосый- LostFilm - Русский
Озвучка # 6: Профессиональный многоголосый -Английский - Оригинал--

Субтитры :


Субтитры (UTF-8):вшитые
#1 - Русские - Russian (включены по умолчанию)
#2 - Русские- Russian (Forced)
#3- Английские - English (SDH)
#4- Английские - English (Original)


Внешние:
#1 - Русские - Russian
#2 - Русские- Russian (Forced)
#3- Английские - English (SDH)
#4- Английские - English (Original)
--Релиз Без Рекламы --MDB 8.3 --Режиссеры:
Дэвид Добкин, Шеннон Коли, Дженнифер Фанг --В ролях: Алан Тьюдик, Сара Томко, Кори Рейнольдс, Элис Веттерлунд, Леви Филер, Линда Хэмилтон, Элизабет Бауэн, Манделл Мофан, Алекс Барима, Дженна Ламия -- Доктор Гарри Вендершпигль — отшельник в небольшом городке в Колорадо. Ещё он — пришелец, который на самом деле упал на Землю и занял тело врача. Когда же доктора убивают, пришелец вынужден отложить миссию по возвращению домой и занять место убитого. Живя в новом теле, он постепенно начинает задаваться вопросами, стоят люди спасения или нет.-- --Качество : WEB-DLRip - HEVC 10bit - 1080p
Формат: MKV
Видео кодек: H265
Видео: 3067 Кбит/сек,1920х1080 , (16,9),в 25.000 кадр/сек, HEVC (Main10@L5.2@Main)--Аудио Кодек:Аудио Кодек:AC3
Аудио #1: MVO LostFilm @DD5.1 AC3, 320 Kbps, 48.0 KHz, 6 ch- LostFilm - Русский
Аудио # 2: MVO HDRezka Studio @DD5.1 AC3, 320 Kbps, 48.0 KHz, 6 ch- HDRezka Studio - Русский
Аудио #3: MVO NewStudio @DD5.1 AC3, 320 Kbps, 48.0 KHz, 6 ch - NewStudio - Русский
Аудио #4: MVO TVShows @DD5.1 AC3, 320 Kbps, 48.0 KHz, 6 ch - TVShows - Русский
Аудио #4: MVO AlexFilm @DD5.1 AC3, 320 Kbps, 48.0 KHz, 6 ch - AlexFilm - Русский
Аудио #6: English @DD5.1 E-AC3, 640 Kbps, 48.0 KHz, 6 ch - English - Оригинал-

Доп. информация:

Звуковая дорожка сделана путем наложения чистого голоса озвучивателей на центральный канал оригинальной дорожки. Качество идентично звуковой дорожке.
--

Список эпизодов сезона


1 сезон 1 серия - Пилот - Pilot
1 сезон 2 серия - Тоска по дому - Homesick
1 сезон 3 серия - Секреты - Secrets
1 сезон 4 серия - Два сапога пара - Birds of a Feather
1 сезон 5 серия - Язык любви - Love Language
1 сезон 6 серия - Сексуальный зверь - Sexy Beast
1 сезон 7 серия - Зеленое свечение - The Green Glow
1 сезон 8 серия - Конец мира, каким мы его знаем - End of the World as We Know It
1 сезон 9 серия - Добро пожаловать, пришельцы! - Welcome Aliens !
1 сезон 10 серия - Герои Пейшенс - Heroes of Patience
--

MediaInfo

Общее
Уникальный идентификатор : 2441701080713915596276386735284308234 (0x1D6412865A0538D10D4C26B0CF0490A)
Полное имя : D:\Засланец из космоса - Resident Alien\2021_Resident_Alien_S01_HEVC- 10Bit_Н265_DD5.1_N.B_HD_1080_5xRus_Eng\2021_Resident_Alien_S01E01_HEVC- 10Bit_DD5.1_N.B_HD_1080_5xRus_Fr_Eng.mkv
Формат : Matroska
Версия формата : Version 4
Размер файла : 1,72 Гбайт
Продолжительность : 46 м. 30 с.
Общий поток : 5 307 Кбит/сек
Название фильма : 2021 Resident Alien S01E01 @ Nikolai.Baranov & PIRATIYA
Дата кодирования : UTC 2021-02-09 09:47:51
Программа кодирования : mkvmerge v53.0.0 ('Fool's Gold') 64-bit
Библиотека кодирования : libebml v1.4.1 + libmatroska v1.6.2
Видео
Идентификатор : 1
Формат : HEVC
Формат/Информация : High Efficiency Video Coding
Профиль формата : Main 10@L5.2@Main
Идентификатор кодека : V_MPEGH/ISO/HEVC
Продолжительность : 46 м. 29 с.
Битрейт : 3 067 Кбит/сек
Ширина : 1 920 пикселей
Высота : 1 080 пикселей
Соотношение сторон : 16:9
Режим частоты кадров : Постоянный
Частота кадров : 25,000 кадров/сек
Цветовое пространство : YUV
Субдискретизация насыщенности : 4:2:0
Битовая глубина : 10 бит
Бит/(Пиксели*Кадры) : 0.059
Размер потока : 1 020 Мбайт (58%)
Заголовок : 2021_Resident_Alien_S01E01_HEVC- 10Bit_DD5.1_N.B_HD_1080_5xRus_Fr_Eng
Язык : Russian
Default : Да
Forced : Нет
Цветовой диапазон : Full
Основные цвета : BT.709
Характеристики трансфера : BT.709
Коэффициенты матрицы : BT.709
Аудио #1
Идентификатор : 2
Формат : AC-3
Формат/Информация : Audio Coding 3
Коммерческое название : Dolby Digital
Идентификатор кодека : A_AC3
Продолжительность : 46 м. 30 с.
Вид битрейта : Постоянный
Битрейт : 320 Кбит/сек
Каналы : 6 каналов
Channel layout : L R C LFE Ls Rs
Частота : 48,0 КГц
Частота кадров : 31,250 кадров/сек (1536 SPF)
Метод сжатия : С потерями
Размер потока : 106 Мбайт (6%)
Заголовок : MVO NewStudio @DD5.1 AC3, 320 Kbps, 48.0 KHz, 6 ch
Язык : Russian
Service kind : Complete Main
Default : Да
Forced : Нет
Аудио #2
Идентификатор : 3
Формат : AC-3
Формат/Информация : Audio Coding 3
Коммерческое название : Dolby Digital
Идентификатор кодека : A_AC3
Продолжительность : 46 м. 30 с.
Вид битрейта : Постоянный
Битрейт : 320 Кбит/сек
Каналы : 6 каналов
Channel layout : L R C LFE Ls Rs
Частота : 48,0 КГц
Частота кадров : 31,250 кадров/сек (1536 SPF)
Метод сжатия : С потерями
Размер потока : 106 Мбайт (6%)
Заголовок : MVO LostFilm @DD5.1 AC3, 320 Kbps, 48.0 KHz, 6 ch
Язык : Russian
Service kind : Complete Main
Default : Нет
Forced : Нет
Аудио #3
Идентификатор : 4
Формат : AC-3
Формат/Информация : Audio Coding 3
Коммерческое название : Dolby Digital
Идентификатор кодека : A_AC3
Продолжительность : 46 м. 22 с.
Вид битрейта : Постоянный
Битрейт : 320 Кбит/сек
Каналы : 6 каналов
Channel layout : L R C LFE Ls Rs
Частота : 48,0 КГц
Частота кадров : 31,250 кадров/сек (1536 SPF)
Метод сжатия : С потерями
Размер потока : 106 Мбайт (6%)
Заголовок : MVO HDRezka Studio @DD5.1 AC3, 320 Kbps, 48.0 KHz, 6 ch
Язык : Russian
Service kind : Complete Main
Default : Нет
Forced : Нет
Аудио #4
Идентификатор : 5
Формат : AC-3
Формат/Информация : Audio Coding 3
Коммерческое название : Dolby Digital
Идентификатор кодека : A_AC3
Продолжительность : 46 м. 30 с.
Вид битрейта : Постоянный
Битрейт : 320 Кбит/сек
Каналы : 6 каналов
Channel layout : L R C LFE Ls Rs
Частота : 48,0 КГц
Частота кадров : 31,250 кадров/сек (1536 SPF)
Метод сжатия : С потерями
Размер потока : 106 Мбайт (6%)
Заголовок : MVO AlexFilm @DD5.1 AC3, 320 Kbps, 48.0 KHz, 6 ch
Язык : Russian
Service kind : Complete Main
Default : Нет
Forced : Нет
Аудио #5
Идентификатор : 6
Формат : AC-3
Формат/Информация : Audio Coding 3
Коммерческое название : Dolby Digital
Идентификатор кодека : A_AC3
Продолжительность : 46 м. 22 с.
Вид битрейта : Постоянный
Битрейт : 320 Кбит/сек
Каналы : 6 каналов
Channel layout : L R C LFE Ls Rs
Частота : 48,0 КГц
Частота кадров : 31,250 кадров/сек (1536 SPF)
Метод сжатия : С потерями
Размер потока : 106 Мбайт (6%)
Заголовок : MVO TVShows @DD5.1 AC3, 320 Kbps, 48.0 KHz, 6 ch
Язык : Russian
Service kind : Complete Main
Default : Нет
Forced : Нет
Аудио #6
Идентификатор : 7
Формат : E-AC-3
Формат/Информация : Enhanced AC-3
Коммерческое название : Dolby Digital Plus
Идентификатор кодека : A_EAC3
Продолжительность : 46 м. 22 с.
Вид битрейта : Постоянный
Битрейт : 640 Кбит/сек
Каналы : 6 каналов
Channel layout : L R C LFE Ls Rs
Частота : 48,0 КГц
Частота кадров : 31,250 кадров/сек (1536 SPF)
Метод сжатия : С потерями
Размер потока : 212 Мбайт (12%)
Заголовок : English @DD5.1 E-AC3, 640 Kbps, 48.0 KHz, 6 ch
Язык : English
Service kind : Complete Main
Default : Нет
Forced : Нет
Текст #1
Идентификатор : 8
Формат : UTF-8
Идентификатор кодека : S_TEXT/UTF8
Идентификатор кодека/Информация : UTF-8 Plain Text
Продолжительность : 46 м. 3 с.
Битрейт : 59 бит/сек
Count of elements : 684
Размер потока : 20,1 Кбайт (0%)
Заголовок : Pilot-Original - SDH
Язык : English
Default : Нет
Forced : Нет
Текст #2
Идентификатор : 9
Формат : UTF-8
Идентификатор кодека : S_TEXT/UTF8
Идентификатор кодека/Информация : UTF-8 Plain Text
Продолжительность : 46 м. 0 с.
Битрейт : 53 бит/сек
Count of elements : 590
Размер потока : 17,9 Кбайт (0%)
Заголовок : Pilot-Original
Язык : English
Default : Нет
Forced : Нет
Текст #3
Идентификатор : 10
Формат : UTF-8
Идентификатор кодека : S_TEXT/UTF8
Идентификатор кодека/Информация : UTF-8 Plain Text
Продолжительность : 41 м. 32 с.
Битрейт : 1 бит/сек
Count of elements : 9
Размер потока : 423 байт (0%)
Заголовок : Пилот-Russian-Forced
Язык : Russian
Default : Да
Forced : Нет
Текст #4
Идентификатор : 11
Формат : UTF-8
Идентификатор кодека : S_TEXT/UTF8
Идентификатор кодека/Информация : UTF-8 Plain Text
Продолжительность : 45 м. 57 с.
Битрейт : 88 бит/сек
Count of elements : 581
Размер потока : 29,9 Кбайт (0%)
Заголовок : Пилот-Russian
Язык : Russian
Default : Нет
Forced : Нет
Меню
00:00:00.000 : ru:Глава 01 / ru:Глава 01 / ru:Глава 01 / ru:Глава 01 / ru:Глава 01 / ru:Глава 01 / ru:Глава 01 / ru:Глава 01 / ru:Глава 01 / ru:Глава 01 / ru:Глава 01
--

Скриншоты

----
1 Сезон
--

Как закачать отдельный файл

1. Открыть торрент
2. Снять галки с тех файлов торрента, которые мы не хотим закачивать. Оставляем только на нужных нам файлах (файле).
3. Нажать О.К.
В клиенте utorrent
Инструкция
1) Открыть торрент

2) Снять галки с тех файлов торрента, которые мы не хотим закачивать:
* либо вручную, снимая с каждого файла галку( скрин №1)
* либо, нажав кнопку "Снять метки (Select None)", сняв сразу со всех файлов(скрин №2)
№1

№2

Оставляем только на нужных нам файлах (файле).

3)Нажать О.К
-- -- ----Внимание!! ! 06 .03. 2021. РАЗДАЧА ОБНОВЛЕНА. ДОБАВЛЕНА-10-СЕРИЯ . ФИНАЛ СЕЗОНА . ОБНОВИТЕ ТОРЕНТ ФАЙЛ. ПРИЯТНОГО ПРОСМОТРА . Поблагодарить:
ЯД: 410017546713876
--Релиз от: Nikolai.Baranov & PIRATIYA -- -- -- --Время раздачи : 24/7---


Last edited by Враг Нароода on 2021-04-06 12:17; edited 8 times in total
[Profile]  [PM] 
Display posts:    
Reply to topic

Current time is: 21-Sep 14:19

All times are UTC + 2



You cannot post new topics in this forum
You cannot reply to topics in this forum
You cannot edit your posts in this forum
You cannot delete your posts in this forum
You cannot vote in polls in this forum
You cannot attach files in this forum
You cannot download files in this forum