Гений / Genius (Сезон 1 -2 , Серия 1- 200 из 20) (Джеймс Хоуз, Минки Спиро) [2017,Драма, биография, история,WEB-DLRip - HEVC - 1080p] [LostFilm + СВ-Дубль +Jaskier +Eng]+[Subs Rus , ENG]

Reply to topic
 
Author
Message

Враг Нароода ®

Gender: Unknown

Longevity: 7 years

Posts: 496

Reputation: 1 [+] [-]

Враг Нароода · Post 03-Mar-2021 10:39

[Quote] 

---- -- Эйнштейн + Пикассо -- Гений / Genius - (Сезон 1 -2, Серия 1- 20 из 20) - Полный Комплект ----Год выпуска: 2017 -2018
Выпущено: США, EUE / Sokolow, Fox 21 Television Studios, Imagine Television, OddLot Entertainment
Жанр: Драма, биография, история
Продолжительность: 01:00:00
Сезон: 1-2
Серия:1- 20
Количество серий в сезоне: 20--Озвучка # 1: Профессиональный многоголосый- LostFilm- Русский
Озвучка # 2: Профессиональный многоголосый- СВ-Дубль - Русский
Озвучка # 3: Профессиональный многоголосый- Jaskier - Русский
Озвучка # 4: Профессиональный многоголосый -Английский - Оригинал--

Субтитры :


Субтитры (UTF-8):вшитые
#1 - Русские - Russian (включены по умолчанию)
#2- Английские - English (SDH)


Внешние:
#1 - Русские - Russian
#2- Английские - English (SDH)
--Релиз Без Рекламы -- СКАЧАТЬ РАЗДАЧУ --MDB 8.4 --Режиссеры:
Сезон 1 - Джеймс Хоуз, Минки Спиро, Рон Ховард - Сезон 2 - Кеннет Биллер, Джеймс Хоуз, Кевин Хукс --В ролях: Сезон 1 - Джеффри Раш, Джонни Флинн, Николас Роу, Саманта Колли, Джон Флетчер, Алисия фон Риттберг, Сильвия Бухбайер, Т.Р. Найт, Люси Расселл - Сезон 2 - Антонио Бандерас, Максимилиан Бефорт, Поппи Делевинь, Эшлинг Франчози, Клеманс Поэзи, Алекс Рич, Себастьян Роше, Андреа Скардуцио, Роберт Шиэн, Маркус фон Линген --

Сезон 1:

«Гений» - сериал о наполненной бурными событиями жизни физика, которому предстоит стать настоящей иконой своего времени, - Альберта Эйнштейна. Абсолютно независимый, гениальный с рождения, с умом, все подвергающим сомнению, Эйнштейн принципиально изменил наше восприятие окружающего мира. «Закройте глаза. Представьте себе шарик, который перемещается в воздухе», — говорит с кафедры Эйнштейн, и его просьбе сложно не последовать. Жизнь главного героя неотделима от исторического контекста. История буквально стучится к Эйнштейну в дверь. Альберт Эйнштейн родился в 1879 году, сериал охватывает события с 1894-го по 1955-й, до самой смерти ученого. «Гений» помещает в фокус, пожалуй, самые важные события XX века — и Первую мировую войну, и приход к власти в Германии Гитлера, и Вторую мировую войну, и послевоенное время. «Гений» развивается в двух временных плоскостях. За жизнью уже состоявшегося ученого можно будет понаблюдать с 1922 года, с момента убийства министра Вальтера Ратенау и роста националистических настроений в Германии. Параллельно увидим, как в 1894 году юный гимназист Альберт в исполнении сражается с отцом за право изучать то, что ему по душе... Последующие сезоны «Гения» будут посвящены другим выдающимся людям, которых мы привыкли называть гениями.
--

Сезон 2:


Он был многоаспектным творцом, чьи творения невозможно классифицировать и подогнать под принятые стандарты. Двадцатый век часто называют эпохой разрушения границ, и он был одним из тех, кто их разрушал, перестраивал под себя, создавая собственную систему координат. Являясь основоположником кубизма, он не боялся экспериментировать в любом направлении, принося что-то свое, будь то скульптура или живопись. Создав из своего имени бренд, он тщательно работал над ним, окружая себя тайнами и загадками. Все это привело к тому, что уже после смерти, он был признан самым дорогим художником в истории, чьи полотна продаются за сотни миллионов долларов с аукционов. Этот сериал - не только рассказ об одаренном провокаторе, а еще и о том, как, благодаря таким талантливым людям как он, изобразительное искусство видоизменялось и трансформировалось, становясь все более необычным и экзотичным
-- --Качество : WEB-DLRip - HEVC - 1080p
Формат: MKV
Видео кодек: H265
Видео: 6876 Кбит/сек,1920х960 , (2,000),в 23.976 кадр/сек, HEVC (NTSC)(Main@L4@Main) Сезон 1 --Видео: 4788 Кбит/сек,1920х 960 , (2.000),в 25.000 кадр/сек, HEVC (Main10@L5.2@Main) Сезон 2 ---Аудио Кодек:Аудио Кодек:AC3
Аудио #1: MVO LostFilm @DD5.1 AC3, 320 Kbps, 48.0 KHz, 6 ch- LostFilm - Русский
Аудио # 2: MVO СВ-Дубль @DD5.1 AC3, 320 Kbps, 48.0 KHz, 6 ch-- СВ-Дубль - Русский
Аудио #3: MVO Jaskier @DD5.1 AC3, 320 Kbps, 48.0 KHz, 6 ch- Jaskier - Русский
Аудио #4: English @DD5.1 E-AC3, 640 Kbps, 48.0 KHz, 6 ch - English - Оригинал-

Доп. информация:

Звуковая дорожка сделана путем наложения чистого голоса озвучивателей на центральный канал оригинальной дорожки. Качество идентично звуковой дорожке.
--

Список эпизодов сезона

Сезон 1

01. Глава первая / Chapter One. Когда в Германии 30-х годов прошлого века лихорадка антисемитизма достигает своего пика, знаменитый физик Альберт Эйнштейн (Джеффри Раш) колеблется между решением искать вместе со своей второй женой убежища в Америке, или остаться в Германии из солидарности со своими друзъями - другими еврейскими учеными.
02. Глава вторая / Chapter Two. Будучи студентом политехнического университета Цюриха, Альберт Эйнштейн (Джонни Флинн) влюбляется в единственную девушку в его группе, своенравную Милеву Марич (Саманта Колли).
03. Глава третья / Chapter Three. Недавний выпускник цюрихского университета Альберт Эйнштейн (Джонни Флинн) пытается свести концы с концами, чтобы прокормить свою семью, и одновременно не теряет надежды занять должность, которая позволит ему проникнуть в научное сообщество, славящееся своими традициями и строгими принципами.
04. Глава четвертая / Chapter Four. Работая днем в патентном бюро в Берне, Альберт Эйнштейн (Джонни Флинн), поддерживаемый своей женой Милевой (Саманта Колли), форсирует события и пишет в течение одного года сразу четыре научных работы, среди которых одна посвящена специальной теории относительности, что позволит потом историкам назвать этот год его "волшебным годом".
05. Глава пятая / Chapter Five. Параллельно со своей преподавательской деятельностью, Альберт Эйнштейн (Джонни Флинн) начинает свою карьеру в академическом мире, к чему он так стремился, и разрабатывает свою знаменитую общую теорию относительности.
06. Глава шестая / Chapter Six. Перевезя свою семью в Берлин, чтобы заниматься работой и одновременно быть поближе к своей новой возлюбленной Эльзе (Эмили Уотсон), Альберт Эйнштейн (Джонни Флинн) прикладывает все силы к тому, чтобы доказать свою общую теорию относительности.
07. Глава седьмая / Chapter Seven. Полностью измотанный физически и психически, Альберт Эйнштейн (Джеффри Раш) начинает испытывать серьезные проблемы со здоровьем, что ставит под вопрос его попытки оставить заметный след в истории науки.
08. Глава восьмая / Chapter Eight. В условиях поднимающего голову нацизма Альберт Эйнштейн (Джеффри Раш) принимает решение уехать в США вместе со своей женой Эльзой (Эмили Уотсон), однако их визы для въезда в Соединенные Штаты оказываются заблокированными госдепартаментом США.
09. Глава девятая / Chapter Nine. Альберт Эйнштейн (Джеффри Раш) и Эльза (Эмили Уотсон) переезжают в Америку, одновременно пытаясь спасти тех, кого они оставляют в Германии. Несмотря на то, что его продолжает безумно увлекать квантовая физика, в условиях растущей угрозы реализации планов по расщеплению атома в Германии, ему приходится сконцентрироваться именно на этой проблеме.
10. Глава десятая / Chapter Ten. После того, как была сброшена атомная бомба, и 2-я мировая война закончилась, стареющий Альберт Эйнштейн (Джеффри Раш) занимает активную позицию гражданина мира. Будучи вовлеченным в разработку атомного оружия, он испытывает за это чувство вины и фокусирует свои усилия на предотвращении будущих войн.

Сезон 2

2 сезон 1 серия - Пикассо. Глава 1 - Picasso: Chapter One
2 сезон 2 серия - Пикассо. Глава 2 - Picasso: Chapter Two
2 сезон 3 серия - Пикассо. Глава 3 - Picasso: Chapter Three
2 сезон 4 серия - Пикассо: Глава 4 - Picasso: Chapter Four
2 сезон 5 серия - Пикассо. Глава 5 - Picasso: Chapter Five
2 сезон 6 серия - Пикассо: Глава 6 - Picasso: Chapter Six
2 сезон 7 серия - Пикассо. Глава 7 - Picasso: Chapter Seven
2 сезон 8 серия - Пикассо: Глава 8 - Picasso: Chapter Eight
2 сезон 9 серия - Пикассо. Глава 9 - Picasso: Chapter Nine
2 сезон 10 серия - Пикассо: Глава 10 - Picasso: Chapter Ten
--

MediaInfo Сезон 1

Общее
Уникальный идентификатор : 13864967690876804465193599540724219086 (0xA6E4BAF6A6F69ABD7F95237E4AFBCCE)
Полное имя : D:\Гений - Genius\2017.Genius.S01_HEVC_DD5.1_N.B_HD_1080_3xRus_Eng\2017.Genius.S01E01_HEVC_DD5.1_N.B_HD_1080_3xRus_Eng.mkv
Формат : Matroska
Версия формата : Version 4
Размер файла : 3,85 Гбайт
Продолжительность : 1 ч. 4 м.
Общий поток : 8 490 Кбит/сек
Название фильма : 2017 Genius S01E01 @ Nikolai.Baranov & PIRATIYA
Дата кодирования : UTC 2021-03-02 07:28:49
Программа кодирования : mkvmerge v54.0.0 ('F Maj Pixie') 64-bit
Библиотека кодирования : libebml v1.4.2 + libmatroska v1.6.3
Видео
Идентификатор : 1
Формат : HEVC
Формат/Информация : High Efficiency Video Coding
Профиль формата : Main@L4@Main
Идентификатор кодека : V_MPEGH/ISO/HEVC
Продолжительность : 1 ч. 4 м.
Битрейт : 6 887 Кбит/сек
Ширина : 1 920 пикселей
Высота : 960 пикселей
Соотношение сторон : 2,000
Режим частоты кадров : Постоянный
Частота кадров : 23,976 (24000/1001) кадра/сек
Стандарт вещания : NTSC
Цветовое пространство : YUV
Субдискретизация насыщенности : 4:2:0
Битовая глубина : 8 бит
Бит/(Пиксели*Кадры) : 0.156
Размер потока : 3,12 Гбайт (81%)
Заголовок : 2017.Genius.S01E01_HEVC_DD5.1_N.B_HD_1080_3xRus_Eng
Библиотека кодирования : x265 0.0:[Linux][GCC 4.8.2][64 bit] 8bit+10bit+12bit
Настройки программы : cpuid=1173503 / frame-threads=1 / wpp / no-pmode / no-pme / psnr / ssim / log-level=2 / csvfn=/apollo/env/YoshiEncodingWorkflowActivitiesLinuxEncoding/var/tmp/746512945/588476e0-0e68-4161-aaa1-33a15660c011/328874cb-f7bd-41c4-9679-f741b41b0782_video_1080p_9000kbps.csv / csv-log-level=2 / input-csp=1 / input-res=1920x960 / interlace=0 / total-frames=0 / level-idc=40 / high-tier=1 / uhd-bd=0 / ref=5 / no-allow-non-conformance / no-repeat-headers / annexb / no-aud / no-hrd / info / hash=0 / no-temporal-layers / no-open-gop / min-keyint=61 / keyint=120 / bframes=5 / b-adapt=2 / b-pyramid / bframe-bias=0 / rc-lookahead=120 / lookahead-slices=0 / scenecut=0 / no-intra-refresh / ctu=64 / min-cu-size=8 / rect / no-amp / max-tu-size=32 / tu-inter-depth=1 / tu-intra-depth=1 / limit-tu=0 / rdoq-level=2 / dynamic-rd=0.00 / no-ssim-rd / signhide / no-tskip / nr-intra=0 / nr-inter=200 / no-constrained-intra / strong-intra-smoothing / max-merge=3 / limit-refs=3 / limit-modes / me=3 / subme=3 / merange=57 / temporal-mvp / weightp / no-weightb / no-analyze-src-pics / deblock=0:0 / sao / no-sao-non-deblock / rd=4 / no-early-skip / rskip / no-fast-intra / no-tskip-fast / no-cu-lossless / no-b-intra / rdpenalty=0 / psy-rd=2.00 / psy-rdoq=1.00 / no-rd-refine / analysis-reuse-mode=0 / no-lossless / cbqpoffs=0 / crqpoffs=0 / rc=crf / crf=21.5 / qcomp=0.60 / qpstep=4 / stats-write=0 / stats-read=0 / vbv-maxrate=9000 / vbv-bufsize=12000 / vbv-init=0.9 / crf-max=0.0 / crf-min=0.0 / ipratio=1.40 / pbratio=1.30 / aq-mode=3 / aq-strength=2.00 / cutree / zone-count=0 / no-strict-cbr / qg-size=32 / no-rc-grain / qpmax=69 / qpmin=0 / no-const-vbv / sar=1 / overscan=0 / videoformat=2 / range=0 / colorprim=1 / transfer=1 / colormatrix=1 / chromaloc=0 / display-window=0 / max-cll=0,0 / min-luma=0 / max-luma=255 / log2-max-poc-lsb=8 / vui-timing-info / vui-hrd-info / slices=1 / opt-qp-pps / opt-ref-list-length-pps / no-multi-pass-opt-rps / scenecut-bias=0.05 / no-opt-cu-delta-qp / no-aq-motion / no-hdr / no-hdr-opt / no-dhdr10-opt / analysis-reuse-level=5 / scale-factor=0 / refine-intra=0 / refine-inter=0 / refine-mv=0 / no-limit-sao / ctu-info=0
Язык : Russian
Default : Да
Forced : Нет
Цветовой диапазон : Limited
Основные цвета : BT.709
Характеристики трансфера : BT.709
Коэффициенты матрицы : BT.709
Аудио #1
Идентификатор : 3
Формат : AC-3
Формат/Информация : Audio Coding 3
Коммерческое название : Dolby Digital
Идентификатор кодека : A_AC3
Продолжительность : 1 ч. 4 м.
Вид битрейта : Постоянный
Битрейт : 320 Кбит/сек
Каналы : 6 каналов
Channel layout : L R C LFE Ls Rs
Частота : 48,0 КГц
Частота кадров : 31,250 кадров/сек (1536 SPF)
Метод сжатия : С потерями
Размер потока : 148 Мбайт (4%)
Заголовок : MVO LostFilm @DD5.1 AC3, 320 Kbps, 48.0 KHz, 6 ch
Язык : Russian
Service kind : Complete Main
Default : Да
Forced : Нет
Аудио #2
Идентификатор : 4
Формат : AC-3
Формат/Информация : Audio Coding 3
Коммерческое название : Dolby Digital
Идентификатор кодека : A_AC3
Продолжительность : 1 ч. 4 м.
Вид битрейта : Постоянный
Битрейт : 320 Кбит/сек
Каналы : 6 каналов
Channel layout : L R C LFE Ls Rs
Частота : 48,0 КГц
Частота кадров : 31,250 кадров/сек (1536 SPF)
Метод сжатия : С потерями
Размер потока : 148 Мбайт (4%)
Заголовок : MVO СВ-Дубль @DD5.1 AC3, 320 Kbps, 48.0 KHz, 6 ch
Язык : Russian
Service kind : Complete Main
Default : Нет
Forced : Нет
Аудио #3
Идентификатор : 5
Формат : AC-3
Формат/Информация : Audio Coding 3
Коммерческое название : Dolby Digital
Идентификатор кодека : A_AC3
Продолжительность : 1 ч. 4 м.
Вид битрейта : Постоянный
Битрейт : 320 Кбит/сек
Каналы : 6 каналов
Channel layout : L R C LFE Ls Rs
Частота : 48,0 КГц
Частота кадров : 31,250 кадров/сек (1536 SPF)
Метод сжатия : С потерями
Размер потока : 148 Мбайт (4%)
Заголовок : MVO Jaskier @DD5.1 AC3, 320 Kbps, 48.0 KHz, 6 ch
Язык : Russian
Service kind : Complete Main
Default : Нет
Forced : Нет
Аудио #4
Идентификатор : 6
Формат : E-AC-3
Формат/Информация : Enhanced AC-3
Коммерческое название : Dolby Digital Plus
Идентификатор кодека : A_EAC3
Продолжительность : 1 ч. 4 м.
Вид битрейта : Постоянный
Битрейт : 640 Кбит/сек
Каналы : 6 каналов
Channel layout : L R C LFE Ls Rs
Частота : 48,0 КГц
Частота кадров : 31,250 кадров/сек (1536 SPF)
Метод сжатия : С потерями
Размер потока : 297 Мбайт (8%)
Заголовок : English @DD5.1 E-AC3, 640 Kbps, 48.0 KHz, 6 ch
Язык : English
Service kind : Complete Main
Default : Нет
Forced : Нет
Текст #1
Идентификатор : 2
Формат : UTF-8
Идентификатор кодека : S_TEXT/UTF8
Идентификатор кодека/Информация : UTF-8 Plain Text
Продолжительность : 1 ч. 3 м.
Битрейт : 117 бит/сек
Count of elements : 810
Размер потока : 54,9 Кбайт (0%)
Заголовок : Глава 1-Энштэйштн-Russian
Язык : Russian
Default : Да
Forced : Нет
Текст #2
Идентификатор : 7
Формат : UTF-8
Идентификатор кодека : S_TEXT/UTF8
Идентификатор кодека/Информация : UTF-8 Plain Text
Продолжительность : 1 ч. 3 м.
Битрейт : 74 бит/сек
Count of elements : 1233
Размер потока : 34,7 Кбайт (0%)
Заголовок : Einstein Chapter One-English - SDH
Язык : English
Default : Нет
Forced : Нет
Меню
00:00:00.000 : ru:Глава 01 / ru:Глава 01 / ru:Глава 01 / ru:Глава 01 / ru:Глава 01 / ru:Глава 01 / ru:Глава 01
--

MediaInfo Сезон 2

Общее
Уникальный идентификатор : 251843858003219650847948616000438808308 (0xBD775CDCC7C4F3B506D5CFBFFF842EF4)
Полное имя : F:\Гений - Genius\2017_Genius_S01-S02_HEVC_DD5.1_N.B_HD_1080_3xRus_Eng\S02\2018_Genius.S02E01.Picasso_HEVC_DD5.1_N.B_HD_1080_3xRus_Eng.mkv
Формат : Matroska
Версия формата : Version 4
Размер файла : 2,24 Гбайт
Продолжительность : 50 м. 5 с.
Общий поток : 6 391 Кбит/сек
Название фильма : 2018 Genius S02E01 Picasso @ Nikolai.Baranov & PIRATIYA
Дата кодирования : UTC 2021-03-31 16:22:44
Программа кодирования : mkvmerge v55.0.0 ('Waiting For Space') 64-bit
Библиотека кодирования : libebml v1.4.2 + libmatroska v1.6.4
Видео
Идентификатор : 1
Формат : HEVC
Формат/Информация : High Efficiency Video Coding
Профиль формата : Main 10@L5.2@Main
Идентификатор кодека : V_MPEGH/ISO/HEVC
Продолжительность : 50 м. 5 с.
Битрейт : 4 788 Кбит/сек
Ширина : 1 920 пикселей
Высота : 960 пикселей
Соотношение сторон : 2,000
Режим частоты кадров : Постоянный
Частота кадров : 25,000 кадров/сек
Цветовое пространство : YUV
Субдискретизация насыщенности : 4:2:0
Битовая глубина : 10 бит
Бит/(Пиксели*Кадры) : 0.104
Размер потока : 1,68 Гбайт (75%)
Заголовок : 2018_Genius.S02E01.Picasso_HEVC_DD5.1_N.B_HD_1080_3xRus_Eng
Язык : Russian
Default : Нет
Forced : Нет
Цветовой диапазон : Full
Основные цвета : BT.709
Характеристики трансфера : BT.709
Коэффициенты матрицы : BT.709
Аудио #1
Идентификатор : 2
Формат : AC-3
Формат/Информация : Audio Coding 3
Коммерческое название : Dolby Digital
Идентификатор кодека : A_AC3
Продолжительность : 50 м. 5 с.
Вид битрейта : Постоянный
Битрейт : 320 Кбит/сек
Каналы : 6 каналов
Channel layout : L R C LFE Ls Rs
Частота : 48,0 КГц
Частота кадров : 31,250 кадров/сек (1536 SPF)
Метод сжатия : С потерями
Размер потока : 115 Мбайт (5%)
Заголовок : MVO LostFilm @DD5.1 AC3, 320 Kbps, 48.0 KHz, 6 ch
Язык : Russian
Service kind : Complete Main
Default : Да
Forced : Нет
Аудио #2
Идентификатор : 3
Формат : AC-3
Формат/Информация : Audio Coding 3
Коммерческое название : Dolby Digital
Идентификатор кодека : A_AC3
Продолжительность : 50 м. 5 с.
Вид битрейта : Постоянный
Битрейт : 320 Кбит/сек
Каналы : 6 каналов
Channel layout : L R C LFE Ls Rs
Частота : 48,0 КГц
Частота кадров : 31,250 кадров/сек (1536 SPF)
Метод сжатия : С потерями
Размер потока : 115 Мбайт (5%)
Заголовок : MVO СВ-Дубль @DD5.1 AC3, 320 Kbps, 48.0 KHz, 6 ch
Язык : Russian
Service kind : Complete Main
Default : Нет
Forced : Нет
Аудио #3
Идентификатор : 4
Формат : AC-3
Формат/Информация : Audio Coding 3
Коммерческое название : Dolby Digital
Идентификатор кодека : A_AC3
Продолжительность : 50 м. 5 с.
Вид битрейта : Постоянный
Битрейт : 320 Кбит/сек
Каналы : 6 каналов
Channel layout : L R C LFE Ls Rs
Частота : 48,0 КГц
Частота кадров : 31,250 кадров/сек (1536 SPF)
Метод сжатия : С потерями
Размер потока : 115 Мбайт (5%)
Заголовок : MVO Jaskier @DD5.1 AC3, 320 Kbps, 48.0 KHz, 6 ch
Язык : Russian
Service kind : Complete Main
Default : Нет
Forced : Нет
Аудио #4
Идентификатор : 5
Формат : E-AC-3
Формат/Информация : Enhanced AC-3
Коммерческое название : Dolby Digital Plus
Идентификатор кодека : A_EAC3
Продолжительность : 50 м. 5 с.
Вид битрейта : Постоянный
Битрейт : 640 Кбит/сек
Каналы : 6 каналов
Channel layout : L R C LFE Ls Rs
Частота : 48,0 КГц
Частота кадров : 31,250 кадров/сек (1536 SPF)
Метод сжатия : С потерями
Задержка видео : 8 мс.
Размер потока : 229 Мбайт (10%)
Заголовок : English @DD5.1 E-AC3, 640 Kbps, 48.0 KHz, 6 ch
Язык : English
Service kind : Complete Main
Default : Нет
Forced : Нет
Текст #1
Идентификатор : 6
Формат : UTF-8
Идентификатор кодека : S_TEXT/UTF8
Идентификатор кодека/Информация : UTF-8 Plain Text
Продолжительность : 48 м. 48 с.
Битрейт : 85 бит/сек
Count of elements : 642
Размер потока : 30,5 Кбайт (0%)
Заголовок : Глава 1-Пикассо-Russian
Язык : Russian
Default : Да
Forced : Нет
Текст #2
Идентификатор : 7
Формат : UTF-8
Идентификатор кодека : S_TEXT/UTF8
Идентификатор кодека/Информация : UTF-8 Plain Text
Продолжительность : 49 м. 1 с.
Битрейт : 70 бит/сек
Count of elements : 738
Размер потока : 25,2 Кбайт (0%)
Заголовок : Picasso Chapter One-English - SDH
Язык : English
Default : Нет
Forced : Нет
Меню
00:00:00.040 : ru:Глава 01 / ru:Глава 01 / ru:Глава 01 / ru:Глава 01 / ru:Глава 01 / ru:Глава 01 / ru:Глава 01
--

Скриншоты

Сезон 1

Сезон 2
----
1 Сезон
--
2 Сезон
--

Как закачать отдельный файл

1. Открыть торрент
2. Снять галки с тех файлов торрента, которые мы не хотим закачивать. Оставляем только на нужных нам файлах (файле).
3. Нажать О.К.
В клиенте utorrent
Инструкция
1) Открыть торрент

2) Снять галки с тех файлов торрента, которые мы не хотим закачивать:
* либо вручную, снимая с каждого файла галку( скрин №1)
* либо, нажав кнопку "Снять метки (Select None)", сняв сразу со всех файлов(скрин №2)
№1

№2

Оставляем только на нужных нам файлах (файле).

3)Нажать О.К
-- -- ----Внимание!! ! 02 . 05. 2021. РАЗДАЧА ОБНОВЛЕНА. ДОБАВЛЕНА-8-10-СЕРИЯ 2СЕЗОНА-ФИНАЛ 2СЕЗОНА. ОБНОВИТЕ ТОРЕНТ ФАЙЛ. ПРИЯТНОГО ПРОСМОТРА . Поблагодарить:
ЯД: 410017546713876
--Релиз от: Nikolai.Baranov & PIRATIYA -- -- -- --Время раздачи : 24/7---
[Profile]  [PM] 
Display posts:    
Reply to topic

Current time is: 27-Sep 03:21

All times are UTC + 2



You cannot post new topics in this forum
You cannot reply to topics in this forum
You cannot edit your posts in this forum
You cannot delete your posts in this forum
You cannot vote in polls in this forum
You cannot attach files in this forum
You cannot download files in this forum