Обломки / Debris (Сезон 1 , Серия 1-3 из 13) (Падрейк МакКинли, Стив Эделсон) [2021,Фантастика, триллер, драма, детектив,WEB-DLRip - HEVC - 1080p] [LostFilm +HDRezka +TVShows+Кравец+Eng]+[Subs Rus , ENG]

Reply to topic
 
Author
Message

Враг Нароода ®

Gender: Unknown

Longevity: 7 years

Posts: 496

Reputation: 1 [+] [-]

Враг Нароода · Post 17-Mar-2021 18:34

[Quote] 

--- ---- Обломки / Debris - (Сезон 1 , Серия 1- 13 из 13) - Полный Комплект ----Год выпуска: 2021
Выпущено: США, Frequency Films, Legendary Television
Жанр: Фантастика, триллер, драма, детектив
Продолжительность: 00:45:00
Сезон:1
Серия:1- 13
Количество серий в сезоне:13 --Озвучка # 1: Профессиональный многоголосый- HDRezka Studio - Русский
Озвучка # 2: Профессиональный многоголосый- Кравец-Рекордз -По умолчанию - Русский
Озвучка # 3: Профессиональный многоголосый- TVShows - Русский
Озвучка # 4: Профессиональный многоголосый- LostFilm - Русский
Озвучка # 5: Профессиональный многоголосый -Английский - Оригинал--

Субтитры :


Субтитры (UTF-8):вшитые
#1 - Русские - Russian (включены по умолчанию)
#2 - Русские- Russian (Forced)
#3- Английские - English (SDH)


Внешние:
#1 - Русские - Russian
#2 - Русские- Russian (Forced)
#3- Английские - English (SDH)
--Релиз Без Рекламы --MDB 6.4 --Режиссеры:
Падрейк МакКинли, Стив Эделсон, Ребекка Родригес --В ролях: Джонатан Такер, Риэнн Стил, Норберт Лео Батц, Скрубиус Пип, Себастьян Роше, Томас Кадро, Дженнифер Коппинг, Армин Караме, Алекс Богомолов, Тодд Томсон -- Сюжет повествует об исследовании разрушенного космического корабля. Казалось бы, рутинная работа. Однако обломки внеземного судна способны влиять на законы физики и поведение людей. Двум агентам специального назначения предстоит немало покопаться в этом странном деле — во всех смыслах.-- --Качество : WEB-DLRip - HEVC 10bit - 1080p
Формат: MKV
Видео кодек: H265
Видео: 2876 Кбит/сек,1920х1080 , (16,9),в 25.000 кадр/сек, HEVC (Main10@L5.2@Main)--Аудио Кодек:Аудио Кодек:AC3
Аудио #1: MVO LostFilm @DD5.1 AC3, 320 Kbps, 48.0 KHz, 6 ch- LostFilm - Русский
Аудио # 2: MVO HDRezka Studio @DD5.1 AC3, 320 Kbps, 48.0 KHz, 6 ch- HDRezka Studio - Русский
Аудио #3: MVO Кравец-Рекордз @DD5.1 AC3, 320 Kbps, 48.0 KHz, 6 ch - Кравец-Рекордз -По умолчанию - Русский
Аудио #4: MVO TVShows @DD5.1 AC3, 320 Kbps, 48.0 KHz, 6 ch - TVShows - Русский
Аудио #6: English @DD5.1 AC3, 320 Kbps, 48.0 KHz, 6 ch - English - Оригинал-

Доп. информация:

Звуковая дорожка сделана путем наложения чистого голоса озвучивателей на центральный канал оригинальной дорожки. Качество идентично звуковой дорожке.
--

Список эпизодов сезона


1 сезон 1 серия - Пилот - Pilot
1 сезон 2 серия - Ты не одна - You Are Not Alone
1 сезон 3 серия - Солнечные ветры - Solar Winds
1 сезон 4 серия - Во Вселенной - In Universe
1 сезон 5 серия - Излучение Земли - Earthshine
1 сезон 6 серия - Сверхновая звезда - Supernova
1 сезон 7 серия - Зовите ее Кэролайн - You Can Call Her Caroline
1 сезон 8 серия - Космонавт - Spaceman
1 сезон 9 серия - Вы знакомы с Икаром? - Do You Know Icarus?
1 сезон 10 серия - Икар - это я - I Am Icarus
1 сезон 11 серия - Асала - Asalah
1 сезон 12 серия - Послание с Земли - A Message from Ground Control
1 сезон 13 серия - Небесное тело - Celestial Body
---

MediaInfo

Общее
Уникальный идентификатор : 286966606227356943002034257129583584305 (0xD7E3C20C1B809A2DE07D5A890202A431)
Полное имя : F:\Baranov\Обломки - Debris\2021_Debris_S01_HEVC_Н265__DD5.1_N.B_HD_1080_4xRus_Eng\2021_Debris_S01E02_HEVC_Н265_DD5.1_N.B_HD_1080_4xRus_Eng.mkv
Формат : Matroska
Версия формата : Version 4
Размер файла : 1,41 Гбайт
Продолжительность : 42 м. 1 с.
Общий поток : 4 799 Кбит/сек
Название фильма : 2021 Debris S01E02 @ Nikolai.Baranov & PIRATIYA
Дата кодирования : UTC 2021-03-17 08:03:36
Программа кодирования : mkvmerge v55.0.0 ('Waiting For Space') 64-bit
Библиотека кодирования : libebml v1.4.2 + libmatroska v1.6.4
Видео
Идентификатор : 1
Формат : HEVC
Формат/Информация : High Efficiency Video Coding
Профиль формата : Main 10@L5.2@Main
Идентификатор кодека : V_MPEGH/ISO/HEVC
Продолжительность : 42 м. 1 с.
Битрейт : 2 876 Кбит/сек
Ширина : 1 920 пикселей
Высота : 1 080 пикселей
Соотношение сторон : 16:9
Режим частоты кадров : Постоянный
Частота кадров : 25,000 кадров/сек
Цветовое пространство : YUV
Субдискретизация насыщенности : 4:2:0
Битовая глубина : 10 бит
Бит/(Пиксели*Кадры) : 0.055
Размер потока : 864 Мбайт (60%)
Заголовок : 2021_Debris_S01E02_HEVC_Н265_DD5.1_N.B_HD_1080_4xRus_Eng
Язык : Russian
Default : Да
Forced : Нет
Цветовой диапазон : Full
Основные цвета : BT.709
Характеристики трансфера : BT.709
Коэффициенты матрицы : BT.709
Аудио #1
Идентификатор : 4
Формат : AC-3
Формат/Информация : Audio Coding 3
Коммерческое название : Dolby Digital
Идентификатор кодека : A_AC3
Продолжительность : 42 м. 1 с.
Вид битрейта : Постоянный
Битрейт : 320 Кбит/сек
Каналы : 6 каналов
Channel layout : L R C LFE Ls Rs
Частота : 48,0 КГц
Частота кадров : 31,250 кадров/сек (1536 SPF)
Метод сжатия : С потерями
Размер потока : 96,2 Мбайт (7%)
Заголовок : MVO Кравец-Рекорд @DD5.1 AC3, 320 Kbps, 48.0 KHz, 6 ch
Язык : Russian
Service kind : Complete Main
Default : Да
Forced : Нет
Аудио #2
Идентификатор : 5
Формат : AC-3
Формат/Информация : Audio Coding 3
Коммерческое название : Dolby Digital
Идентификатор кодека : A_AC3
Продолжительность : 42 м. 1 с.
Вид битрейта : Постоянный
Битрейт : 320 Кбит/сек
Каналы : 6 каналов
Channel layout : L R C LFE Ls Rs
Частота : 48,0 КГц
Частота кадров : 31,250 кадров/сек (1536 SPF)
Метод сжатия : С потерями
Размер потока : 96,2 Мбайт (7%)
Заголовок : MVO LostFilm @DD5.1 AC3, 320 Kbps, 48.0 KHz, 6 ch
Язык : Russian
Service kind : Complete Main
Default : Нет
Forced : Нет
Аудио #3
Идентификатор : 6
Формат : AC-3
Формат/Информация : Audio Coding 3
Коммерческое название : Dolby Digital
Идентификатор кодека : A_AC3
Продолжительность : 42 м. 1 с.
Вид битрейта : Постоянный
Битрейт : 320 Кбит/сек
Каналы : 6 каналов
Channel layout : L R C LFE Ls Rs
Частота : 48,0 КГц
Частота кадров : 31,250 кадров/сек (1536 SPF)
Метод сжатия : С потерями
Размер потока : 96,2 Мбайт (7%)
Заголовок : MVO TVShows @DD5.1 AC3, 320 Kbps, 48.0 KHz, 6 ch
Язык : Russian
Service kind : Complete Main
Default : Нет
Forced : Нет
Аудио #4
Идентификатор : 7
Формат : AC-3
Формат/Информация : Audio Coding 3
Коммерческое название : Dolby Digital
Идентификатор кодека : A_AC3
Продолжительность : 42 м. 1 с.
Вид битрейта : Постоянный
Битрейт : 320 Кбит/сек
Каналы : 6 каналов
Channel layout : L R C LFE Ls Rs
Частота : 48,0 КГц
Частота кадров : 31,250 кадров/сек (1536 SPF)
Метод сжатия : С потерями
Размер потока : 96,2 Мбайт (7%)
Заголовок : MVO HDRezka Studio @DD5.1 AC3, 320 Kbps, 48.0 KHz, 6 ch
Язык : Russian
Service kind : Complete Main
Default : Нет
Forced : Нет
Аудио #5
Идентификатор : 8
Формат : AC-3
Формат/Информация : Audio Coding 3
Коммерческое название : Dolby Digital
Идентификатор кодека : A_AC3
Продолжительность : 42 м. 1 с.
Вид битрейта : Постоянный
Битрейт : 320 Кбит/сек
Каналы : 6 каналов
Channel layout : L R C LFE Ls Rs
Частота : 48,0 КГц
Частота кадров : 31,250 кадров/сек (1536 SPF)
Метод сжатия : С потерями
Размер потока : 96,2 Мбайт (7%)
Заголовок : English @DD5.1 AC3, 320 Kbps, 48.0 KHz, 6 ch
Язык : English
Service kind : Complete Main
Default : Нет
Forced : Нет
Аудио #6
Идентификатор : 9
Формат : AC-3
Формат/Информация : Audio Coding 3
Коммерческое название : Dolby Digital
Идентификатор кодека : A_AC3
Продолжительность : 42 м. 1 с.
Вид битрейта : Постоянный
Битрейт : 320 Кбит/сек
Каналы : 6 каналов
Channel layout : L R C LFE Ls Rs
Частота : 48,0 КГц
Частота кадров : 31,250 кадров/сек (1536 SPF)
Метод сжатия : С потерями
Размер потока : 96,2 Мбайт (7%)
Заголовок : You Are Not Alone-Original - SDH
Язык : English
Service kind : Complete Main
Default : Нет
Forced : Нет
Текст #1
Идентификатор : 2
Формат : UTF-8
Идентификатор кодека : S_TEXT/UTF8
Идентификатор кодека/Информация : UTF-8 Plain Text
Продолжительность : 29 м. 16 с.
Битрейт : 5 бит/сек
Count of elements : 15
Размер потока : 1,10 Кбайт (0%)
Заголовок : Ты не одна-Russian-Forced
Язык : Russian
Default : Да
Forced : Нет
Текст #2
Идентификатор : 3
Формат : UTF-8
Идентификатор кодека : S_TEXT/UTF8
Идентификатор кодека/Информация : UTF-8 Plain Text
Продолжительность : 41 м. 40 с.
Битрейт : 95 бит/сек
Count of elements : 611
Размер потока : 29,2 Кбайт (0%)
Заголовок : Ты не одна-Russian
Язык : Russian
Default : Нет
Forced : Нет
Меню
00:00:00.000 : ru:Глава 01 / ru:Глава 01 / ru:Глава 01 / ru:Глава 01 / ru:Глава 01 / ru:Глава 01 / ru:Глава 01 / ru:Глава 01 / ru:Глава 01
--

Скриншоты

----
1 Сезон
--

Как закачать отдельный файл

1. Открыть торрент
2. Снять галки с тех файлов торрента, которые мы не хотим закачивать. Оставляем только на нужных нам файлах (файле).
3. Нажать О.К.
В клиенте utorrent
Инструкция
1) Открыть торрент

2) Снять галки с тех файлов торрента, которые мы не хотим закачивать:
* либо вручную, снимая с каждого файла галку( скрин №1)
* либо, нажав кнопку "Снять метки (Select None)", сняв сразу со всех файлов(скрин №2)
№1

№2

Оставляем только на нужных нам файлах (файле).

3)Нажать О.К
-- -- ----Внимание!! ! 02 .06 . 2021. РАЗДАЧА ОБНОВЛЕНА. . ФИНАЛ СЕЗОНА . ОБНОВИТЕ ТОРЕНТ ФАЙЛ. ПРИЯТНОГО ПРОСМОТРА . Поблагодарить:
ЯД: 410017546713876
--Релиз от: Nikolai.Baranov & PIRATIYA -- -- -- --Время раздачи : 24/7---
[Profile]  [PM] 
Display posts:    
Reply to topic

Current time is: 27-Sep 02:52

All times are UTC + 2



You cannot post new topics in this forum
You cannot reply to topics in this forum
You cannot edit your posts in this forum
You cannot delete your posts in this forum
You cannot vote in polls in this forum
You cannot attach files in this forum
You cannot download files in this forum