Корона / The Crown (Сезон 1-4 , Серия 1- 35 из 40 ) (Бенжамин Карон, Стивен Долдри)[ 2016-2020 ,Драма, история, биография[ BluRay -Rip - HEVC - 1080p] [ DUB, SDI Media+LostFilm+ Jaskier+ Eng]+[ Subs, ENG]

Reply to topic
 
Author
Message

Враг Нароода ®

Gender: Unknown

Longevity: 7 years

Posts: 496

Reputation: 1 [+] [-]

Враг Нароода · Post 03-Jun-2021 11:22

[Quote] 

-- -- Корона / The Crown - (Сезон 1-4 , Серия 1-35 из 40) -- --Год выпуска: 2016-2020
Выпущено: Великобритания, Left Bank Pictures, Sony Pictures Television Production UK
Жанр: Драма, история, биография, костюмированный
Продолжительность: 01:00:00
Сезон:1-4
Серия: 1-35
Количество серий в сезоне:40 --

ОЗВУЧКА:

1Сезон
Озвучка # 1: Профессиональный Дубляж - SDI Media - Русский
Озвучка # 2: Профессиональный многоголосый- LostFilm - Русский
Озвучка # 3: Профессиональный многоголосый- Jaskier - Русский
Озвучка # 4: Профессиональный многоголосый -Английский - Оригинал
2Сезон
Озвучка # 1: Профессиональный Дубляж - SDI Media - Русский
Озвучка # 2: Профессиональный многоголосый -Английский - Оригинал
3Сезон
Озвучка # 1: Профессиональный Дубляж - BTI Studios совместно со студией Невафильм - Русский
Озвучка # 2: Профессиональный многоголосый- Jaskier - Русский
Озвучка # 3: Профессиональный многоголосый -Английский - Оригинал
4 Сезон
Озвучка # 1: Профессиональный Дубляж - SDI Media - Русский
Озвучка # 2: Профессиональный многоголосый- Jaskier - Русский
Озвучка # 3: Профессиональный многоголосый- NewStudio - Русский
Озвучка # 4: Профессиональный многоголосый -Английский - Оригинал
--Субтитры: Aнглийские--Релиз Без Рекламы --MDB 8.6 --Режиссеры:
Бенжамин Карон, Стивен Долдри, Филип Мартин --В ролях: Клер Фой, Мэтт Смит, Ванесса Кирби, Айлин Эткинс, Джереми Нортэм, Виктория Хэмилтон, Бен Майлз, Грег Уайз, Джаред Харрис, Джон Литгоу, Дэниэл Беттс, Джеймс Хиллер, Ник Оуэнфорд, Мартин Бишоп, Рита МакДональд Дампер, Хорхе Леон Мартинес, Карл Фаррер, Майкл Кокрейн -- История королевы Елизаветы II с момента её свадьбы в 1947 году до настоящего времени.
--

ТЕХ.ДАННЫЕ:

Качество : -1Сзон- BluRay - HEVC 10bit - 1080p
Формат: MKV
Видео кодек: H265
Видео: 3998 Кбит/сек,1920х960 , (2,000),в 23.976 кадр/сек, HEVC (Main10@L4@Main)--Аудио Кодек:Аудио Кодек : AAC
Аудио #1: DUB-Rus- SDI Media @DD5.1 AAC , 384 Kbps, 48.0 KHz, 6 ch - SDI Media - Русский
Аудио #2: MVO LostFilm @DD5.1 AAC , 299 Kbps, 48.0 KHz, 6 ch - LostFilm - Русский
Аудио #3: MVO Jaskier @DD5.1 AAC , 384 Kbps, 48.0 KHz, 6 ch - Jaskier - Русский
Аудио #4: English @DD5.1 AAC , 384 Kbps, 48.0 KHz, 6 ch - English - Оригинал--Качество : -2Сзон- BluRay - HEVC 10bit - 1080p
Формат: MKV
Видео кодек: H265
Видео: 3998 Кбит/сек,1920х960 , (2,000),в 23.976 кадр/сек, HEVC (Main10@L4@Main)--Аудио Кодек:Аудио Кодек : AAC
Аудио #1: DUB-Rus- SDI Media @DD5.1 AAC , 384 Kbps, 48.0 KHz, 6 ch - SDI Media - Русский
Аудио #2: English @DD5.1 AAC , 384 Kbps, 48.0 KHz, 6 ch - English - Оригинал
Качество : -3Сзон- BluRay - HEVC 10bit - 1080p
Формат: MKV
Видео кодек: H265
Видео: 4018 Кбит/сек,1920х960 , (2,000),в 23.976 кадр/сек, HEVC (Main10@L4@Main)--Аудио Кодек:Аудио Кодек : AAC
Аудио #1: DUB-Rus-BTI Studios совместно со студией Невафильм @DD5.1 AAC , 413 Kbps, 48.0 KHz, 6 ch - BTI Studios совместно со студией Невафильм - Русский
Аудио #2: MVO Jaskier @DD5.1 AAC , 442 Kbps, 48.0 KHz, 6 ch- Jaskier - Русский
Аудио #3: English @DD5.1 AAC , 441 Kbps, 48.0 KHz, 6 ch- English - Оригинал
Качество : WEB-DLRip- HDR - -4 Сзон- HEVC 10bit - 1080p
Формат: MKV
Видео кодек: H265
Видео: 5271 Кбит/сек,1920х1080 , (16/9),в 25.000 кадр/сек, HEVC (Main10@MainHDR10 )--Аудио Кодек:Аудио Кодек : AAC
Аудио #1: DUB-Rus- SDI Media @DD5.1 AAC , 384 Kbps, 48.0 KHz, 6 ch - SDI Media - Русский
Аудио #2: MVO NewStudio @DD5.1 AAC , 299 Kbps, 48.0 KHz, 6 ch - NewStudio - Русский
Аудио #3: MVO Jaskier @DD5.1 AAC , 384 Kbps, 48.0 KHz, 6 ch - Jaskier - Русский
Аудио #4: English @DD5.1 AAC , 384 Kbps, 48.0 KHz, 6 ch - English - Оригинал[/color
-- --

Список эпизодов сезона

1Сзон
1 сезон 1 серия - Вулфертон Сплэш - Wolferton Splash
1 сезон 2 серия - Угол Гайд-парка - Hyde Park Corner
1 сезон 3 серия - Виндзор- Windsor
1 сезон 4 серия - Промысел Божий - Act of God
1 сезон 5 серия - Пыль в глаза - Smoke and Mirrors
1 сезон 6 серия - Бомба - Gelignite
1 сезон 7 серия - Знание — сила - Scientia Potentia Est
1 сезон 8 серия - Гордость и радость - Pride & Joyy
1 сезон 9 серия - Убийцы - Assassins
1 сезон 10 серия - Глориана - Gloriana

2Сезон
2 сезон 1 серия - Авантюра - Misadventure
2 сезон 2 серия - Мужская компания - A Company of Men
2 сезон 3 серия - Лиссабон - Lisbon
2 сезон 4 серия - Берилл - Beryl
2 сезон 5 серия - Марионетки - Marionettes
2 сезон 6 серия - Прошлое - Vergangenheit
2 сезон 7 серия - Брачные узы - Matrimonium
2 сезон 8 серия - Дорогая миссис Кеннеди - Dear Mrs. Kennedy
2 сезон 9 серия - Отец семейства - Paterfamilias
2 сезон 10 серия - Таинственный человек - Mystery Man

3Сзон
3 сезон 1 серия - Олдинг - Olding
3 сезон 2 серия -- Маргаретология - Margaretology
3 сезон 3 серия - Аберфан - Aberfan
3 сезон 4 серия - Баббикинс - Bubbikins
3 сезон 5 серия - Путч - Coup
3 сезон 6 серия - Принц Уэльский - Tywysog Cymru
3 сезон 7 серия - Лунная пыль - Moondust
3 сезон 8 серия - Между небом и землей - Dangling Man
3 сезон 9 серия - Путаница - Imbroglio
3 сезон 10 серия - Крик души - Cri de Coeur

4Сезон
4 сезон 1 серия - Золотой жезл - Gold Stick
4 сезон 2 серия - Испытание Балморалом - The Balmoral Test
4 сезон 3 серия - Сказка - Fairytale
4 сезон 4 серия - Любимчики - Favourites
4 сезон 5 серия - Фэйган - Fagan
--

MediaInfo 1Сзон

бщее
Уникальный идентификатор : 123916769164198445902270121345337887304 (0x5D39806B1E71CD3C2B08F7D3DF958A48)
Полное имя : E:\Baranov\Корона - The Crown\The_Crown_S01_HD_1080__x265_HEVC-10bitt_DD5.1_N.B_3xRus_Eng\The_Crown_S01E01_BluRay_1080_HEVC_DD5.1_N.B_3xRus_Eng.mkv
Формат : Matroska
Версия формата : Version 4
Размер файла : 2,24 Гбайт
Продолжительность : 58 м. 30 с.
Общий поток : 5 475 Кбит/сек
Название фильма : 2016 The Crown S01E01 @ Nikolai.Baranov & PIRATIYA
Дата кодирования : UTC 2021-06-02 15:42:25
Программа кодирования : mkvmerge v57.0.0 ('Till The End') 64-bit
Библиотека кодирования : libebml v1.4.2 + libmatroska v1.6.4
Видео
Идентификатор : 1
Формат : HEVC
Формат/Информация : High Efficiency Video Coding
Профиль формата : Main 10@L4@Main
Идентификатор кодека : V_MPEGH/ISO/HEVC
Продолжительность : 58 м. 30 с.
Битрейт : 3 998 Кбит/сек
Ширина : 1 920 пикселей
Высота : 960 пикселей
Соотношение сторон : 2,000
Режим частоты кадров : Постоянный
Частота кадров : 23,976 (24000/1001) кадра/сек
Цветовое пространство : YUV
Субдискретизация насыщенности : 4:2:0
Битовая глубина : 10 бит
Бит/(Пиксели*Кадры) : 0.090
Размер потока : 1,63 Гбайт (73%)
Заголовок : The_Crown_S01E01_BluRay_1080_HEVC_DD5.1_N.B_3xRus_Eng
Библиотека кодирования : x265 2.9+8-27d8424c799d:[Windows][GCC 8.2.0][64 bit] 10bit
Настройки программы : cpuid=1111039 / frame-threads=3 / numa-pools=12 / wpp / no-pmode / no-pme / no-psnr / no-ssim / log-level=2 / input-csp=1 / input-res=1920x960 / interlace=0 / total-frames=84159 / level-idc=0 / high-tier=1 / uhd-bd=0 / ref=4 / no-allow-non-conformance / no-repeat-headers / annexb / no-aud / no-hrd / info / hash=0 / no-temporal-layers / open-gop / min-keyint=23 / keyint=250 / gop-lookahead=0 / bframes=8 / b-adapt=2 / b-pyramid / bframe-bias=0 / rc-lookahead=80 / lookahead-slices=4 / scenecut=40 / radl=0 / no-intra-refresh / ctu=64 / min-cu-size=8 / no-rect / no-amp / max-tu-size=32 / tu-inter-depth=1 / tu-intra-depth=1 / limit-tu=0 / rdoq-level=2 / dynamic-rd=0.00 / no-ssim-rd / signhide / no-tskip / nr-intra=0 / nr-inter=0 / no-constrained-intra / no-strong-intra-smoothing / max-merge=3 / limit-refs=3 / limit-modes / me=3 / subme=5 / merange=57 / temporal-mvp / weightp / weightb / no-analyze-src-pics / deblock=-3:-3 / no-sao / no-sao-non-deblock / rd=4 / no-early-skip / rskip / no-fast-intra / no-tskip-fast / no-cu-lossless / no-b-intra / no-splitrd-skip / rdpenalty=0 / psy-rd=2.00 / psy-rdoq=3.50 / no-rd-refine / no-lossless / cbqpoffs=0 / crqpoffs=0 / rc=abr / bitrate=4000 / qcomp=0.60 / qpstep=4 / stats-write=0 / stats-read=2 / cplxblur=20.0 / qblur=0.5 / ipratio=1.40 / pbratio=1.30 / aq-mode=3 / aq-strength=1.00 / cutree / zone-count=0 / no-strict-cbr / qg-size=32 / no-rc-grain / qpmax=69 / qpmin=0 / no-const-vbv / sar=0 / overscan=0 / videoformat=5 / range=0 / colorprim=2 / transfer=2 / colormatrix=2 / chromaloc=0 / display-window=0 / max-cll=0,0 / min-luma=0 / max-luma=1023 / log2-max-poc-lsb=8 / vui-timing-info / vui-hrd-info / slices=1 / no-opt-qp-pps / no-opt-ref-list-length-pps / no-multi-pass-opt-rps / scenecut-bias=0.00 / no-opt-cu-delta-qp / no-aq-motion / no-hdr / no-hdr-opt / no-dhdr10-opt / no-idr-recovery-sei / analysis-reuse-level=5 / scale-factor=0 / refine-intra=0 / refine-inter=0 / refine-mv=0 / no-limit-sao / ctu-info=0 / no-lowpass-dct / refine-mv-type=0 / copy-pic=1 / max-ausize-factor=1.0 / no-dynamic-refine / no-single-sei
Язык : Russian
Default : Да
Forced : Нет
Аудио #1
Идентификатор : 2
Формат : AAC LC
Формат/Информация : Advanced Audio Codec Low Complexity
Идентификатор кодека : A_AAC-2
Продолжительность : 58 м. 30 с.
Битрейт : 384 Кбит/сек
Каналы : 6 каналов
Channel layout : C L R Ls Rs LFE
Частота : 48,0 КГц
Частота кадров : 46,875 кадров/сек (1024 SPF)
Метод сжатия : С потерями
Размер потока : 158 Мбайт (7%)
Заголовок : DUB-Rus- SDI Media @DD5.1 AAC , 384 Kbps, 48.0 KHz, 6 ch
Язык : Russian
Default : Да
Forced : Нет
Аудио #2
Идентификатор : 3
Формат : AAC LC
Формат/Информация : Advanced Audio Codec Low Complexity
Идентификатор кодека : A_AAC-2
Продолжительность : 58 м. 30 с.
Битрейт : 384 Кбит/сек
Каналы : 6 каналов
Channel layout : C L R Ls Rs LFE
Частота : 48,0 КГц
Частота кадров : 46,875 кадров/сек (1024 SPF)
Метод сжатия : С потерями
Размер потока : 159 Мбайт (7%)
Заголовок : English @DD5.1 AAC , 384 Kbps, 48.0 KHz, 6 ch
Язык : English
Default : Нет
Forced : Нет
Аудио #3
Идентификатор : 5
Формат : AAC LC
Формат/Информация : Advanced Audio Codec Low Complexity
Идентификатор кодека : A_AAC-2
Продолжительность : 58 м. 30 с.
Битрейт : 300 Кбит/сек
Каналы : 6 каналов
Channel layout : C L R Ls Rs LFE
Частота : 48,0 КГц
Частота кадров : 46,875 кадров/сек (1024 SPF)
Метод сжатия : С потерями
Размер потока : 125 Мбайт (5%)
Заголовок : MVO LostFilm @DD5.1 AAC , 299 Kbps, 48.0 KHz, 6 ch
Язык : Russian
Default : Нет
Forced : Нет
Аудио #4
Идентификатор : 6
Формат : AAC LC
Формат/Информация : Advanced Audio Codec Low Complexity
Идентификатор кодека : A_AAC-2
Продолжительность : 58 м. 30 с.
Битрейт : 416 Кбит/сек
Каналы : 6 каналов
Channel layout : C L R Ls Rs LFE
Частота : 48,0 КГц
Частота кадров : 46,875 кадров/сек (1024 SPF)
Метод сжатия : С потерями
Размер потока : 174 Мбайт (8%)
Заголовок : MVO Jaskier @DD5.1 AAC , 384 Kbps, 48.0 KHz, 6 ch
Язык : Russian
Default : Нет
Forced : Нет
Текст
Идентификатор : 4
Формат : UTF-8
Идентификатор кодека : S_TEXT/UTF8
Идентификатор кодека/Информация : UTF-8 Plain Text
Продолжительность : 57 м. 3 с.
Битрейт : 51 бит/сек
Count of elements : 730
Размер потока : 21,7 Кбайт (0%)
Заголовок : Wolferton Splash--English - SDH
Язык : English
Default : Да
Forced : Нет
Меню
00:00:00.000 : Chapter 01
00:06:37.313 : Chapter 02
00:11:50.501 : Chapter 03
00:19:04.935 : Chapter 04
00:32:04.464 : Chapter 05
00:41:42.917 : Chapter 06
00:51:20.410 : Chapter 07
00:57:11.469 : Chapter 08
--

MediaInfo 2Сзон

Общее
Уникальный идентификатор : 277838837605559559805554239540976974271 (0xD105D04F0673F008AD138CADA43C79BF)
Полное имя : E:\Baranov\Корона - The Crown\The_Crown_S01-S02_HD_1080__x265_HEVC-10bitt_DD5.1_N.B_3xRus_Eng\S02\The_Crown_S02E01_BluRay_1080_HEVC_DD5.1_N.B_Rus_Eng.mkv
Формат : Matroska
Версия формата : Version 4
Размер файла : 1,99 Гбайт
Продолжительность : 58 м. 27 с.
Общий поток : 4 875 Кбит/сек
Название фильма : 2017 The Crown S02E01 @ Nikolai.Baranov & PIRATIYA
Дата кодирования : UTC 2021-07-04 15:31:27
Программа кодирования : mkvmerge v58.0.0 ('Supper's Ready') 64-bit
Библиотека кодирования : libebml v1.4.2 + libmatroska v1.6.4
Видео
Идентификатор : 1
Формат : HEVC
Формат/Информация : High Efficiency Video Coding
Профиль формата : Main 10@L4@Main
Идентификатор кодека : V_MPEGH/ISO/HEVC
Продолжительность : 58 м. 27 с.
Битрейт : 3 997 Кбит/сек
Ширина : 1 920 пикселей
Высота : 960 пикселей
Соотношение сторон : 2,000
Режим частоты кадров : Постоянный
Частота кадров : 23,976 (24000/1001) кадра/сек
Цветовое пространство : YUV
Субдискретизация насыщенности : 4:2:0
Битовая глубина : 10 бит
Бит/(Пиксели*Кадры) : 0.090
Размер потока : 1,63 Гбайт (82%)
Заголовок : The_Crown_S02E01_BluRay_1080_HEVC_DD5.1_N.B_Rus_Eng
Библиотека кодирования : x265 2.9+8-27d8424c799d:[Windows][GCC 8.2.0][64 bit] 10bit
Настройки программы : cpuid=1111039 / frame-threads=3 / numa-pools=12 / wpp / no-pmode / no-pme / no-psnr / no-ssim / log-level=2 / input-csp=1 / input-res=1920x960 / interlace=0 / total-frames=84106 / level-idc=0 / high-tier=1 / uhd-bd=0 / ref=4 / no-allow-non-conformance / no-repeat-headers / annexb / no-aud / no-hrd / info / hash=0 / no-temporal-layers / open-gop / min-keyint=23 / keyint=250 / gop-lookahead=0 / bframes=8 / b-adapt=2 / b-pyramid / bframe-bias=0 / rc-lookahead=80 / lookahead-slices=4 / scenecut=40 / radl=0 / no-intra-refresh / ctu=64 / min-cu-size=8 / no-rect / no-amp / max-tu-size=32 / tu-inter-depth=1 / tu-intra-depth=1 / limit-tu=0 / rdoq-level=2 / dynamic-rd=0.00 / no-ssim-rd / signhide / no-tskip / nr-intra=0 / nr-inter=0 / no-constrained-intra / no-strong-intra-smoothing / max-merge=3 / limit-refs=3 / limit-modes / me=3 / subme=5 / merange=57 / temporal-mvp / weightp / weightb / no-analyze-src-pics / deblock=-3:-3 / no-sao / no-sao-non-deblock / rd=4 / no-early-skip / rskip / no-fast-intra / no-tskip-fast / no-cu-lossless / no-b-intra / no-splitrd-skip / rdpenalty=0 / psy-rd=2.00 / psy-rdoq=3.50 / no-rd-refine / no-lossless / cbqpoffs=0 / crqpoffs=0 / rc=abr / bitrate=4000 / qcomp=0.60 / qpstep=4 / stats-write=0 / stats-read=2 / cplxblur=20.0 / qblur=0.5 / ipratio=1.40 / pbratio=1.30 / aq-mode=3 / aq-strength=1.00 / cutree / zone-count=0 / no-strict-cbr / qg-size=32 / no-rc-grain / qpmax=69 / qpmin=0 / no-const-vbv / sar=0 / overscan=0 / videoformat=5 / range=0 / colorprim=2 / transfer=2 / colormatrix=2 / chromaloc=0 / display-window=0 / max-cll=0,0 / min-luma=0 / max-luma=1023 / log2-max-poc-lsb=8 / vui-timing-info / vui-hrd-info / slices=1 / no-opt-qp-pps / no-opt-ref-list-length-pps / no-multi-pass-opt-rps / scenecut-bias=0.00 / no-opt-cu-delta-qp / no-aq-motion / no-hdr / no-hdr-opt / no-dhdr10-opt / no-idr-recovery-sei / analysis-reuse-level=5 / scale-factor=0 / refine-intra=0 / refine-inter=0 / refine-mv=0 / no-limit-sao / ctu-info=0 / no-lowpass-dct / refine-mv-type=0 / copy-pic=1 / max-ausize-factor=1.0 / no-dynamic-refine / no-single-sei
Язык : Russian
Default : Да
Forced : Нет
Аудио #1
Идентификатор : 4
Формат : AAC LC
Формат/Информация : Advanced Audio Codec Low Complexity
Идентификатор кодека : A_AAC-2
Продолжительность : 58 м. 27 с.
Битрейт : 410 Кбит/сек
Каналы : 6 каналов
Channel layout : C L R Ls Rs LFE
Частота : 48,0 КГц
Частота кадров : 46,875 кадров/сек (1024 SPF)
Метод сжатия : С потерями
Размер потока : 171 Мбайт (8%)
Заголовок : DUB-Rus- SDI Media @DD5.1 AAC , 384 Kbps, 48.0 KHz, 6 ch
Язык : Russian
Default : Да
Forced : Нет
Аудио #2
Идентификатор : 5
Формат : AAC LC
Формат/Информация : Advanced Audio Codec Low Complexity
Идентификатор кодека : A_AAC-2
Продолжительность : 58 м. 27 с.
Битрейт : 454 Кбит/сек
Каналы : 6 каналов
Channel layout : C L R Ls Rs LFE
Частота : 48,0 КГц
Частота кадров : 46,875 кадров/сек (1024 SPF)
Метод сжатия : С потерями
Размер потока : 190 Мбайт (9%)
Заголовок : English @DD5.1 AAC , 384 Kbps, 48.0 KHz, 6 ch
Язык : English
Default : Да
Forced : Нет
Текст #1
Идентификатор : 2
Формат : UTF-8
Идентификатор кодека : S_TEXT/UTF8
Идентификатор кодека/Информация : UTF-8 Plain Text
Продолжительность : 46 м. 25 с.
Битрейт : 6 бит/сек
Count of elements : 37
Размер потока : 2,07 Кбайт (0%)
Заголовок : Авантюра -Russian-Forced
Язык : Russian
Default : Да
Forced : Нет
Текст #2
Идентификатор : 3
Формат : UTF-8
Идентификатор кодека : S_TEXT/UTF8
Идентификатор кодека/Информация : UTF-8 Plain Text
Продолжительность : 55 м. 7 с.
Битрейт : 93 бит/сек
Count of elements : 604
Размер потока : 37,8 Кбайт (0%)
Заголовок : Авантюра -Russian
Язык : Russian
Default : Да
Forced : Нет
Текст #3
Идентификатор : 6
Формат : PGS
Режим смешивания : zlib
Идентификатор кодека : S_HDMV/PGS
Идентификатор кодека/Информация : Picture based subtitle format used on BDs/HD-DVDs
Продолжительность : 17 м. 38 с.
Битрейт : 4 278 бит/сек
Count of elements : 56
Размер потока : 553 Кбайт (0%)
Заголовок : Misadventure-English-Forced
Язык : English
Default : Да
Forced : Нет
Текст #4
Идентификатор : 7
Формат : PGS
Режим смешивания : zlib
Идентификатор кодека : S_HDMV/PGS
Идентификатор кодека/Информация : Picture based subtitle format used on BDs/HD-DVDs
Продолжительность : 55 м. 47 с.
Битрейт : 38,1 Кбит/сек
Count of elements : 1419
Размер потока : 15,2 Мбайт (1%)
Заголовок : Misadventure-English - SDH
Язык : English
Default : Да
Forced : Нет
Меню
00:00:00.000 : Chapter 01
00:06:07.283 : Chapter 02
00:11:51.585 : Chapter 03
00:29:27.640 : Chapter 04
00:31:34.017 : Chapter 05
00:40:25.965 : Chapter 06
00:49:08.111 : Chapter 07
00:56:54.285 : Chapter 08
--

MediaInfo 3Сзон

Общее
Уникальный идентификатор : 255651798314251468863676529491972587389 (0xC054BED0A2099E30FCA0E49C42B5FF7D)
Полное имя : F:\Новая папка (3)\The_Crown_S03E01_BluRay_1080_HEVC_DD5.1_N.B_2хRus_Eng.mkv
Формат : Matroska
Версия формата : Version 4
Размер файла : 1,82 Гбайт
Продолжительность : 48 м. 57 с.
Общий поток : 5 335 Кбит/сек
Название фильма : 2019 The Crown S03E01 @ Nikolai.Baranov & PIRATIYA
Дата кодирования : UTC 2021-08-07 04:54:32
Программа кодирования : mkvmerge v60.0.0 ('Are We Copies?') 64-bit
Библиотека кодирования : libebml v1.4.2 + libmatroska v1.6.4
Writing frontend : StaxRip v1.7.0.6
Видео
Идентификатор : 1
Формат : HEVC
Формат/Информация : High Efficiency Video Coding
Профиль формата : Main 10@L4@Main
Идентификатор кодека : V_MPEGH/ISO/HEVC
Продолжительность : 48 м. 57 с.
Битрейт : 4 018 Кбит/сек
Ширина : 1 920 пикселей
Высота : 960 пикселей
Соотношение сторон : 2,000
Режим частоты кадров : Постоянный
Частота кадров : 23,976 (24000/1001) кадра/сек
Цветовое пространство : YUV
Субдискретизация насыщенности : 4:2:0
Битовая глубина : 10 бит
Бит/(Пиксели*Кадры) : 0.091
Размер потока : 1,37 Гбайт (75%)
Заголовок : The_Crown_S03E01_BluRay_1080_HEVC_DD5.1_N.B_2хRus_Eng
Библиотека кодирования : x265 3.4+6-g73f96ff39:[Windows][GCC 11.0.0][64 bit] 10bit
Настройки программы : cpuid=1111039 / frame-threads=4 / numa-pools=24 / wpp / no-pmode / no-pme / no-psnr / no-ssim / log-level=2 / input-csp=1 / input-res=1920x960 / interlace=0 / total-frames=70428 / level-idc=0 / high-tier=1 / uhd-bd=0 / ref=5 / no-allow-non-conformance / no-repeat-headers / annexb / no-aud / no-hrd / info / hash=0 / no-temporal-layers / open-gop / min-keyint=23 / keyint=250 / gop-lookahead=0 / bframes=8 / b-adapt=2 / b-pyramid / bframe-bias=0 / rc-lookahead=80 / lookahead-slices=4 / scenecut=40 / hist-scenecut=0 / radl=0 / no-splice / no-intra-refresh / ctu=64 / min-cu-size=8 / no-rect / no-amp / max-tu-size=32 / tu-inter-depth=1 / tu-intra-depth=1 / limit-tu=0 / rdoq-level=2 / dynamic-rd=0.00 / no-ssim-rd / signhide / no-tskip / nr-intra=0 / nr-inter=0 / no-constrained-intra / no-strong-intra-smoothing / max-merge=3 / limit-refs=3 / limit-modes / me=3 / subme=5 / merange=57 / temporal-mvp / no-frame-dup / no-hme / weightp / no-weightb / no-analyze-src-pics / deblock=-3:-3 / no-sao / no-sao-non-deblock / rd=4 / selective-sao=0 / no-early-skip / rskip / no-fast-intra / no-tskip-fast / no-cu-lossless / no-b-intra / no-splitrd-skip / rdpenalty=0 / psy-rd=2.00 / psy-rdoq=1.00 / no-rd-refine / no-lossless / cbqpoffs=0 / crqpoffs=0 / rc=crf / crf=17.0 / qcomp=0.60 / qpstep=4 / stats-write=0 / stats-read=0 / ipratio=1.40 / pbratio=1.30 / aq-mode=3 / aq-strength=1.00 / cutree / zone-count=0 / no-strict-cbr / qg-size=32 / no-rc-grain / qpmax=69 / qpmin=0 / no-const-vbv / sar=0 / overscan=0 / videoformat=5 / range=0 / colorprim=2 / transfer=2 / colormatrix=2 / chromaloc=0 / display-window=0 / cll=0,0 / min-luma=0 / max-luma=1023 / log2-max-poc-lsb=8 / vui-timing-info / vui-hrd-info / slices=1 / no-opt-qp-pps / no-opt-ref-list-length-pps / no-multi-pass-opt-rps / scenecut-bias=0.05 / hist-threshold=0.01 / no-opt-cu-delta-qp / no-aq-motion / no-hdr10 / no-hdr10-opt / no-dhdr10-opt / no-idr-recovery-sei / analysis-reuse-level=0 / analysis-save-reuse-level=0 / analysis-load-reuse-level=0 / scale-factor=0 / refine-intra=0 / refine-inter=0 / refine-mv=1 / refine-ctu-distortion=0 / no-limit-sao / ctu-info=0 / no-lowpass-dct / refine-analysis-type=0 / copy-pic=1 / max-ausize-factor=1.0 / no-dynamic-refine / no-single-sei / no-hevc-aq / no-svt / no-field / qp-adaptation-range=1.00 / no-scenecut-aware-qpconformance-window-offsets / right=0 / bottom=0 / decoder-max-rate=0
Язык : Russian
Default : Да
Forced : Нет
Аудио #1
Идентификатор : 2
Формат : AAC LC
Формат/Информация : Advanced Audio Codec Low Complexity
Идентификатор кодека : A_AAC-2
Продолжительность : 48 м. 57 с.
Битрейт : 413 Кбит/сек
Каналы : 6 каналов
Channel layout : C L R Ls Rs LFE
Частота : 48,0 КГц
Частота кадров : 46,875 кадров/сек (1024 SPF)
Метод сжатия : С потерями
Размер потока : 145 Мбайт (8%)
Заголовок : DUB-Rus-BTI Studios совместно со студией Невафильм @DD5.1 AAC , 413 Kbps, 48.0 KHz, 6 ch
Язык : Russian
Default : Да
Forced : Нет
Аудио #2
Идентификатор : 3
Формат : AAC LC
Формат/Информация : Advanced Audio Codec Low Complexity
Идентификатор кодека : A_AAC-2
Продолжительность : 48 м. 57 с.
Битрейт : 442 Кбит/сек
Каналы : 6 каналов
Channel layout : C L R Ls Rs LFE
Частота : 48,0 КГц
Частота кадров : 46,875 кадров/сек (1024 SPF)
Метод сжатия : С потерями
Размер потока : 155 Мбайт (8%)
Заголовок : MVO Jaskier @DD5.1 AAC , 442 Kbps, 48.0 KHz, 6 ch
Язык : Russian
Default : Да
Forced : Нет
Аудио #3
Идентификатор : 4
Формат : AAC LC
Формат/Информация : Advanced Audio Codec Low Complexity
Идентификатор кодека : A_AAC-2
Продолжительность : 48 м. 57 с.
Битрейт : 441 Кбит/сек
Каналы : 6 каналов
Channel layout : C L R Ls Rs LFE
Частота : 48,0 КГц
Частота кадров : 46,875 кадров/сек (1024 SPF)
Метод сжатия : С потерями
Размер потока : 154 Мбайт (8%)
Заголовок : English @DD5.1 AAC , 441 Kbps, 48.0 KHz, 6 ch
Язык : English
Default : Да
Forced : Нет
Текст
Идентификатор : 5
Формат : PGS
Режим смешивания : zlib
Идентификатор кодека : S_HDMV/PGS
Идентификатор кодека/Информация : Picture based subtitle format used on BDs/HD-DVDs
Продолжительность : 48 м. 32 с.
Битрейт : 41,0 Кбит/сек
Count of elements : 1350
Размер потока : 14,2 Мбайт (1%)
Заголовок : _Olding-English - SDH
Язык : English
Default : Да
Forced : Нет
Меню
00:00:00.000 : Chapter 01
00:04:13.586 : Chapter 02
00:12:03.806 : Chapter 03
00:19:00.347 : Chapter 04
00:28:15.402 : Chapter 05
00:37:51.686 : Chapter 06
00:47:24.007 : Chapter 07
--

MediaInfo 4 Сзон

Общее
Уникальный идентификатор : 18843136519093321445714827269586849147 (0xE2D0E5BB4DBF075A366DA513BF08D7B)
Полное имя : E:\Baranov\Корона - The Crown\The_Crown_S01-S04_HD_1080__x265_HEVC-10bitt_DD5.1_N.B_3xRus_Eng\S04\The.Crown_S04E01-WEB-HDR_1080_HEVC_DD5.1_N.B_3хRus_Eng.mkv
Формат : Matroska
Версия формата : Version 4
Размер файла : 2,59 Гбайт
Продолжительность : 54 м. 12 с.
Общий поток : 6 828 Кбит/сек
Название фильма : 2020 The Crown S04E01 @ Nikolai.Baranov & PIRATIYA
Дата кодирования : UTC 2021-09-11 18:34:24
Программа кодирования : mkvmerge v61.0.0 ('So') 64-bit
Библиотека кодирования : libebml v1.4.2 + libmatroska v1.6.4
Видео
Идентификатор : 1
Формат : HEVC
Формат/Информация : High Efficiency Video Coding
Профиль формата : Main 10@L4@Main
HDR format : SMPTE ST 2086, HDR10 compatible
Идентификатор кодека : V_MPEGH/ISO/HEVC
Продолжительность : 52 м. 40 с.
Битрейт : 5 271 Кбит/сек
Ширина : 1 920 пикселей
Высота : 1 080 пикселей
Соотношение сторон : 16:9
Режим частоты кадров : Постоянный
Частота кадров : 25,000 кадров/сек
Цветовое пространство : YUV
Субдискретизация насыщенности : 4:2:0 (Type 2)
Битовая глубина : 10 бит
Бит/(Пиксели*Кадры) : 0.102
Размер потока : 1,94 Гбайт (75%)
Заголовок : The.Crown_S04E01-WEB-HDR_1080_HEVC_DD5.1_N.B_3хRus_Eng
Язык : Russian
Default : Да
Forced : Нет
Цветовой диапазон : Limited
Основные цвета : BT.2020
Характеристики трансфера : PQ
Коэффициенты матрицы : BT.2020 non-constant
Mastering display color primaries : Display P3
Mastering display luminance : min: 0.0001 cd/m2, max: 1000 cd/m2
Maximum Content Light Level : 1647 cd/m2
Maximum Frame-Average Light Level : 153 cd/m2
Аудио #1
Идентификатор : 2
Формат : AAC LC
Формат/Информация : Advanced Audio Codec Low Complexity
Идентификатор кодека : A_AAC-2
Продолжительность : 54 м. 12 с.
Битрейт : 422 Кбит/сек
Каналы : 6 каналов
Channel layout : C L R Ls Rs LFE
Частота : 48,0 КГц
Частота кадров : 46,875 кадров/сек (1024 SPF)
Метод сжатия : С потерями
Размер потока : 164 Мбайт (6%)
Заголовок : DUB-Rus- SDI Media @DD5.1 AAC , 527 Kbps, 48.0 KHz, 6 ch
Язык : Russian
Default : Да
Forced : Нет
Аудио #2
Идентификатор : 3
Формат : AAC LC
Формат/Информация : Advanced Audio Codec Low Complexity
Идентификатор кодека : A_AAC-2
Продолжительность : 54 м. 12 с.
Битрейт : 457 Кбит/сек
Каналы : 6 каналов
Channel layout : C L R Ls Rs LFE
Частота : 48,0 КГц
Частота кадров : 46,875 кадров/сек (1024 SPF)
Метод сжатия : С потерями
Размер потока : 177 Мбайт (7%)
Заголовок : MVO Jaskier @DD5.1 AAC , 384 Kbps, 48.0 KHz, 6 ch
Язык : Russian
Default : Да
Forced : Нет
Аудио #3
Идентификатор : 4
Формат : AAC LC
Формат/Информация : Advanced Audio Codec Low Complexity
Идентификатор кодека : A_AAC-2
Продолжительность : 54 м. 12 с.
Битрейт : 401 Кбит/сек
Каналы : 6 каналов
Channel layout : C L R Ls Rs LFE
Частота : 48,0 КГц
Частота кадров : 46,875 кадров/сек (1024 SPF)
Метод сжатия : С потерями
Размер потока : 155 Мбайт (6%)
Заголовок : MVO NewStudio @DD5.1 AAC , 384 Kbps, 48.0 KHz, 6 ch
Язык : Russian
Default : Да
Forced : Нет
Аудио #4
Идентификатор : 5
Формат : AAC LC
Формат/Информация : Advanced Audio Codec Low Complexity
Идентификатор кодека : A_AAC-2
Продолжительность : 54 м. 12 с.
Битрейт : 422 Кбит/сек
Каналы : 6 каналов
Channel layout : C L R Ls Rs LFE
Частота : 48,0 КГц
Частота кадров : 46,875 кадров/сек (1024 SPF)
Метод сжатия : С потерями
Размер потока : 164 Мбайт (6%)
Заголовок : English @DD5.1 AAC , 441 Kbps, 48.0 KHz, 6 ch
Язык : English
Default : Да
Forced : Нет
Текст #1
Идентификатор : 6
Формат : UTF-8
Идентификатор кодека : S_TEXT/UTF8
Идентификатор кодека/Информация : UTF-8 Plain Text
Продолжительность : 52 м. 18 с.
Битрейт : 85 бит/сек
Count of elements : 599
Размер потока : 32,8 Кбайт (0%)
Заголовок : Золотой жезл-Russian
Язык : Russian
Default : Да
Forced : Нет
Текст #2
Идентификатор : 7
Формат : UTF-8
Идентификатор кодека : S_TEXT/UTF8
Идентификатор кодека/Информация : UTF-8 Plain Text
Продолжительность : 50 м. 30 с.
Битрейт : 66 бит/сек
Count of elements : 678
Размер потока : 24,5 Кбайт (0%)
Заголовок : Gold Stick-English - SDH
Язык : English
Default : Да
Forced : Нет
Меню
00:08:27.840 : Intro start
00:09:35.560 : Intro end
00:51:10.000 : Credits
-- ----
1 Сезон
--
2 Сезон
--
3 Сезон
--
4 Сезон
--Внимание! Раздача пополняется по мере выхода новых серий!--

Внимание! Раздача ведётся путём добавления новых серий!

Раздача ведётся путём добавления новых серий; при каждом добавлении создётся новый торрент.
Чтобы начать докачку новой серии, пользователям необходимо сделать следующее:
1. остановить скачивание,
2. удалить старый торрент у себя из клиента (старые серии удалять не надо),
3. скачать новый торрент и запустить его у себя в клиенте вместо старого, при этом указать клиенту путь в старую папку, куда и должно происходить скачивание новых серий.
Ваш клиент при этом должен произвести хеширование (проверку) старой папки (если не производит сам - помогите ему сделать это), и будет докачивать только те серии которых у вас ещё нет. Старые серии при этом не удаляются, а продолжают раздаваться!
Eсли вы уже удалили старые серии, то предотвратить повторную закачку старых серий можно, отжав галочку в соответсвующих местах при запуске нового торрента. По возможности, желательно не удалять старые серии как можно дольше, чтобы релизёр не столько продолжал раздавать старые серии, а смог сконцентрироваться на новых.
Совет для тех, кто не хочет ждать перехеширования:
Создайте ещё одну папку рядом с папкой сериала (рядом, а не в ней!!!). Каждую новую серию после удачной загрузки копируйте в новую папку так чтобы ваша основная папка всегда была пуста. Когда ваш новый торрент предложит вам закачать все файлы, выберете только последнюю. Для сидирования же укажите адрес новой папки.
Как закачать отдельный файл из торрента или докачать ранее пропущенные файлы торрента!

Как закачать отдельный файл

1. Открыть торрент
2. Снять галки с тех файлов торрента, которые мы не хотим закачивать. Оставляем только на нужных нам файлах (файле).
3. Нажать О.К.
В клиенте utorrent
Инструкция
1) Открыть торрент

2) Снять галки с тех файлов торрента, которые мы не хотим закачивать:
* либо вручную, снимая с каждого файла галку( скрин №1)
* либо, нажав кнопку "Снять метки (Select None)", сняв сразу со всех файлов(скрин №2)
№1

№2

Оставляем только на нужных нам файлах (файле).

3)Нажать О.К
-- -- ----Внимание!! ! 26 . 09. 2021. РАЗДАЧА ОБНОВЛЕНА. ДОБАВЛЕНА- -4-5-СЕРИЯ-4Сезона ОБНОВИТЕ ТОРЕНТ ФАЙЛ. ПРИЯТНОГО ПРОСМОТРА . Поблагодарить:
ЯД: 410017546713876
--Релиз от: Nikolai.Baranov & PIRATIYA -- -- -- --Время раздачи : 24/7---
[Profile]  [PM] 
Display posts:    
Reply to topic

Current time is: 27-Sep 02:44

All times are UTC + 2



You cannot post new topics in this forum
You cannot reply to topics in this forum
You cannot edit your posts in this forum
You cannot delete your posts in this forum
You cannot vote in polls in this forum
You cannot attach files in this forum
You cannot download files in this forum