Рагнарёк / Ragnarok (Сезон 1-2 , Серия 1-12 из 12) (Могенс Х. Кристиансен, Янник Йохансен) [20-2021, Драма, фэнтези,HDR-Rip - HEVC - 1080p] [ DUB- Netflix+Eng]+[Subs Rus , ENG]

Reply to topic
 
Author
Message

Враг Нароода ®

Gender: Unknown

Longevity: 7 years

Posts: 495

Reputation: 1 [+] [-]

Враг Нароода · Post 08-Jun-2021 18:59

[Quote] 

-- -- Рагнарёк / Ragnarok - (Сезон 1-2 , Серия 1-12 из 12) - Полный Комплект --Год выпуска: 2020-2021
Выпущено: Норвегия, Дания, Sam Productions, NetFlix
Жанр: Драма, фэнтези
Продолжительность: 00:45:00 0
Сезон: 1 -2
Серия: 1-12
Количество серий в сезоне:12 --Озвучка # 1: Профессиональный Дубляж Netflix- Netflix - Русский
Озвучка # 2: Профессиональный многоголосый -Английский - Оригинал--

Субтитры :


Субтитры (UTF-8):вшитые
#1 - Русские - Russian (включены по умолчанию)
#2 - Английские- English (Forced)
#3- Английские - English (SDH)
#4- Английские - English
#5- Украинские


Внешние:
#1 - Русские - Russian
#2 - Английские- English (Forced)
#3- Английские - English (SDH)
#4- Английские - English
#5- Украинские
--Релиз Без Рекламы --MDB 7.5 -Режиссеры:
Могенс Х. Кристиансен, Янник Йохансен --В ролях: Давид Александр Шохолт, Йонас Страндт Гравлик, Герман Томмераас, Тереза Фростад Эгендсбо, Эмма Боунс, Генриетта Стинстрап, Гисли Орн Гардарссон, Синнове Макоди Лунд, Одд Магнус Уильямсон, Тани Дибасей -- В крошечный норвежский городок Эдда возвращаются с матерью сыновья-подростки Магне и Лориц. Их семья покинула Эдду много лет назад после гибели отца мальчишек, а теперь мать нашла тут работу: она устраивается бухгалтером на завод местных богачей Ютулов. Ютулы верховодят в Эдде повсюду: красавцы Фьор и Сакса — самые популярные подростки в школе, а их мать в этой школе директор. Их завод производит химикаты, и одноклассница Магне подозревает, что Ютулы каким-то образом загадили ртутью местный фьорд. Магне втягивается в её праведную борьбу и вскоре обнаруживает у себя суперспособность: он может метнуть молот больше чем на 500 метров.-- --Качество : HDR-Rip - HEVC 10bit - 1080p
Формат: MKV
Видео кодек: H265
Видео: 5669 Кбит/сек,1920х1080 , (19,6),в 24.000 кадр/сек, HEVC (Main10@L4@HDR 10Main )--Аудио Кодек:Аудио Кодек:AC3
Аудио #1: DUB-Rus- Netflix @DD5.1 E-AC3, 640 Kbps, 48.0 KHz, 6 ch- Netflix - Русский
Аудио #8: English @DD5.1 E-AC3, 640 Kbps, 48.0 KHz, 6 ch- English - Оригинал-

Доп. информация:

Звуковая дорожка сделана путем наложения чистого голоса озвучивателей на центральный канал оригинальной дорожки. Качество идентично звуковой дорожке.
--

MediaInfo 1 Сезон

Общее
Уникальный идентификатор : 70688737575201936472645882952773469550 (0x352E27D83337C313784CE1D4F8EB056E)
Полное имя : F:\Рагнарёк - Ragnarok\2020.Ragnarok.S01-S02.HDR.1080_HEVC-10bitt_DD5.1_N.B_DUB_Rus_Eng\S01\Ragnarok.S01E01.HDR.1080_HEVC_DD5.1_N.B_DUB_Rus_Eng.mkv
Формат : Matroska
Версия формата : Version 4
Размер файла : 2,21 Гбайт
Продолжительность : 45 м. 54 с.
Общий поток : 6 890 Кбит/сек
Название фильма : 2020 Ragnarok S01E01 @ Nikolai.Baranov & PIRATIYA
Дата кодирования : UTC 2021-06-08 10:33:25
Программа кодирования : mkvmerge v57.0.0 ('Till The End') 64-bit
Библиотека кодирования : libebml v1.4.2 + libmatroska v1.6.4
Обложка : Yes
Attachments : cover_land.jpg / small_cover.jpg / small_cover_land.jpg / cover.jpg
Видео
Идентификатор : 1
Формат : HEVC
Формат/Информация : High Efficiency Video Coding
Профиль формата : Main 10@L4@Main
HDR format : SMPTE ST 2086, HDR10 compatible
Идентификатор кодека : V_MPEGH/ISO/HEVC
Продолжительность : 45 м. 24 с.
Битрейт : 5 669 Кбит/сек
Ширина : 1 920 пикселей
Высота : 1 080 пикселей
Соотношение сторон : 16:9
Режим частоты кадров : Постоянный
Частота кадров : 24,000 кадра/сек
Цветовое пространство : YUV
Субдискретизация насыщенности : 4:2:0 (Type 2)
Битовая глубина : 10 бит
Бит/(Пиксели*Кадры) : 0.114
Размер потока : 1,80 Гбайт (81%)
Заголовок : Ragnarok.S01E01.HDR.1080_HEVC_DD5.1_N.B_DUB_Rus_Eng
Язык : Russian
Default : Да
Forced : Нет
Цветовой диапазон : Limited
Основные цвета : BT.2020
Характеристики трансфера : PQ
Коэффициенты матрицы : BT.2020 non-constant
Mastering display color primaries : Display P3
Mastering display luminance : min: 0.0001 cd/m2, max: 1000 cd/m2
Maximum Content Light Level : 4621 cd/m2
Maximum Frame-Average Light Level : 334 cd/m2
Аудио #1
Идентификатор : 2
Формат : E-AC-3
Формат/Информация : Enhanced AC-3
Коммерческое название : Dolby Digital Plus
Идентификатор кодека : A_EAC3
Продолжительность : 45 м. 54 с.
Вид битрейта : Постоянный
Битрейт : 640 Кбит/сек
Каналы : 6 каналов
Channel layout : L R C LFE Ls Rs
Частота : 48,0 КГц
Частота кадров : 31,250 кадров/сек (1536 SPF)
Метод сжатия : С потерями
Размер потока : 210 Мбайт (9%)
Заголовок : DUB-Rus- Netflix @DD5.1 E-AC3, 640 Kbps, 48.0 KHz, 6 ch
Язык : Russian
Service kind : Complete Main
Default : Нет
Forced : Нет
Аудио #2
Идентификатор : 3
Формат : E-AC-3
Формат/Информация : Enhanced AC-3
Коммерческое название : Dolby Digital Plus
Идентификатор кодека : A_EAC3
Продолжительность : 45 м. 54 с.
Вид битрейта : Постоянный
Битрейт : 640 Кбит/сек
Каналы : 6 каналов
Channel layout : L R C LFE Ls Rs
Частота : 48,0 КГц
Частота кадров : 31,250 кадров/сек (1536 SPF)
Метод сжатия : С потерями
Размер потока : 210 Мбайт (9%)
Заголовок : English @DD5.1 E-AC3, 640 Kbps, 48.0 KHz, 6 ch
Язык : English
Service kind : Complete Main
Default : Нет
Forced : Нет
Текст #1
Идентификатор : 4
Формат : UTF-8
Идентификатор кодека : S_TEXT/UTF8
Идентификатор кодека/Информация : UTF-8 Plain Text
Продолжительность : 42 м. 24 с.
Битрейт : 78 бит/сек
Count of elements : 438
Размер потока : 24,3 Кбайт (0%)
Заголовок : Russian
Язык : Russian
Default : Да
Forced : Нет
Текст #2
Идентификатор : 5
Формат : UTF-8
Идентификатор кодека : S_TEXT/UTF8
Идентификатор кодека/Информация : UTF-8 Plain Text
Продолжительность : 42 м. 24 с.
Битрейт : 78 бит/сек
Count of elements : 438
Размер потока : 24,3 Кбайт (0%)
Заголовок : English -Forced
Язык : English
Default : Нет
Forced : Нет
Текст #3
Идентификатор : 6
Формат : UTF-8
Идентификатор кодека : S_TEXT/UTF8
Идентификатор кодека/Информация : UTF-8 Plain Text
Продолжительность : 43 м. 55 с.
Битрейт : 60 бит/сек
Count of elements : 622
Размер потока : 19,4 Кбайт (0%)
Заголовок : English - SDH
Язык : English
Default : Нет
Forced : Нет
Текст #4
Идентификатор : 7
Формат : UTF-8
Идентификатор кодека : S_TEXT/UTF8
Идентификатор кодека/Информация : UTF-8 Plain Text
Продолжительность : 42 м. 24 с.
Битрейт : 52 бит/сек
Count of elements : 452
Размер потока : 16,3 Кбайт (0%)
Заголовок : -English
Язык : English
Default : Нет
Forced : Нет
Текст #5
Идентификатор : 8
Формат : UTF-8
Идентификатор кодека : S_TEXT/UTF8
Идентификатор кодека/Информация : UTF-8 Plain Text
Продолжительность : 45 м. 9 с.
Битрейт : 71 бит/сек
Count of elements : 455
Размер потока : 23,7 Кбайт (0%)
Заголовок : Ukrr
Язык : Ukrainian
Default : Нет
Forced : Нет
Меню
00:00:00.000 : ru:Глава 01 / ru:Глава 01 / ru:Глава 01 / ru:Глава 01 / ru:Глава 01 / ru:Глава 01 / ru:Глава 01 / ru:Глава 01
--

MediaInfo 2 Сезон

Общее
Уникальный идентификатор : 11091937652064851826187978993752319606 (0x8583ABFA13AFEE554C5D57CA25FA676)
Полное имя : F:\Рагнарёк - Ragnarok\2020.Ragnarok.S01-S02.HDR.1080_HEVC-10bitt_DD5.1_N.B_DUB_Rus_Eng\S02\Ragnarok.S02E01.HDR.1080_HEVC_DD5.1_N.B_DUB_Rus_Eng.mkv
Формат : Matroska
Версия формата : Version 4
Размер файла : 2,31 Гбайт
Продолжительность : 50 м. 14 с.
Общий поток : 6 583 Кбит/сек
Название фильма : 2021 Ragnarok S02E01 @ Nikolai.Baranov & PIRATIYA
Дата кодирования : UTC 2021-06-07 11:20:59
Программа кодирования : mkvmerge v57.0.0 ('Till The End') 64-bit
Библиотека кодирования : libebml v1.4.2 + libmatroska v1.6.4
Обложка : Yes
Attachments : cover_land.jpg / small_cover.jpg / small_cover_land.jpg / cover.jpg
Видео
Идентификатор : 1
Формат : HEVC
Формат/Информация : High Efficiency Video Coding
Профиль формата : Main 10@L4@Main
HDR format : SMPTE ST 2086, HDR10 compatible
Идентификатор кодека : V_MPEGH/ISO/HEVC
Продолжительность : 49 м. 12 с.
Битрейт : 5 411 Кбит/сек
Ширина : 1 920 пикселей
Высота : 1 080 пикселей
Соотношение сторон : 16:9
Режим частоты кадров : Постоянный
Частота кадров : 24,000 кадра/сек
Цветовое пространство : YUV
Субдискретизация насыщенности : 4:2:0 (Type 2)
Битовая глубина : 10 бит
Бит/(Пиксели*Кадры) : 0.109
Размер потока : 1,86 Гбайт (81%)
Заголовок : Ragnarok.S02E01.HDR.1080_HEVC_DD5.1_N.B_DUB_Rus_Eng
Язык : Russian
Default : Да
Forced : Нет
Цветовой диапазон : Limited
Основные цвета : BT.2020
Характеристики трансфера : PQ
Коэффициенты матрицы : BT.2020 non-constant
Mastering display color primaries : Display P3
Mastering display luminance : min: 0.0001 cd/m2, max: 1000 cd/m2
Maximum Content Light Level : 818 cd/m2
Maximum Frame-Average Light Level : 97 cd/m2
Аудио #1
Идентификатор : 2
Формат : E-AC-3
Формат/Информация : Enhanced AC-3
Коммерческое название : Dolby Digital Plus
Идентификатор кодека : A_EAC3
Продолжительность : 50 м. 14 с.
Вид битрейта : Постоянный
Битрейт : 640 Кбит/сек
Каналы : 6 каналов
Channel layout : L R C LFE Ls Rs
Частота : 48,0 КГц
Частота кадров : 31,250 кадров/сек (1536 SPF)
Метод сжатия : С потерями
Размер потока : 230 Мбайт (10%)
Заголовок : DUB-Rus- Netflix @DD5.1 E-AC3, 640 Kbps, 48.0 KHz, 6 ch
Язык : Russian
Service kind : Complete Main
Default : Нет
Forced : Нет
Аудио #2
Идентификатор : 3
Формат : E-AC-3
Формат/Информация : Enhanced AC-3
Коммерческое название : Dolby Digital Plus
Идентификатор кодека : A_EAC3
Продолжительность : 50 м. 14 с.
Вид битрейта : Постоянный
Битрейт : 640 Кбит/сек
Каналы : 6 каналов
Channel layout : L R C LFE Ls Rs
Частота : 48,0 КГц
Частота кадров : 31,250 кадров/сек (1536 SPF)
Метод сжатия : С потерями
Размер потока : 230 Мбайт (10%)
Заголовок : English @DD5.1 E-AC3, 640 Kbps, 48.0 KHz, 6 ch
Язык : English
Service kind : Complete Main
Default : Нет
Forced : Нет
Текст #1
Идентификатор : 4
Формат : UTF-8
Идентификатор кодека : S_TEXT/UTF8
Идентификатор кодека/Информация : UTF-8 Plain Text
Продолжительность : 48 м. 55 с.
Битрейт : 73 бит/сек
Count of elements : 542
Размер потока : 26,5 Кбайт (0%)
Заголовок : Russian
Язык : Russian
Default : Да
Forced : Нет
Текст #2
Идентификатор : 5
Формат : UTF-8
Идентификатор кодека : S_TEXT/UTF8
Идентификатор кодека/Информация : UTF-8 Plain Text
Продолжительность : 24 м. 20 с.
Битрейт : 2 бит/сек
Count of elements : 15
Размер потока : 496 байт (0%)
Заголовок : English -Forced
Язык : English
Default : Нет
Forced : Нет
Текст #3
Идентификатор : 6
Формат : UTF-8
Идентификатор кодека : S_TEXT/UTF8
Идентификатор кодека/Информация : UTF-8 Plain Text
Продолжительность : 48 м. 31 с.
Битрейт : 64 бит/сек
Count of elements : 775
Размер потока : 22,8 Кбайт (0%)
Заголовок : English - SDH
Язык : English
Default : Нет
Forced : Нет
Текст #4
Идентификатор : 7
Формат : UTF-8
Идентификатор кодека : S_TEXT/UTF8
Идентификатор кодека/Информация : UTF-8 Plain Text
Продолжительность : 48 м. 55 с.
Битрейт : 46 бит/сек
Count of elements : 532
Размер потока : 16,8 Кбайт (0%)
Заголовок : English
Default : Нет
Forced : Нет
Текст #5
Идентификатор : 8
Формат : UTF-8
Идентификатор кодека : S_TEXT/UTF8
Идентификатор кодека/Информация : UTF-8 Plain Text
Продолжительность : 48 м. 55 с.
Битрейт : 75 бит/сек
Count of elements : 541
Размер потока : 27,1 Кбайт (0%)
Заголовок : Ukr
Язык : Ukrainian
Default : Нет
Forced : Нет
Меню
00:00:00.000 : ru:Глава 01 / ru:Глава 01 / ru:Глава 01 / ru:Глава 01 / ru:Глава 01 / ru:Глава 01 / ru:Глава 01 / ru:Глава 01
--

Скриншоты

----
1 Сезон
--
2 Сезон
--

Как закачать отдельный файл

1. Открыть торрент
2. Снять галки с тех файлов торрента, которые мы не хотим закачивать. Оставляем только на нужных нам файлах (файле).
3. Нажать О.К.
В клиенте utorrent
Инструкция
1) Открыть торрент

2) Снять галки с тех файлов торрента, которые мы не хотим закачивать:
* либо вручную, снимая с каждого файла галку( скрин №1)
* либо, нажав кнопку "Снять метки (Select None)", сняв сразу со всех файлов(скрин №2)
№1

№2

Оставляем только на нужных нам файлах (файле).

3)Нажать О.К
-- -- ----Релиз от: Nikolai.Baranov & PIRATIYAПоблагодарить:
ЯД: 410017546713876
-- -- -- --Время раздачи : 24/7---
[Profile]  [PM] 
Display posts:    
Reply to topic

Current time is: 20-Sep 13:01

All times are UTC + 2



You cannot post new topics in this forum
You cannot reply to topics in this forum
You cannot edit your posts in this forum
You cannot delete your posts in this forum
You cannot vote in polls in this forum
You cannot attach files in this forum
You cannot download files in this forum