Мальчик с оленьими рогами / Сладкоежка / Sweet Tooth (Сезон 1 , Серия 1-8 из -8) (Джим Микл, Тоа Фрейзер) [2021, Фэнтези,экранизация,HDR-Rip - HEVC - 1080p] [ DUB- Невафильм+LostFilm+Ukr+ Eng]+[Subs Rus , Uk ,rENG]

Reply to topic
 
Author
Message

Враг Нароода ®

Gender: Unknown

Longevity: 7 years

Posts: 495

Reputation: 1 [+] [-]

Враг Нароода · Post 13-Jun-2021 13:26

[Quote] 

-- -- Мальчик с оленьими рогами / Сладкоежка / Sweet Tooth - (Сезон 1- , Серия 1- 8 из 8) - Полный Комплект -- --Год выпуска: 2021
Выпущено: США, DC Entertainment, Netflix, Team Downey, Warner Bros. Television
Жанр: Фантастика, фэнтези, боевик, драма, приключения, экранизация
Продолжительность: 00:50:00
Сезон: 1
Серия: 1-8
Количество серий в сезоне: 8 --Озвучка # 1: Профессиональный Дубляж Невафильм по заказу Netflix- - Невафильм - Русский
Озвучка #2: Профессиональный многоголосый -Английский - - LostFilm- Русский
Озвучка # 3: Профессиональный Дубляж Украинский- - Украинский
Озвучка # 4: Профессиональный многоголосый -Английский - Оригинал--

Субтитры :


Субтитры (UTF-8):вшитые
#1 - Русские - Russian (включены по умолчанию)
#2 - Русские - Russian- English (Forced)
#3- Английские - English (SDH)
#4 - Украинские


Внешние:
#1 - Русские - Russian
#2 - Русские - Russian- English (Forced)
#3- Английские - English (SDH)
#4 - Украинские
--Релиз Без Рекламы --MDB 8.6 --Режиссеры:
Джим Микл, Тоа Фрейзер, Робин Грэйс --В ролях: Кристиан Конвери, Нонсо Аноци, Стефания Оуэн, Уилл Форт, Адил Ахтар, Элиза Веллани, Джеймс Бролин, Наледи Мюррей, Сет Флинн, Дания Рамирес, Нил Сэндилэндс, Кристофер Соммерс, Кристиан Тессьер, Малкольм Си Мюррэй -- По серии комиксов Джефа Лемира. В постапокалиптическом мире, населённом гибридами людей и зверей, в лесной глуши живёт главный герой, наполовину человек, наполовину олень, с оберегающим его отцом. Когда последний умирает, мальчик вынужден уйти из дома, познакомиться с миром и спастись от охотников, преследующих таких же редких гибридов, как он. -- --Качество : HDR-Rip - HEVC 10bit - 1080p
Формат: MKV
Видео кодек: H265
Видео: 5085 Кбит/сек,1920х1080 , (19,6),в 23.976 кадр/сек, HEVC (Main10@L4@HDR 10Main )--Аудио Кодек:Аудио Кодек:AC3
Аудио #1: DUB-Rus- Невафильм @DD5.1 E-AC3, 640 Kbps, 48.0 KHz, 6 ch - Невафильм - Русский
Аудио #2: MVO LostFilm @DD5.11 AC3, 384 Kbps, 48.0 KHz, 6 ch- LostFilm - Русский
Аудио #3: DUB-Ukr @DD5.1 E-AC3, 640 Kbps, 48.0 KHz, 6 ch - - Украинский
Аудио #4: English @DD5.1 E-AC3, 640 Kbps, 48.0 KHz, 6 ch- English - Оригинал-- --

Доп. информация:

Звуковая дорожка сделана путем наложения чистого голоса озвучивателей на центральный канал оригинальной дорожки. Качество идентично звуковой дорожке.
--

Список эпизодов сезона


1 сезон 1 серия - Из чащи леса - Out of the Deep Woods
1 сезон 2 серия - Прости за мертвецов - Sorry About All the Dead People
1 сезон 3 серия - Оленьи странности - Weird Deer S**t
1 сезон 4 серия - Тот самый ингредиент - Secret Sauce
1 сезон 5 серия - Что в холодильнике? - What's in the Freezer?
1 сезон 6 серия - Не разговаривай с незнакомцами в поездах - Stranger Danger on a Train
1 сезон 7 серия - Когда папа встретил Бёрди - When Pubba Met Birdie
1 сезон 8 серия - Великан - Big Man
--

MediaInfo

Общее
Уникальный идентификатор : 162855967570174481850301127992744969411 (0x7A84EB1FF804F01C0C592B17322584C3)
Полное имя : F:\Мальчик с оленьими рогами - Сладкоежка - Sweet Tooth\Sweet.Tooth.S01.HDR.1080_HEVC-10bitt_DD5.1_N.B_DUB_2xRus_Ukr_Eng\Sweet.Tooth.S01E01.HDR.1080_HEVC_DD5.1_N.B_DUB_2xRus_Ukr_Eng.mkv
Формат : Matroska
Версия формата : Version 4
Размер файла : 2,75 Гбайт
Продолжительность : 53 м. 27 с.
Общий поток : 7 353 Кбит/сек
Название фильма : 2021 Sweet Tooth S01E01 @ Nikolai.Baranov & PIRATIYA
Дата кодирования : UTC 2021-06-12 14:01:04
Программа кодирования : mkvmerge v57.0.0 ('Till The End') 64-bit
Библиотека кодирования : libebml v1.4.2 + libmatroska v1.6.4
Видео
Идентификатор : 1
Формат : HEVC
Формат/Информация : High Efficiency Video Coding
Профиль формата : Main 10@L4@Main
HDR format : SMPTE ST 2086, HDR10 compatible
Идентификатор кодека : V_MPEGH/ISO/HEVC
Продолжительность : 53 м. 5 с.
Битрейт : 5 085 Кбит/сек
Ширина : 1 920 пикселей
Высота : 1 080 пикселей
Соотношение сторон : 16:9
Режим частоты кадров : Постоянный
Частота кадров : 23,976 (24000/1001) кадра/сек
Цветовое пространство : YUV
Субдискретизация насыщенности : 4:2:0 (Type 2)
Битовая глубина : 10 бит
Бит/(Пиксели*Кадры) : 0.102
Размер потока : 1,89 Гбайт (69%)
Заголовок : Sweet.Tooth.S01E01.HDR.1080_HEVC_DD5.1_N.B_DUB_2xRus_Ukr_Eng
Язык : Russian
Default : Да
Forced : Нет
Цветовой диапазон : Limited
Основные цвета : BT.2020
Характеристики трансфера : PQ
Коэффициенты матрицы : BT.2020 non-constant
Mastering display color primaries : Display P3
Mastering display luminance : min: 0.0001 cd/m2, max: 1000 cd/m2
Maximum Content Light Level : 1106 cd/m2
Maximum Frame-Average Light Level : 331 cd/m2
Аудио #1
Идентификатор : 4
Формат : E-AC-3
Формат/Информация : Enhanced AC-3
Коммерческое название : Dolby Digital Plus
Идентификатор кодека : A_EAC3
Продолжительность : 53 м. 5 с.
Вид битрейта : Постоянный
Битрейт : 640 Кбит/сек
Каналы : 6 каналов
Channel layout : L R C LFE Ls Rs
Частота : 48,0 КГц
Частота кадров : 31,250 кадров/сек (1536 SPF)
Метод сжатия : С потерями
Размер потока : 243 Мбайт (9%)
Заголовок : DUB-Rus- Невафильм @DD5.1 E-AC3, 640 Kbps, 48.0 KHz, 6 ch
Язык : Russian
Service kind : Complete Main
Default : Да
Forced : Нет
Аудио #2
Идентификатор : 5
Формат : AC-3
Формат/Информация : Audio Coding 3
Коммерческое название : Dolby Digital
Идентификатор кодека : A_AC3
Продолжительность : 53 м. 26 с.
Вид битрейта : Постоянный
Битрейт : 384 Кбит/сек
Каналы : 6 каналов
Channel layout : L R C LFE Ls Rs
Частота : 48,0 КГц
Частота кадров : 31,250 кадров/сек (1536 SPF)
Метод сжатия : С потерями
Размер потока : 147 Мбайт (5%)
Заголовок : MVO LostFilm @DD5.1 AC3, 384 Kbps, 48.0 KHz, 6 ch
Язык : Russian
Service kind : Complete Main
Default : Нет
Forced : Нет
Аудио #3
Идентификатор : 6
Формат : E-AC-3
Формат/Информация : Enhanced AC-3
Коммерческое название : Dolby Digital Plus
Идентификатор кодека : A_EAC3
Продолжительность : 53 м. 27 с.
Вид битрейта : Постоянный
Битрейт : 640 Кбит/сек
Каналы : 6 каналов
Channel layout : L R C LFE Ls Rs
Частота : 48,0 КГц
Частота кадров : 31,250 кадров/сек (1536 SPF)
Метод сжатия : С потерями
Размер потока : 245 Мбайт (9%)
Заголовок : DUB-Ukr @DD5.1 E-AC3, 640 Kbps, 48.0 KHz, 6 ch
Язык : Ukrainian
Service kind : Complete Main
Default : Нет
Forced : Нет
Аудио #4
Идентификатор : 7
Формат : E-AC-3
Формат/Информация : Enhanced AC-3
Коммерческое название : Dolby Digital Plus
Идентификатор кодека : A_EAC3
Продолжительность : 53 м. 27 с.
Вид битрейта : Постоянный
Битрейт : 640 Кбит/сек
Каналы : 6 каналов
Channel layout : L R C LFE Ls Rs
Частота : 48,0 КГц
Частота кадров : 31,250 кадров/сек (1536 SPF)
Метод сжатия : С потерями
Размер потока : 245 Мбайт (9%)
Заголовок : English @DD5.1 E-AC3, 640 Kbps, 48.0 KHz, 6 ch
Язык : English
Service kind : Complete Main
Default : Нет
Forced : Нет
Текст #1
Идентификатор : 2
Формат : UTF-8
Идентификатор кодека : S_TEXT/UTF8
Идентификатор кодека/Информация : UTF-8 Plain Text
Продолжительность : 52 м. 23 с.
Битрейт : 2 бит/сек
Count of elements : 21
Размер потока : 918 байт (0%)
Заголовок : Из чащи леса-Russian-Forced
Язык : Russian
Default : Да
Forced : Нет
Текст #2
Идентификатор : 3
Формат : UTF-8
Идентификатор кодека : S_TEXT/UTF8
Идентификатор кодека/Информация : UTF-8 Plain Text
Продолжительность : 52 м. 36 с.
Битрейт : 50 бит/сек
Count of elements : 498
Размер потока : 19,5 Кбайт (0%)
Заголовок : Из чащи леса-Russian
Язык : Russian
Default : Нет
Forced : Нет
Текст #3
Идентификатор : 8
Формат : UTF-8
Идентификатор кодека : S_TEXT/UTF8
Идентификатор кодека/Информация : UTF-8 Plain Text
Продолжительность : 52 м. 36 с.
Битрейт : 51 бит/сек
Count of elements : 511
Размер потока : 19,7 Кбайт (0%)
Заголовок : Из чащи леса-Ukr
Язык : Ukrainian
Default : Нет
Forced : Нет
Текст #4
Идентификатор : 9
Формат : UTF-8
Идентификатор кодека : S_TEXT/UTF8
Идентификатор кодека/Информация : UTF-8 Plain Text
Продолжительность : 51 м. 22 с.
Битрейт : 45 бит/сек
Count of elements : 680
Размер потока : 17,0 Кбайт (0%)
Заголовок : Out of the Deep Woods-English - SDH
Язык : English
Default : Нет
Forced : Нет
Меню
00:00:00.000 : ru:Глава 01 / ru:Глава 01 / ru:Глава 01 / ru:Глава 01 / ru:Глава 01 / ru:Глава 01 / ru:Глава 01 / ru:Глава 01 / ru:Глава 01
--

Скриншоты

----
1 Сезон
--

Как закачать отдельный файл

1. Открыть торрент
2. Снять галки с тех файлов торрента, которые мы не хотим закачивать. Оставляем только на нужных нам файлах (файле).
3. Нажать О.К.
В клиенте utorrent
Инструкция
1) Открыть торрент

2) Снять галки с тех файлов торрента, которые мы не хотим закачивать:
* либо вручную, снимая с каждого файла галку( скрин №1)
* либо, нажав кнопку "Снять метки (Select None)", сняв сразу со всех файлов(скрин №2)
№1

№2

Оставляем только на нужных нам файлах (файле).

3)Нажать О.К
-- -- ----Внимание!! ! 27 . 06. 2021. РАЗДАЧА ОБНОВЛЕНА. ДОБАВЛЕНА-7-8-СЕРИЯ . ФИНАЛ СЕЗОНА . ОБНОВИТЕ ТОРЕНТ ФАЙЛ. ПРИЯТНОГО ПРОСМОТРА . Поблагодарить:
ЯД: 410017546713876
--Релиз от: Nikolai.Baranov & PIRATIYA -- -- -- --Время раздачи : 24/7---
[Profile]  [PM] 
Display posts:    
Reply to topic

Current time is: 20-Sep 14:10

All times are UTC + 2



You cannot post new topics in this forum
You cannot reply to topics in this forum
You cannot edit your posts in this forum
You cannot delete your posts in this forum
You cannot vote in polls in this forum
You cannot attach files in this forum
You cannot download files in this forum