Псы резервации / Reservation Dogs (Сезон 1 , Серия 1-7 из 8 ) (Стерлин Харьо) [2021, Комедия, криминал,WEB-DL- HEVC 10bit - 1080p] [LostFilm+TVShows +Eng]+[Subs Rus , ENG]

Reply to topic
 
Author
Message

Враг Нароода ®

Gender: Unknown

Longevity: 7 years

Posts: 495

Reputation: 1 [+] [-]

Враг Нароода · Post 12-Aug-2021 19:23

[Quote] 

-- -- Псы резервации / Reservation Dogs (Сезон 1 , Серия 1-7 из 8 ) -- --Год выпуска: 2021
Выпущено: США , 3 FX Productions
Жанр: Комедия, криминал
Продолжительность: 00:30:00
Сезон:1
Серия:1-7
Количество серий в сезоне: 8--Озвучка 1: Профессиональный многоголосый- LostFilm - Русский
Озвучка #2: Профессиональный многоголосый --Русский - - TVShows - Русский
Озвучка #3: Профессиональный многоголосый -Английский - Оригинал--

Субтитры :


Субтитры (UTF-8):вшитые
#1 - Русские - Russian (включены по умолчанию)
#2- Английские - English (SDH)


Внешние:
#1 - Русские - Russian
#2- Английские - English (SDH)
--Релиз Без Рекламы --MDB 8.1

--Режиссеры:
Стерлин Харьо --В ролях: Д Фарао Ун-А-Тай, Девери Джейкобс, Паулина Алексис, Лэйн Фэктор, Элва Гуэрра, Сара Подемски, Мэтти Кардаропл, Унегвугугу Амоадевехи, Мэйкон Блэр, Коннор Бок -- Действие разворачивается в сельской местности штата Оклахома. В центре сюжета — банда подростков, промышляющих мелкими кражами на территории индейских племен. Самопровозглашенный лидер банды, Медведь (Д’Фарао Ун-А-Тай) — парень в целом добрый и не очень ловкий в драке. Более предприимчивая Элора (Девери Джейкобс) возложила на него обязанность собирать выручку от их преступных делишек, чтобы в конечном итоге ребята накопили достаточную сумму для переезда в Калифорнию. Также в компанию входят находчивая Вилли Джек (Паулина Алексис) и милейший, но очень впечатлительный Сыр (Лэйн Фэктор). Вся четверка переживает горе из-за смерти их общего друга, которая только подстегнула их желание покинуть родные края, да и недавно образовавшаяся новая банда малолетних хулиганов не добавляет ребятам оптимизма. По мере того как пополняется их «общак», конкурирующая группировка набирает силу и ставит под угрозу планы Медведя и компании. Удастся ли беглецам собрать нужную сумму раньше, чем их мечта разобьется о суровую реальность в виде более отъявленных головорезов, чем они, и местного копа, которому уже осточертели их выходки?...-- --Качество : WEB-DLRip - HEVC 10bit - 1080p
Формат: MKV
Видео кодек: H265
Видео: 2858 Кбит/сек,1920х1080 , (16.9),в 25.000 кадр/сек, HEVC (Main10@L5.1@Main)--Аудио Кодек:Аудио Кодек:AC3
Аудио #1: MVO LostFilm @ DD5.1 AC3, 320 Kbps, 48.0 KHz, 6 ch - LostFilm - Русский
Аудио # 2: MVO TVShows @ DD5.1 AC3, 320 Kbps, 48.0 KHz, 6 ch - TVShows - Русский
Аудио #3: English @DD5.1 E-AC3, 256 Kbps, 48.0 KHz, 6 chch - English - Оригинал-- --

Доп. информация:

Звуковая дорожка сделана путем наложения чистого голоса озвучивателей на центральный канал оригинальной дорожки. Качество идентично звуковой дорожке.
--

Список эпизодов сезона


1 сезон 1 серия - Сучьи ИндоПсы - F*ckin' Rez Dogs
1 сезон 2 серия - Индиэнская больничка - NDN Clinic
1 сезон 3 серия - Дядя Брауни - Uncle Brownie
1 сезон 4 серия - Ну и где твой батя? - What About Your Dad
1 сезон 5 серия - Получи любовь - Come and Get Your Love
1 сезон 6 серия - Охота - Hunting
1 сезон 7 серия - Мечта о Калифорнии - California Dreamin
--

MediaInfo

бщее
Уникальный идентификатор : 296241098222281265054020741162841741269 (0xDEDDF5CE8448412E6E7CF3F0772117D5)
Полное имя : F:\Псы резервации - Reservation Dogs\2021_Reservation.Dogs.S01_HEVC_Н265_DD5.1_N.B_HD_1080_LostFilm_Rus_Eng\2021_Reservation.Dogs.S01E01_HEVC_Н265_DD5.1_N.B_HD_1080_LostFilm_Rus_Eng.mkv
Формат : Matroska
Версия формата : Version 4
Размер файла : 786 Мбайт
Продолжительность : 29 м. 9 с.
Общий поток : 3 766 Кбит/сек
Название фильма : 2021 Reservation Dogs S01E01 @ Nikolai.Baranov & PIRATIYA
Дата кодирования : UTC 2021-08-16 06:43:09
Программа кодирования : mkvmerge v60.0.0 ('Are We Copies?') 64-bit
Библиотека кодирования : libebml v1.4.2 + libmatroska v1.6.4
Видео
Идентификатор : 1
Формат : HEVC
Формат/Информация : High Efficiency Video Coding
Профиль формата : Main@L5.1@Main
Идентификатор кодека : V_MPEGH/ISO/HEVC
Продолжительность : 29 м. 9 с.
Битрейт : 2 868 Кбит/сек
Ширина : 1 920 пикселей
Высота : 1 080 пикселей
Соотношение сторон : 16:9
Режим частоты кадров : Постоянный
Частота кадров : 25,000 кадров/сек
Цветовое пространство : YUV
Субдискретизация насыщенности : 4:2:0
Битовая глубина : 8 бит
Бит/(Пиксели*Кадры) : 0.055
Размер потока : 598 Мбайт (76%)
Заголовок : 2021_Reservation.Dogs.S01E01_HEVC_Н265_DD5.1_N.B_HD_1080_LostFilm_Rus_Eng
Язык : Russian
Default : Да
Forced : Нет
Цветовой диапазон : Full
Основные цвета : BT.709
Характеристики трансфера : BT.709
Коэффициенты матрицы : BT.709
Аудио #1
Идентификатор : 2
Формат : AC-3
Формат/Информация : Audio Coding 3
Коммерческое название : Dolby Digital
Идентификатор кодека : A_AC3
Продолжительность : 29 м. 9 с.
Вид битрейта : Постоянный
Битрейт : 320 Кбит/сек
Каналы : 6 каналов
Channel layout : L R C LFE Ls Rs
Частота : 48,0 КГц
Частота кадров : 31,250 кадров/сек (1536 SPF)
Метод сжатия : С потерями
Размер потока : 66,7 Мбайт (8%)
Заголовок : MVO LostFilm @DD5.1 AC3, 3240 Kbps, 48.0 KHz, 6 ch
Язык : Russian
Service kind : Complete Main
Default : Да
Forced : Нет
Аудио #2
Идентификатор : 3
Формат : E-AC-3
Формат/Информация : Enhanced AC-3
Коммерческое название : Dolby Digital Plus
Идентификатор кодека : A_EAC3
Продолжительность : 29 м. 9 с.
Вид битрейта : Постоянный
Битрейт : 256 Кбит/сек
Каналы : 6 каналов
Channel layout : L R C LFE Ls Rs
Частота : 48,0 КГц
Частота кадров : 31,250 кадров/сек (1536 SPF)
Метод сжатия : С потерями
Размер потока : 53,4 Мбайт (7%)
Заголовок : English @DD5.1 E-AC3, 256 Kbps, 48.0 KHz, 6 ch
Язык : English
Service kind : Complete Main
Default : Да
Forced : Нет
Аудио #3
Идентификатор : 4
Формат : AC-3
Формат/Информация : Audio Coding 3
Коммерческое название : Dolby Digital
Идентификатор кодека : A_AC3
Продолжительность : 29 м. 9 с.
Вид битрейта : Постоянный
Битрейт : 320 Кбит/сек
Каналы : 6 каналов
Channel layout : L R C LFE Ls Rs
Частота : 48,0 КГц
Частота кадров : 31,250 кадров/сек (1536 SPF)
Метод сжатия : С потерями
Размер потока : 66,8 Мбайт (8%)
Заголовок : MVO TVShows @DD5.1 AC3, 320 Kbps, 48.0 KHz, 6 ch
Язык : Russian
Service kind : Complete Main
Default : Да
Forced : Нет
Текст #1
Идентификатор : 5
Формат : UTF-8
Идентификатор кодека : S_TEXT/UTF8
Идентификатор кодека/Информация : UTF-8 Plain Text
Продолжительность : 28 м. 32 с.
Битрейт : 131 бит/сек
Count of elements : 522
Размер потока : 27,5 Кбайт (0%)
Заголовок : Сучьи ИндоПсы-Russian
Язык : Russian
Default : Да
Forced : Нет
Текст #2
Идентификатор : 6
Формат : UTF-8
Идентификатор кодека : S_TEXT/UTF8
Идентификатор кодека/Информация : UTF-8 Plain Text
Продолжительность : 28 м. 53 с.
Битрейт : 95 бит/сек
Count of elements : 636
Размер потока : 20,2 Кбайт (0%)
Заголовок : Fckin' Rez Dogs-English - SDH
Язык : English
Default : Да
Forced : Нет
Меню
00:00:00.000 : ru:Глава 01 / ru:Глава 01 / ru:Глава 01 / ru:Глава 01 / ru:Глава 01 / ru:Глава 01
--

Скриншоты


[/url]
-- --Внимание! Раздача пополняется по мере выхода новых серий!--

Внимание! Раздача ведётся путём добавления новых серий!

Раздача ведётся путём добавления новых серий; при каждом добавлении создётся новый торрент.
Чтобы начать докачку новой серии, пользователям необходимо сделать следующее:
1. остановить скачивание,
2. удалить старый торрент у себя из клиента (старые серии удалять не надо),
3. скачать новый торрент и запустить его у себя в клиенте вместо старого, при этом указать клиенту путь в старую папку, куда и должно происходить скачивание новых серий.
Ваш клиент при этом должен произвести хеширование (проверку) старой папки (если не производит сам - помогите ему сделать это), и будет докачивать только те серии которых у вас ещё нет. Старые серии при этом не удаляются, а продолжают раздаваться!
Eсли вы уже удалили старые серии, то предотвратить повторную закачку старых серий можно, отжав галочку в соответсвующих местах при запуске нового торрента. По возможности, желательно не удалять старые серии как можно дольше, чтобы релизёр не столько продолжал раздавать старые серии, а смог сконцентрироваться на новых.
Совет для тех, кто не хочет ждать перехеширования:
Создайте ещё одну папку рядом с папкой сериала (рядом, а не в ней!!!). Каждую новую серию после удачной загрузки копируйте в новую папку так чтобы ваша основная папка всегда была пуста. Когда ваш новый торрент предложит вам закачать все файлы, выберете только последнюю. Для сидирования же укажите адрес новой папки.
Как закачать отдельный файл из торрента или докачать ранее пропущенные файлы торрента!

Как закачать отдельный файл

1. Открыть торрент
2. Снять галки с тех файлов торрента, которые мы не хотим закачивать. Оставляем только на нужных нам файлах (файле).
3. Нажать О.К.
В клиенте utorrent
Инструкция
1) Открыть торрент

2) Снять галки с тех файлов торрента, которые мы не хотим закачивать:
* либо вручную, снимая с каждого файла галку( скрин №1)
* либо, нажав кнопку "Снять метки (Select None)", сняв сразу со всех файлов(скрин №2)
№1

№2

Оставляем только на нужных нам файлах (файле).

3)Нажать О.К
-- -- ----Внимание!! ! 17 . 09. 2021. РАЗДАЧА ОБНОВЛЕНА. ДОБАВЛЕНА-7 -СЕРИЯ . . ОБНОВИТЕ ТОРЕНТ ФАЙЛ. ПРИЯТНОГО ПРОСМОТРА . Поблагодарить:
ЯД: 410017546713876
--Релиз от: Nikolai.Baranov & PIRATIYA -- -- -- --Время раздачи : 24/7---
[Profile]  [PM] 
Display posts:    
Reply to topic

Current time is: 20-Sep 13:37

All times are UTC + 2



You cannot post new topics in this forum
You cannot reply to topics in this forum
You cannot edit your posts in this forum
You cannot delete your posts in this forum
You cannot vote in polls in this forum
You cannot attach files in this forum
You cannot download files in this forum