История Отечества в портретах (Виктор Правдюк) [2018, Исторический, 2xDVD5]

Reply to topic
 
Author
Message

Atila ®

Gender: Unknown

Longevity: 7 years 6 months

Posts: 2513

Reputation: 0 [+] [-]

Atila · Post 18-Nov-2018 11:35

[Quote] 

История Отечества в портретах
Год выпуска: 2018
Страна: Россия
Жанр: Исторический
Продолжительность: 20 ~ 04:28:05
Перевод: Не требуется
Русские субтитры: нет
Режиссер: В. Правдюк
Описание: Николай Васильевич Гоголь заметил, что когда художник пишет портрет, на холст переходят мгновения жизни человека. Из таких мгновений состоит его жизнь и судьба. Наш фильм именно о таких мгновениях на холсте, мгновениях жизни великих людей нашего Отечества — от князя Александра Невского до премьера Петра Столыпина и Царя-Мученика Государя Императора Николая Второго.
Доп. информация: Издательство - "Русская Лира".
Бонусы: Нет.
Меню: Имеется, на русском, анимированное, статичное, неозвученное
Сэмпл (диск 1): http://multi-up.com/1214683
Сэмпл (диск 2): http://multi-up.com/1214687
Главы (разбивка по трекам): есть
Качество: DVD5
Формат: DVD Video
Видео кодек: MPEG2
Аудио кодек: MP2

Диск 1

Список серий:
1. Александр Невский
2. Иван Грозный
3. Пётр Великий
4. Михаил Ломоносов
5. Екатерина II
6. Григорий Потемкин
7. Александр Суворов
8. Федор Ушаков
9. Александр I
10. Николай I
Видео: VBR ~ 3790-3880 Кбит/с, PAL 720*576 (4:3), в 25,000 кадров/сек, MPEG2
Аудио: Русский, 224 Кбит/сек, 48,0 КГц, 2 канала, MP2

DVDInfo

Title: Диск 1Size: 3.54 Gb ( 3 715 136,00 KBytes ) - DVD-5Enabled regions: 1, 2, 3, 4, 5, 6, 7, 8
VTS_01 : Play Length: 00:13:10 Video: PAL 4:3 (720x576) VBR Audio: English (MPEG1, 2 ch)
VTS_02 : Play Length: 00:11:52 Video: PAL 4:3 (720x576) VBR Audio: English (MPEG1, 2 ch)
VTS_03 : Play Length: 00:12:23 Video: PAL 4:3 (720x576) VBR Audio: English (MPEG1, 2 ch)
VTS_04 : Play Length: 00:13:22 Video: PAL 4:3 (720x576) VBR Audio: English (MPEG1, 2 ch)
VTS_05 : Play Length: 00:13:54 Video: PAL 4:3 (720x576) VBR Audio: English (MPEG1, 2 ch)
VTS_06 : Play Length: 00:13:44 Video: PAL 4:3 (720x576) VBR Audio: English (MPEG1, 2 ch)
VTS_07 : Play Length: 00:13:56 Video: PAL 4:3 (720x576) VBR Audio: English (MPEG1, 2 ch)
VTS_08 : Play Length: 00:13:02 Video: PAL 4:3 (720x576) VBR Audio: English (MPEG1, 2 ch)
VTS_09 : Play Length: 00:13:28 Video: PAL 4:3 (720x576) VBR Audio: English (MPEG1, 2 ch)
VTS_10 : Play Length: 00:13:48 Video: PAL 4:3 (720x576) VBR Audio: English (MPEG1, 2 ch)
* Menus Information *
VIDEO_TS MenuVideo: PAL 4:3 (720x576) VBREnglish Language Unit : Title Menu
VTS_01 MenuVideo: PAL 4:3 (720x576) VBREnglish Language Unit : Root Menu
VTS_02 MenuVideo: PAL 4:3 (720x576) VBREnglish Language Unit : Root Menu
VTS_03 MenuVideo: PAL 4:3 (720x576) VBREnglish Language Unit : Root Menu
VTS_04 MenuVideo: PAL 4:3 (720x576) VBREnglish Language Unit : Root Menu
VTS_05 MenuVideo: PAL 4:3 (720x576) VBREnglish Language Unit : Root Menu
VTS_06 MenuVideo: PAL 4:3 (720x576) VBREnglish Language Unit : Root Menu
VTS_07 MenuVideo: PAL 4:3 (720x576) VBREnglish Language Unit : Root Menu
VTS_08 MenuVideo: PAL 4:3 (720x576) VBREnglish Language Unit : Root Menu
VTS_09 MenuVideo: PAL 4:3 (720x576) VBREnglish Language Unit : Root Menu
VTS_10 MenuVideo: PAL 4:3 (720x576) VBREnglish Language Unit : Root Menu

MediaInfo

ОбщееПолное имя                               : U:\MONAR\Документальные фильмы\История России и мира\История Отечества в портретах\Диск 1\VIDEO_TS\VIDEO_TS.BUPФормат                                   : DVD VideoПрофиль формата                          : MenuРазмер файла                             : 24,0 КбайтРежим общего битрейта                    : ПеременныйFileExtension_Invalid                    : ifo
ВидеоИдентификатор : 224 (0xE0)Формат : MPEG VideoВерсия формата : Version 2Вид битрейта : ПеременныйШирина : 720 пикселейВысота : 576 пикселейСоотношение сторон : 4:3Частота кадров : 25,000 кадров/секСтандарт вещания : PALМетод сжатия : С потерями
ТекстФормат : RLEФормат/Информация : Run-length encodingБитовая глубина : 2 бит
ОбщееПолное имя : U:\MONAR\Документальные фильмы\История России и мира\История Отечества в портретах\Диск 1\VIDEO_TS\VIDEO_TS.IFOФормат : DVD VideoПрофиль формата : MenuРазмер файла : 24,0 КбайтРежим общего битрейта : Переменный
ВидеоИдентификатор : 224 (0xE0)Формат : MPEG VideoВерсия формата : Version 2Вид битрейта : ПеременныйШирина : 720 пикселейВысота : 576 пикселейСоотношение сторон : 4:3Частота кадров : 25,000 кадров/секСтандарт вещания : PALМетод сжатия : С потерями
ТекстФормат : RLEФормат/Информация : Run-length encodingБитовая глубина : 2 бит
ОбщееПолное имя : U:\MONAR\Документальные фильмы\История России и мира\История Отечества в портретах\Диск 1\VIDEO_TS\VIDEO_TS.VOBФормат : MPEG-PSРазмер файла : 10,0 КбайтПродолжительность : 40 мс.Режим общего битрейта : ПостоянныйОбщий поток : 2048 Кбит/сек
ВидеоИдентификатор : 224 (0xE0)Формат : MPEG VideoВерсия формата : Version 2Профиль формата : Main@MainНастройки формата : CustomMatrixПараметр BVOP формата : НетПараметр матрицы формата : ВыборочнаяПродолжительность : 40 мс.Вид битрейта : ПостоянныйМаксимальный битрейт : 9000 Кбит/секШирина : 720 пикселейВысота : 576 пикселейСоотношение сторон : 4:3Частота кадров : 25,000 кадров/секСтандарт вещания : PALЦветовое пространство : YUVСубдискретизация насыщенности : 4:2:0Битовая глубина : 8 битТип развёртки : ПрогрессивнаяПорядок развёртки : Верхнее поле первоеМетод сжатия : С потерямиВременной код первого кадра : 00:00:00:00Оригинал временного кода : Group of pictures headerОсновные цвета : BT.601 NTSCХарактеристики трансфера : BT.601Коэффициенты матрицы : BT.601
Меню
ОбщееПолное имя : U:\MONAR\Документальные фильмы\История России и мира\История Отечества в портретах\Диск 1\VIDEO_TS\VTS_01_0.BUPФормат : DVD VideoПрофиль формата : ProgramРазмер файла : 24,0 КбайтПродолжительность : 13 м. 10 с.Режим общего битрейта : ПеременныйОбщий поток : 249 бит/секFileExtension_Invalid : ifo
ВидеоИдентификатор : 224 (0xE0)Формат : MPEG VideoВерсия формата : Version 2Продолжительность : 13 м. 10 с.Вид битрейта : ПеременныйШирина : 720 пикселейВысота : 576 пикселейСоотношение сторон : 4:3Частота кадров : 25,000 кадров/секСтандарт вещания : PALМетод сжатия : С потерями
АудиоИдентификатор : 0 (0x0)Формат : MPEG AudioПрофиль формата : Version 1Продолжительность : 13 м. 10 с.Каналы : 2 каналаЧастота : 48,0 КГцМетод сжатия : С потерямиЯзык : English
МенюПродолжительность : 13 м. 10 с.00:00:00.000 : Chapter 100:01:59.440 : Chapter 200:03:59.560 : Chapter 300:05:59.840 : Chapter 400:07:59.760 : Chapter 500:09:59.680 : Chapter 600:11:59.760 : Chapter 700:13:10.000 : Chapter 8List (Audio) : 0
ОбщееПолное имя : U:\MONAR\Документальные фильмы\История России и мира\История Отечества в портретах\Диск 1\VIDEO_TS\VTS_01_0.IFOФормат : DVD VideoПрофиль формата : ProgramРазмер файла : 24,0 КбайтПродолжительность : 13 м. 10 с.Режим общего битрейта : ПеременныйОбщий поток : 249 бит/сек
ВидеоИдентификатор : 224 (0xE0)Формат : MPEG VideoВерсия формата : Version 2Продолжительность : 13 м. 10 с.Вид битрейта : ПеременныйШирина : 720 пикселейВысота : 576 пикселейСоотношение сторон : 4:3Частота кадров : 25,000 кадров/секСтандарт вещания : PALМетод сжатия : С потерями
АудиоИдентификатор : 0 (0x0)Формат : MPEG AudioПрофиль формата : Version 1Продолжительность : 13 м. 10 с.Каналы : 2 каналаЧастота : 48,0 КГцМетод сжатия : С потерямиЯзык : English
МенюПродолжительность : 13 м. 10 с.00:00:00.000 : Chapter 100:01:59.440 : Chapter 200:03:59.560 : Chapter 300:05:59.840 : Chapter 400:07:59.760 : Chapter 500:09:59.680 : Chapter 600:11:59.760 : Chapter 700:13:10.000 : Chapter 8List (Audio) : 0
ОбщееПолное имя : U:\MONAR\Документальные фильмы\История России и мира\История Отечества в портретах\Диск 1\VIDEO_TS\VTS_01_0.VOBФормат : MPEG-PSРазмер файла : 170 КбайтПродолжительность : 145 мс.Общий поток : 9604 Кбит/сек
ВидеоИдентификатор : 224 (0xE0)Формат : MPEG VideoВерсия формата : Version 2Профиль формата : Main@MainНастройки формата : CustomMatrixПараметр BVOP формата : НетПараметр матрицы формата : ВыборочнаяПродолжительность : 145 мс.Вид битрейта : ПостоянныйМаксимальный битрейт : 9000 Кбит/секШирина : 720 пикселейВысота : 576 пикселейСоотношение сторон : 4:3Частота кадров : 25,000 кадров/секСтандарт вещания : PALЦветовое пространство : YUVСубдискретизация насыщенности : 4:2:0Битовая глубина : 8 битТип развёртки : ПрогрессивнаяПорядок развёртки : Верхнее поле первоеМетод сжатия : С потерямиОсновные цвета : BT.601 NTSCХарактеристики трансфера : BT.601Коэффициенты матрицы : BT.601
ТекстИдентификатор : 189 (0xBD)-32 (0x20)Формат : RLEФормат/Информация : Run-length encodingРежим смешивания : DVD-VideoЗадержка видео : 105 мс.
Меню
ОбщееПолное имя : U:\MONAR\Документальные фильмы\История России и мира\История Отечества в портретах\Диск 1\VIDEO_TS\VTS_01_1.VOBФормат : MPEG-PSРазмер файла : 359 МбайтПродолжительность : 13 м. 10 с.Режим общего битрейта : ПеременныйОбщий поток : 3808 Кбит/сек
ВидеоИдентификатор : 224 (0xE0)Формат : MPEG VideoВерсия формата : Version 2Профиль формата : Main@MainНастройки формата : CustomMatrix / BVOPПараметр BVOP формата : ДаПараметр матрицы формата : ВыборочнаяПараметр GOP формата : VariableСтруктура изображения : FrameПродолжительность : 40 мс.Вид битрейта : ПеременныйБитрейт : 3509 Кбит/секМаксимальный битрейт : 6900 Кбит/секШирина : 720 пикселейВысота : 576 пикселейСоотношение сторон : 4:3Частота кадров : 25,000 кадров/секСтандарт вещания : PALЦветовое пространство : YUVСубдискретизация насыщенности : 4:2:0Битовая глубина : 8 битТип развёртки : ЧересстрочнаяПорядок развёртки : Верхнее поле первоеМетод сжатия : С потерямиБит/(Пиксели*Кадры) : 0.338Временной код первого кадра : 00:00:00:00Оригинал временного кода : Group of pictures headerGOP, открыто/закрыто : ОткрытоGOP, открыто/закрыто на первом кадре : ЗакрытоРазмер потока : 17,1 Кбайт (0%)
АудиоИдентификатор : 192 (0xC0)Формат : MPEG AudioВерсия формата : Version 1Профиль формата : Layer 2Продолжительность : 13 м. 10 с.Вид битрейта : ПостоянныйБитрейт : 224 Кбит/секКаналы : 2 каналаЧастота : 48,0 КГцЧастота кадров : 41,667 кадра/сек (1152 SPF)Метод сжатия : С потерямиРазмер потока : 21,1 Мбайт (6%)
Меню
ОбщееПолное имя : U:\MONAR\Документальные фильмы\История России и мира\История Отечества в портретах\Диск 1\VIDEO_TS\VTS_02_0.BUPФормат : DVD VideoПрофиль формата : ProgramРазмер файла : 24,0 КбайтПродолжительность : 11 м. 52 с.Режим общего битрейта : ПеременныйОбщий поток : 276 бит/секFileExtension_Invalid : ifo
ВидеоИдентификатор : 224 (0xE0)Формат : MPEG VideoВерсия формата : Version 2Продолжительность : 11 м. 52 с.Вид битрейта : ПеременныйШирина : 720 пикселейВысота : 576 пикселейСоотношение сторон : 4:3Частота кадров : 25,000 кадров/секСтандарт вещания : PALМетод сжатия : С потерями
АудиоИдентификатор : 0 (0x0)Формат : MPEG AudioПрофиль формата : Version 1Продолжительность : 11 м. 52 с.Каналы : 2 каналаЧастота : 48,0 КГцМетод сжатия : С потерямиЯзык : English
МенюПродолжительность : 11 м. 52 с.00:00:00.000 : Chapter 100:01:59.440 : Chapter 200:03:59.480 : Chapter 300:05:59.680 : Chapter 400:07:59.640 : Chapter 500:09:59.640 : Chapter 600:11:51.640 : Chapter 7List (Audio) : 0
ОбщееПолное имя : U:\MONAR\Документальные фильмы\История России и мира\История Отечества в портретах\Диск 1\VIDEO_TS\VTS_02_0.IFOФормат : DVD VideoПрофиль формата : ProgramРазмер файла : 24,0 КбайтПродолжительность : 11 м. 52 с.Режим общего битрейта : ПеременныйОбщий поток : 276 бит/сек
ВидеоИдентификатор : 224 (0xE0)Формат : MPEG VideoВерсия формата : Version 2Продолжительность : 11 м. 52 с.Вид битрейта : ПеременныйШирина : 720 пикселейВысота : 576 пикселейСоотношение сторон : 4:3Частота кадров : 25,000 кадров/секСтандарт вещания : PALМетод сжатия : С потерями
АудиоИдентификатор : 0 (0x0)Формат : MPEG AudioПрофиль формата : Version 1Продолжительность : 11 м. 52 с.Каналы : 2 каналаЧастота : 48,0 КГцМетод сжатия : С потерямиЯзык : English
МенюПродолжительность : 11 м. 52 с.00:00:00.000 : Chapter 100:01:59.440 : Chapter 200:03:59.480 : Chapter 300:05:59.680 : Chapter 400:07:59.640 : Chapter 500:09:59.640 : Chapter 600:11:51.640 : Chapter 7List (Audio) : 0
ОбщееПолное имя : U:\MONAR\Документальные фильмы\История России и мира\История Отечества в портретах\Диск 1\VIDEO_TS\VTS_02_0.VOBФормат : MPEG-PSРазмер файла : 10,0 КбайтПродолжительность : 40 мс.Режим общего битрейта : ПостоянныйОбщий поток : 2048 Кбит/сек
ВидеоИдентификатор : 224 (0xE0)Формат : MPEG VideoВерсия формата : Version 2Профиль формата : Main@MainНастройки формата : CustomMatrixПараметр BVOP формата : НетПараметр матрицы формата : ВыборочнаяПродолжительность : 40 мс.Вид битрейта : ПостоянныйМаксимальный битрейт : 9000 Кбит/секШирина : 720 пикселейВысота : 576 пикселейСоотношение сторон : 4:3Частота кадров : 25,000 кадров/секСтандарт вещания : PALЦветовое пространство : YUVСубдискретизация насыщенности : 4:2:0Битовая глубина : 8 битТип развёртки : ПрогрессивнаяПорядок развёртки : Верхнее поле первоеМетод сжатия : С потерямиВременной код первого кадра : 00:00:00:00Оригинал временного кода : Group of pictures headerОсновные цвета : BT.601 NTSCХарактеристики трансфера : BT.601Коэффициенты матрицы : BT.601
Меню
ОбщееПолное имя : U:\MONAR\Документальные фильмы\История России и мира\История Отечества в портретах\Диск 1\VIDEO_TS\VTS_02_1.VOBФормат : MPEG-PSРазмер файла : 322 МбайтПродолжительность : 11 м. 50 с.Режим общего битрейта : ПеременныйОбщий поток : 3796 Кбит/сек
ВидеоИдентификатор : 224 (0xE0)Формат : MPEG VideoВерсия формата : Version 2Профиль формата : Main@MainНастройки формата : CustomMatrix / BVOPПараметр BVOP формата : ДаПараметр матрицы формата : ВыборочнаяПараметр GOP формата : VariableСтруктура изображения : FrameПродолжительность : 47 мс.Вид битрейта : ПеременныйБитрейт : 3497 Кбит/секМаксимальный битрейт : 6900 Кбит/секШирина : 720 пикселейВысота : 576 пикселейСоотношение сторон : 4:3Частота кадров : 25,000 кадров/секСтандарт вещания : PALЦветовое пространство : YUVСубдискретизация насыщенности : 4:2:0Битовая глубина : 8 битТип развёртки : ЧересстрочнаяПорядок развёртки : Верхнее поле первоеМетод сжатия : С потерямиБит/(Пиксели*Кадры) : 0.337Временной код первого кадра : 00:00:00:00Оригинал временного кода : Group of pictures headerGOP, открыто/закрыто : ОткрытоGOP, открыто/закрыто на первом кадре : ЗакрытоРазмер потока : 17,1 Кбайт (0%)
АудиоИдентификатор : 192 (0xC0)Формат : MPEG AudioВерсия формата : Version 1Профиль формата : Layer 2Продолжительность : 11 м. 50 с.Вид битрейта : ПостоянныйБитрейт : 224 Кбит/секКаналы : 2 каналаЧастота : 48,0 КГцЧастота кадров : 41,667 кадра/сек (1152 SPF)Метод сжатия : С потерямиРазмер потока : 19,0 Мбайт (6%)
Меню
ОбщееПолное имя : U:\MONAR\Документальные фильмы\История России и мира\История Отечества в портретах\Диск 1\VIDEO_TS\VTS_03_0.BUPФормат : DVD VideoПрофиль формата : ProgramРазмер файла : 24,0 КбайтПродолжительность : 12 м. 23 с.Режим общего битрейта : ПеременныйОбщий поток : 264 бит/секFileExtension_Invalid : ifo
ВидеоИдентификатор : 224 (0xE0)Формат : MPEG VideoВерсия формата : Version 2Продолжительность : 12 м. 23 с.Вид битрейта : ПеременныйШирина : 720 пикселейВысота : 576 пикселейСоотношение сторон : 4:3Частота кадров : 25,000 кадров/секСтандарт вещания : PALМетод сжатия : С потерями
АудиоИдентификатор : 0 (0x0)Формат : MPEG AudioПрофиль формата : Version 1Продолжительность : 12 м. 23 с.Каналы : 2 каналаЧастота : 48,0 КГцМетод сжатия : С потерямиЯзык : English
МенюПродолжительность : 12 м. 23 с.00:00:00.000 : Chapter 100:01:59.760 : Chapter 200:04:00.000 : Chapter 300:05:59.640 : Chapter 400:07:59.960 : Chapter 500:09:59.800 : Chapter 600:11:59.440 : Chapter 700:12:23.400 : Chapter 8List (Audio) : 0
ОбщееПолное имя : U:\MONAR\Документальные фильмы\История России и мира\История Отечества в портретах\Диск 1\VIDEO_TS\VTS_03_0.IFOФормат : DVD VideoПрофиль формата : ProgramРазмер файла : 24,0 КбайтПродолжительность : 12 м. 23 с.Режим общего битрейта : ПеременныйОбщий поток : 264 бит/сек
ВидеоИдентификатор : 224 (0xE0)Формат : MPEG VideoВерсия формата : Version 2Продолжительность : 12 м. 23 с.Вид битрейта : ПеременныйШирина : 720 пикселейВысота : 576 пикселейСоотношение сторон : 4:3Частота кадров : 25,000 кадров/секСтандарт вещания : PALМетод сжатия : С потерями
АудиоИдентификатор : 0 (0x0)Формат : MPEG AudioПрофиль формата : Version 1Продолжительность : 12 м. 23 с.Каналы : 2 каналаЧастота : 48,0 КГцМетод сжатия : С потерямиЯзык : English
МенюПродолжительность : 12 м. 23 с.00:00:00.000 : Chapter 100:01:59.760 : Chapter 200:04:00.000 : Chapter 300:05:59.640 : Chapter 400:07:59.960 : Chapter 500:09:59.800 : Chapter 600:11:59.440 : Chapter 700:12:23.400 : Chapter 8List (Audio) : 0
ОбщееПолное имя : U:\MONAR\Документальные фильмы\История России и мира\История Отечества в портретах\Диск 1\VIDEO_TS\VTS_03_0.VOBФормат : MPEG-PSРазмер файла : 10,0 КбайтПродолжительность : 40 мс.Режим общего битрейта : ПостоянныйОбщий поток : 2048 Кбит/сек
ВидеоИдентификатор : 224 (0xE0)Формат : MPEG VideoВерсия формата : Version 2Профиль формата : Main@MainНастройки формата : CustomMatrixПараметр BVOP формата : НетПараметр матрицы формата : ВыборочнаяПродолжительность : 40 мс.Вид битрейта : ПостоянныйМаксимальный битрейт : 9000 Кбит/секШирина : 720 пикселейВысота : 576 пикселейСоотношение сторон : 4:3Частота кадров : 25,000 кадров/секСтандарт вещания : PALЦветовое пространство : YUVСубдискретизация насыщенности : 4:2:0Битовая глубина : 8 битТип развёртки : ПрогрессивнаяПорядок развёртки : Верхнее поле первоеМетод сжатия : С потерямиВременной код первого кадра : 00:00:00:00Оригинал временного кода : Group of pictures headerОсновные цвета : BT.601 NTSCХарактеристики трансфера : BT.601Коэффициенты матрицы : BT.601
Меню
ОбщееПолное имя : U:\MONAR\Документальные фильмы\История России и мира\История Отечества в портретах\Диск 1\VIDEO_TS\VTS_03_1.VOBФормат : MPEG-PSРазмер файла : 344 МбайтПродолжительность : 12 м. 22 с.Режим общего битрейта : ПеременныйОбщий поток : 3883 Кбит/сек
ВидеоИдентификатор : 224 (0xE0)Формат : MPEG VideoВерсия формата : Version 2Профиль формата : Main@MainНастройки формата : CustomMatrix / BVOPПараметр BVOP формата : ДаПараметр матрицы формата : ВыборочнаяПараметр GOP формата : VariableСтруктура изображения : FrameПродолжительность : 40 мс.Вид битрейта : ПеременныйБитрейт : 3582 Кбит/секМаксимальный битрейт : 6900 Кбит/секШирина : 720 пикселейВысота : 576 пикселейСоотношение сторон : 4:3Частота кадров : 25,000 кадров/секСтандарт вещания : PALЦветовое пространство : YUVСубдискретизация насыщенности : 4:2:0Битовая глубина : 8 битТип развёртки : ЧересстрочнаяПорядок развёртки : Верхнее поле первоеМетод сжатия : С потерямиБит/(Пиксели*Кадры) : 0.345Временной код первого кадра : 00:00:00:00Оригинал временного кода : Group of pictures headerGOP, открыто/закрыто : ОткрытоGOP, открыто/закрыто на первом кадре : ЗакрытоРазмер потока : 17,5 Кбайт (0%)
АудиоИдентификатор : 192 (0xC0)Формат : MPEG AudioВерсия формата : Version 1Профиль формата : Layer 2Продолжительность : 12 м. 22 с.Вид битрейта : ПостоянныйБитрейт : 224 Кбит/секКаналы : 2 каналаЧастота : 48,0 КГцЧастота кадров : 41,667 кадра/сек (1152 SPF)Метод сжатия : С потерямиРазмер потока : 19,8 Мбайт (6%)
Меню
ОбщееПолное имя : U:\MONAR\Документальные фильмы\История России и мира\История Отечества в портретах\Диск 1\VIDEO_TS\VTS_04_0.BUPФормат : DVD VideoПрофиль формата : ProgramРазмер файла : 24,0 КбайтПродолжительность : 13 м. 22 с.Режим общего битрейта : ПеременныйОбщий поток : 245 бит/секFileExtension_Invalid : ifo
ВидеоИдентификатор : 224 (0xE0)Формат : MPEG VideoВерсия формата : Version 2Продолжительность : 13 м. 22 с.Вид битрейта : ПеременныйШирина : 720 пикселейВысота : 576 пикселейСоотношение сторон : 4:3Частота кадров : 25,000 кадров/секСтандарт вещания : PALМетод сжатия : С потерями
АудиоИдентификатор : 0 (0x0)Формат : MPEG AudioПрофиль формата : Version 1Продолжительность : 13 м. 22 с.Каналы : 2 каналаЧастота : 48,0 КГцМетод сжатия : С потерямиЯзык : English
МенюПродолжительность : 13 м. 22 с.00:00:00.000 : Chapter 100:01:59.640 : Chapter 200:03:59.560 : Chapter 300:05:59.920 : Chapter 400:07:59.520 : Chapter 500:09:59.480 : Chapter 600:11:59.720 : Chapter 700:13:21.960 : Chapter 8List (Audio) : 0
ОбщееПолное имя : U:\MONAR\Документальные фильмы\История России и мира\История Отечества в портретах\Диск 1\VIDEO_TS\VTS_04_0.IFOФормат : DVD VideoПрофиль формата : ProgramРазмер файла : 24,0 КбайтПродолжительность : 13 м. 22 с.Режим общего битрейта : ПеременныйОбщий поток : 245 бит/сек
ВидеоИдентификатор : 224 (0xE0)Формат : MPEG VideoВерсия формата : Version 2Продолжительность : 13 м. 22 с.Вид битрейта : ПеременныйШирина : 720 пикселейВысота : 576 пикселейСоотношение сторон : 4:3Частота кадров : 25,000 кадров/секСтандарт вещания : PALМетод сжатия : С потерями
АудиоИдентификатор : 0 (0x0)Формат : MPEG AudioПрофиль формата : Version 1Продолжительность : 13 м. 22 с.Каналы : 2 каналаЧастота : 48,0 КГцМетод сжатия : С потерямиЯзык : English
МенюПродолжительность : 13 м. 22 с.00:00:00.000 : Chapter 100:01:59.640 : Chapter 200:03:59.560 : Chapter 300:05:59.920 : Chapter 400:07:59.520 : Chapter 500:09:59.480 : Chapter 600:11:59.720 : Chapter 700:13:21.960 : Chapter 8List (Audio) : 0
ОбщееПолное имя : U:\MONAR\Документальные фильмы\История России и мира\История Отечества в портретах\Диск 1\VIDEO_TS\VTS_04_0.VOBФормат : MPEG-PSРазмер файла : 10,0 КбайтПродолжительность : 40 мс.Режим общего битрейта : ПостоянныйОбщий поток : 2048 Кбит/сек
ВидеоИдентификатор : 224 (0xE0)Формат : MPEG VideoВерсия формата : Version 2Профиль формата : Main@MainНастройки формата : CustomMatrixПараметр BVOP формата : НетПараметр матрицы формата : ВыборочнаяПродолжительность : 40 мс.Вид битрейта : ПостоянныйМаксимальный битрейт : 9000 Кбит/секШирина : 720 пикселейВысота : 576 пикселейСоотношение сторон : 4:3Частота кадров : 25,000 кадров/секСтандарт вещания : PALЦветовое пространство : YUVСубдискретизация насыщенности : 4:2:0Битовая глубина : 8 битТип развёртки : ПрогрессивнаяПорядок развёртки : Верхнее поле первоеМетод сжатия : С потерямиВременной код первого кадра : 00:00:00:00Оригинал временного кода : Group of pictures headerОсновные цвета : BT.601 NTSCХарактеристики трансфера : BT.601Коэффициенты матрицы : BT.601
Меню
ОбщееПолное имя : U:\MONAR\Документальные фильмы\История России и мира\История Отечества в портретах\Диск 1\VIDEO_TS\VTS_04_1.VOBФормат : MPEG-PSРазмер файла : 364 МбайтПродолжительность : 13 м. 21 с.Режим общего битрейта : ПеременныйОбщий поток : 3808 Кбит/сек
ВидеоИдентификатор : 224 (0xE0)Формат : MPEG VideoВерсия формата : Version 2Профиль формата : Main@MainНастройки формата : CustomMatrix / BVOPПараметр BVOP формата : ДаПараметр матрицы формата : ВыборочнаяПараметр GOP формата : VariableСтруктура изображения : FrameПродолжительность : 40 мс.Вид битрейта : ПеременныйБитрейт : 3509 Кбит/секМаксимальный битрейт : 6900 Кбит/секШирина : 720 пикселейВысота : 576 пикселейСоотношение сторон : 4:3Частота кадров : 25,000 кадров/секСтандарт вещания : PALЦветовое пространство : YUVСубдискретизация насыщенности : 4:2:0Битовая глубина : 8 битТип развёртки : ЧересстрочнаяПорядок развёртки : Верхнее поле первоеМетод сжатия : С потерямиБит/(Пиксели*Кадры) : 0.338Временной код первого кадра : 00:00:00:00Оригинал временного кода : Group of pictures headerGOP, открыто/закрыто : ОткрытоGOP, открыто/закрыто на первом кадре : ЗакрытоРазмер потока : 17,1 Кбайт (0%)
АудиоИдентификатор : 192 (0xC0)Формат : MPEG AudioВерсия формата : Version 1Профиль формата : Layer 2Продолжительность : 13 м. 21 с.Вид битрейта : ПостоянныйБитрейт : 224 Кбит/секКаналы : 2 каналаЧастота : 48,0 КГцЧастота кадров : 41,667 кадра/сек (1152 SPF)Метод сжатия : С потерямиРазмер потока : 21,4 Мбайт (6%)
Меню
ОбщееПолное имя : U:\MONAR\Документальные фильмы\История России и мира\История Отечества в портретах\Диск 1\VIDEO_TS\VTS_05_0.BUPФормат : DVD VideoПрофиль формата : ProgramРазмер файла : 24,0 КбайтПродолжительность : 13 м. 54 с.Режим общего битрейта : ПеременныйОбщий поток : 236 бит/секFileExtension_Invalid : ifo
ВидеоИдентификатор : 224 (0xE0)Формат : MPEG VideoВерсия формата : Version 2Продолжительность : 13 м. 54 с.Вид битрейта : ПеременныйШирина : 720 пикселейВысота : 576 пикселейСоотношение сторон : 4:3Частота кадров : 25,000 кадров/секСтандарт вещания : PALМетод сжатия : С потерями
АудиоИдентификатор : 0 (0x0)Формат : MPEG AudioПрофиль формата : Version 1Продолжительность : 13 м. 54 с.Каналы : 2 каналаЧастота : 48,0 КГцМетод сжатия : С потерямиЯзык : English
МенюПродолжительность : 13 м. 54 с.00:00:00.000 : Chapter 100:01:59.840 : Chapter 200:03:59.200 : Chapter 300:05:59.240 : Chapter 400:07:59.360 : Chapter 500:09:59.240 : Chapter 600:11:59.400 : Chapter 700:13:53.640 : Chapter 8List (Audio) : 0
ОбщееПолное имя : U:\MONAR\Документальные фильмы\История России и мира\История Отечества в портретах\Диск 1\VIDEO_TS\VTS_05_0.IFOФормат : DVD VideoПрофиль формата : ProgramРазмер файла : 24,0 КбайтПродолжительность : 13 м. 54 с.Режим общего битрейта : ПеременныйОбщий поток : 236 бит/сек
ВидеоИдентификатор : 224 (0xE0)Формат : MPEG VideoВерсия формата : Version 2Продолжительность : 13 м. 54 с.Вид битрейта : ПеременныйШирина : 720 пикселейВысота : 576 пикселейСоотношение сторон : 4:3Частота кадров : 25,000 кадров/секСтандарт вещания : PALМетод сжатия : С потерями
АудиоИдентификатор : 0 (0x0)Формат : MPEG AudioПрофиль формата : Version 1Продолжительность : 13 м. 54 с.Каналы : 2 каналаЧастота : 48,0 КГцМетод сжатия : С потерямиЯзык : English
МенюПродолжительность : 13 м. 54 с.00:00:00.000 : Chapter 100:01:59.840 : Chapter 200:03:59.200 : Chapter 300:05:59.240 : Chapter 400:07:59.360 : Chapter 500:09:59.240 : Chapter 600:11:59.400 : Chapter 700:13:53.640 : Chapter 8List (Audio) : 0
ОбщееПолное имя : U:\MONAR\Документальные фильмы\История России и мира\История Отечества в портретах\Диск 1\VIDEO_TS\VTS_05_0.VOBФормат : MPEG-PSРазмер файла : 10,0 КбайтПродолжительность : 40 мс.Режим общего битрейта : ПостоянныйОбщий поток : 2048 Кбит/сек
ВидеоИдентификатор : 224 (0xE0)Формат : MPEG VideoВерсия формата : Version 2Профиль формата : Main@MainНастройки формата : CustomMatrixПараметр BVOP формата : НетПараметр матрицы формата : ВыборочнаяПродолжительность : 40 мс.Вид битрейта : ПостоянныйМаксимальный битрейт : 9000 Кбит/секШирина : 720 пикселейВысота : 576 пикселейСоотношение сторон : 4:3Частота кадров : 25,000 кадров/секСтандарт вещания : PALЦветовое пространство : YUVСубдискретизация насыщенности : 4:2:0Битовая глубина : 8 битТип развёртки : ПрогрессивнаяПорядок развёртки : Верхнее поле первоеМетод сжатия : С потерямиВременной код первого кадра : 00:00:00:00Оригинал временного кода : Group of pictures headerОсновные цвета : BT.601 NTSCХарактеристики трансфера : BT.601Коэффициенты матрицы : BT.601
Меню
ОбщееПолное имя : U:\MONAR\Документальные фильмы\История России и мира\История Отечества в портретах\Диск 1\VIDEO_TS\VTS_05_1.VOBФормат : MPEG-PSРазмер файла : 379 МбайтПродолжительность : 13 м. 52 с.Режим общего битрейта : ПеременныйОбщий поток : 3815 Кбит/сек
ВидеоИдентификатор : 224 (0xE0)Формат : MPEG VideoВерсия формата : Version 2Профиль формата : Main@MainНастройки формата : CustomMatrix / BVOPПараметр BVOP формата : ДаПараметр матрицы формата : ВыборочнаяПараметр GOP формата : VariableСтруктура изображения : FrameПродолжительность : 40 мс.Вид битрейта : ПеременныйБитрейт : 3515 Кбит/секМаксимальный битрейт : 6900 Кбит/секШирина : 720 пикселейВысота : 576 пикселейСоотношение сторон : 4:3Частота кадров : 25,000 кадров/секСтандарт вещания : PALЦветовое пространство : YUVСубдискретизация насыщенности : 4:2:0Битовая глубина : 8 битТип развёртки : ЧересстрочнаяПорядок развёртки : Верхнее поле первоеМетод сжатия : С потерямиБит/(Пиксели*Кадры) : 0.339Временной код первого кадра : 00:00:00:00Оригинал временного кода : Group of pictures headerGOP, открыто/закрыто : ОткрытоGOP, открыто/закрыто на первом кадре : ЗакрытоРазмер потока : 17,2 Кбайт (0%)
АудиоИдентификатор : 192 (0xC0)Формат : MPEG AudioВерсия формата : Version 1Профиль формата : Layer 2Продолжительность : 13 м. 52 с.Вид битрейта : ПостоянныйБитрейт : 224 Кбит/секКаналы : 2 каналаЧастота : 48,0 КГцЧастота кадров : 41,667 кадра/сек (1152 SPF)Метод сжатия : С потерямиРазмер потока : 22,2 Мбайт (6%)
Меню
ОбщееПолное имя : U:\MONAR\Документальные фильмы\История России и мира\История Отечества в портретах\Диск 1\VIDEO_TS\VTS_06_0.BUPФормат : DVD VideoПрофиль формата : ProgramРазмер файла : 24,0 КбайтПродолжительность : 13 м. 44 с.Режим общего битрейта : ПеременныйОбщий поток : 238 бит/секFileExtension_Invalid : ifo
ВидеоИдентификатор : 224 (0xE0)Формат : MPEG VideoВерсия формата : Version 2Продолжительность : 13 м. 44 с.Вид битрейта : ПеременныйШирина : 720 пикселейВысота : 576 пикселейСоотношение сторон : 4:3Частота кадров : 25,000 кадров/секСтандарт вещания : PALМетод сжатия : С потерями
АудиоИдентификатор : 0 (0x0)Формат : MPEG AudioПрофиль формата : Version 1Продолжительность : 13 м. 44 с.Каналы : 2 каналаЧастота : 48,0 КГцМетод сжатия : С потерямиЯзык : English
МенюПродолжительность : 13 м. 44 с.00:00:00.000 : Chapter 100:01:59.680 : Chapter 200:03:59.920 : Chapter 300:05:59.640 : Chapter 400:07:59.520 : Chapter 500:09:59.920 : Chapter 600:11:59.600 : Chapter 700:13:44.000 : Chapter 8List (Audio) : 0
ОбщееПолное имя : U:\MONAR\Документальные фильмы\История России и мира\История Отечества в портретах\Диск 1\VIDEO_TS\VTS_06_0.IFOФормат : DVD VideoПрофиль формата : ProgramРазмер файла : 24,0 КбайтПродолжительность : 13 м. 44 с.Режим общего битрейта : ПеременныйОбщий поток : 238 бит/сек
ВидеоИдентификатор : 224 (0xE0)Формат : MPEG VideoВерсия формата : Version 2Продолжительность : 13 м. 44 с.Вид битрейта : ПеременныйШирина : 720 пикселейВысота : 576 пикселейСоотношение сторон : 4:3Частота кадров : 25,000 кадров/секСтандарт вещания : PALМетод сжатия : С потерями
АудиоИдентификатор : 0 (0x0)Формат : MPEG AudioПрофиль формата : Version 1Продолжительность : 13 м. 44 с.Каналы : 2 каналаЧастота : 48,0 КГцМетод сжатия : С потерямиЯзык : English
МенюПродолжительность : 13 м. 44 с.00:00:00.000 : Chapter 100:01:59.680 : Chapter 200:03:59.920 : Chapter 300:05:59.640 : Chapter 400:07:59.520 : Chapter 500:09:59.920 : Chapter 600:11:59.600 : Chapter 700:13:44.000 : Chapter 8List (Audio) : 0
ОбщееПолное имя : U:\MONAR\Документальные фильмы\История России и мира\История Отечества в портретах\Диск 1\VIDEO_TS\VTS_06_0.VOBФормат : MPEG-PSРазмер файла : 10,0 КбайтПродолжительность : 40 мс.Режим общего битрейта : ПостоянныйОбщий поток : 2048 Кбит/сек
ВидеоИдентификатор : 224 (0xE0)Формат : MPEG VideoВерсия формата : Version 2Профиль формата : Main@MainНастройки формата : CustomMatrixПараметр BVOP формата : НетПараметр матрицы формата : ВыборочнаяПродолжительность : 40 мс.Вид битрейта : ПостоянныйМаксимальный битрейт : 9000 Кбит/секШирина : 720 пикселейВысота : 576 пикселейСоотношение сторон : 4:3Частота кадров : 25,000 кадров/секСтандарт вещания : PALЦветовое пространство : YUVСубдискретизация насыщенности : 4:2:0Битовая глубина : 8 битТип развёртки : ПрогрессивнаяПорядок развёртки : Верхнее поле первоеМетод сжатия : С потерямиВременной код первого кадра : 00:00:00:00Оригинал временного кода : Group of pictures headerОсновные цвета : BT.601 NTSCХарактеристики трансфера : BT.601Коэффициенты матрицы : BT.601
Меню
ОбщееПолное имя : U:\MONAR\Документальные фильмы\История России и мира\История Отечества в портретах\Диск 1\VIDEO_TS\VTS_06_1.VOBФормат : MPEG-PSРазмер файла : 374 МбайтПродолжительность : 13 м. 44 с.Режим общего битрейта : ПеременныйОбщий поток : 3808 Кбит/сек
ВидеоИдентификатор : 224 (0xE0)Формат : MPEG VideoВерсия формата : Version 2Профиль формата : Main@MainНастройки формата : CustomMatrix / BVOPПараметр BVOP формата : ДаПараметр матрицы формата : ВыборочнаяПараметр GOP формата : VariableСтруктура изображения : FrameПродолжительность : 40 мс.Вид битрейта : ПеременныйБитрейт : 3509 Кбит/секМаксимальный битрейт : 6900 Кбит/секШирина : 720 пикселейВысота : 576 пикселейСоотношение сторон : 4:3Частота кадров : 25,000 кадров/секСтандарт вещания : PALЦветовое пространство : YUVСубдискретизация насыщенности : 4:2:0Битовая глубина : 8 битТип развёртки : ЧересстрочнаяПорядок развёртки : Верхнее поле первоеМетод сжатия : С потерямиБит/(Пиксели*Кадры) : 0.338Временной код первого кадра : 00:00:00:00Оригинал временного кода : Group of pictures headerGOP, открыто/закрыто : ОткрытоGOP, открыто/закрыто на первом кадре : ЗакрытоРазмер потока : 17,1 Кбайт (0%)
АудиоИдентификатор : 192 (0xC0)Формат : MPEG AudioВерсия формата : Version 1Профиль формата : Layer 2Продолжительность : 13 м. 44 с.Вид битрейта : ПостоянныйБитрейт : 224 Кбит/секКаналы : 2 каналаЧастота : 48,0 КГцЧастота кадров : 41,667 кадра/сек (1152 SPF)Метод сжатия : С потерямиРазмер потока : 22,0 Мбайт (6%)
Меню
ОбщееПолное имя : U:\MONAR\Документальные фильмы\История России и мира\История Отечества в портретах\Диск 1\VIDEO_TS\VTS_07_0.BUPФормат : DVD VideoПрофиль формата : ProgramРазмер файла : 24,0 КбайтПродолжительность : 13 м. 56 с.Режим общего битрейта : ПеременныйОбщий поток : 235 бит/секFileExtension_Invalid : ifo
ВидеоИдентификатор : 224 (0xE0)Формат : MPEG VideoВерсия формата : Version 2Продолжительность : 13 м. 56 с.Вид битрейта : ПеременныйШирина : 720 пикселейВысота : 576 пикселейСоотношение сторон : 4:3Частота кадров : 25,000 кадров/секСтандарт вещания : PALМетод сжатия : С потерями
АудиоИдентификатор : 0 (0x0)Формат : MPEG AudioПрофиль формата : Version 1Продолжительность : 13 м. 56 с.Каналы : 2 каналаЧастота : 48,0 КГцМетод сжатия : С потерямиЯзык : English
МенюПродолжительность : 13 м. 56 с.00:00:00.000 : Chapter 100:01:59.520 : Chapter 200:03:59.520 : Chapter 300:05:59.800 : Chapter 400:07:59.840 : Chapter 500:09:59.720 : Chapter 600:11:59.920 : Chapter 700:13:56.280 : Chapter 8List (Audio) : 0
ОбщееПолное имя : U:\MONAR\Документальные фильмы\История России и мира\История Отечества в портретах\Диск 1\VIDEO_TS\VTS_07_0.IFOФормат : DVD VideoПрофиль формата : ProgramРазмер файла : 24,0 КбайтПродолжительность : 13 м. 56 с.Режим общего битрейта : ПеременныйОбщий поток : 235 бит/сек
ВидеоИдентификатор : 224 (0xE0)Формат : MPEG VideoВерсия формата : Version 2Продолжительность : 13 м. 56 с.Вид битрейта : ПеременныйШирина : 720 пикселейВысота : 576 пикселейСоотношение сторон : 4:3Частота кадров : 25,000 кадров/секСтандарт вещания : PALМетод сжатия : С потерями
АудиоИдентификатор : 0 (0x0)Формат : MPEG AudioПрофиль формата : Version 1Продолжительность : 13 м. 56 с.Каналы : 2 каналаЧастота : 48,0 КГцМетод сжатия : С потерямиЯзык : English
МенюПродолжительность : 13 м. 56 с.00:00:00.000 : Chapter 100:01:59.520 : Chapter 200:03:59.520 : Chapter 300:05:59.800 : Chapter 400:07:59.840 : Chapter 500:09:59.720 : Chapter 600:11:59.920 : Chapter 700:13:56.280 : Chapter 8List (Audio) : 0
ОбщееПолное имя : U:\MONAR\Документальные фильмы\История России и мира\История Отечества в портретах\Диск 1\VIDEO_TS\VTS_07_0.VOBФормат : MPEG-PSРазмер файла : 10,0 КбайтПродолжительность : 40 мс.Режим общего битрейта : ПостоянныйОбщий поток : 2048 Кбит/сек
ВидеоИдентификатор : 224 (0xE0)Формат : MPEG VideoВерсия формата : Version 2Профиль формата : Main@MainНастройки формата : CustomMatrixПараметр BVOP формата : НетПараметр матрицы формата : ВыборочнаяПродолжительность : 40 мс.Вид битрейта : ПостоянныйМаксимальный битрейт : 9000 Кбит/секШирина : 720 пикселейВысота : 576 пикселейСоотношение сторон : 4:3Частота кадров : 25,000 кадров/секСтандарт вещания : PALЦветовое пространство : YUVСубдискретизация насыщенности : 4:2:0Битовая глубина : 8 битТип развёртки : ПрогрессивнаяПорядок развёртки : Верхнее поле первоеМетод сжатия : С потерямиВременной код первого кадра : 00:00:00:00Оригинал временного кода : Group of pictures headerОсновные цвета : BT.601 NTSCХарактеристики трансфера : BT.601Коэффициенты матрицы : BT.601
Меню
ОбщееПолное имя : U:\MONAR\Документальные фильмы\История России и мира\История Отечества в портретах\Диск 1\VIDEO_TS\VTS_07_1.VOBФормат : MPEG-PSРазмер файла : 381 МбайтПродолжительность : 13 м. 55 с.Режим общего битрейта : ПеременныйОбщий поток : 3829 Кбит/сек
ВидеоИдентификатор : 224 (0xE0)Формат : MPEG VideoВерсия формата : Version 2Профиль формата : Main@MainНастройки формата : CustomMatrix / BVOPПараметр BVOP формата : ДаПараметр матрицы формата : ВыборочнаяПараметр GOP формата : VariableСтруктура изображения : FrameПродолжительность : 40 мс.Вид битрейта : ПеременныйБитрейт : 3528 Кбит/секМаксимальный битрейт : 6900 Кбит/секШирина : 720 пикселейВысота : 576 пикселейСоотношение сторон : 4:3Частота кадров : 25,000 кадров/секСтандарт вещания : PALЦветовое пространство : YUVСубдискретизация насыщенности : 4:2:0Битовая глубина : 8 битТип развёртки : ЧересстрочнаяПорядок развёртки : Верхнее поле первоеМетод сжатия : С потерямиБит/(Пиксели*Кадры) : 0.340Временной код первого кадра : 00:00:00:00Оригинал временного кода : Group of pictures headerGOP, открыто/закрыто : ОткрытоGOP, открыто/закрыто на первом кадре : ЗакрытоРазмер потока : 17,2 Кбайт (0%)
АудиоИдентификатор : 192 (0xC0)Формат : MPEG AudioВерсия формата : Version 1Профиль формата : Layer 2Продолжительность : 13 м. 55 с.Вид битрейта : ПостоянныйБитрейт : 224 Кбит/секКаналы : 2 каналаЧастота : 48,0 КГцЧастота кадров : 41,667 кадра/сек (1152 SPF)Метод сжатия : С потерямиРазмер потока : 22,3 Мбайт (6%)
Меню
ОбщееПолное имя : U:\MONAR\Документальные фильмы\История России и мира\История Отечества в портретах\Диск 1\VIDEO_TS\VTS_08_0.BUPФормат : DVD VideoПрофиль формата : ProgramРазмер файла : 24,0 КбайтПродолжительность : 13 м. 2 с.Режим общего битрейта : ПеременныйОбщий поток : 251 бит/секFileExtension_Invalid : ifo
ВидеоИдентификатор : 224 (0xE0)Формат : MPEG VideoВерсия формата : Version 2Продолжительность : 13 м. 2 с.Вид битрейта : ПеременныйШирина : 720 пикселейВысота : 576 пикселейСоотношение сторон : 4:3Частота кадров : 25,000 кадров/секСтандарт вещания : PALМетод сжатия : С потерями
АудиоИдентификатор : 0 (0x0)Формат : MPEG AudioПрофиль формата : Version 1Продолжительность : 13 м. 2 с.Каналы : 2 каналаЧастота : 48,0 КГцМетод сжатия : С потерямиЯзык : English
МенюПродолжительность : 13 м. 2 с.00:00:00.000 : Chapter 100:01:59.760 : Chapter 200:03:59.720 : Chapter 300:05:59.920 : Chapter 400:07:59.680 : Chapter 500:09:59.760 : Chapter 600:11:59.720 : Chapter 700:13:02.000 : Chapter 8List (Audio) : 0
ОбщееПолное имя : U:\MONAR\Документальные фильмы\История России и мира\История Отечества в портретах\Диск 1\VIDEO_TS\VTS_08_0.IFOФормат : DVD VideoПрофиль формата : ProgramРазмер файла : 24,0 КбайтПродолжительность : 13 м. 2 с.Режим общего битрейта : ПеременныйОбщий поток : 251 бит/сек
ВидеоИдентификатор : 224 (0xE0)Формат : MPEG VideoВерсия формата : Version 2Продолжительность : 13 м. 2 с.Вид битрейта : ПеременныйШирина : 720 пикселейВысота : 576 пикселейСоотношение сторон : 4:3Частота кадров : 25,000 кадров/секСтандарт вещания : PALМетод сжатия : С потерями
АудиоИдентификатор : 0 (0x0)Формат : MPEG AudioПрофиль формата : Version 1Продолжительность : 13 м. 2 с.Каналы : 2 каналаЧастота : 48,0 КГцМетод сжатия : С потерямиЯзык : English
МенюПродолжительность : 13 м. 2 с.00:00:00.000 : Chapter 100:01:59.760 : Chapter 200:03:59.720 : Chapter 300:05:59.920 : Chapter 400:07:59.680 : Chapter 500:09:59.760 : Chapter 600:11:59.720 : Chapter 700:13:02.000 : Chapter 8List (Audio) : 0
ОбщееПолное имя : U:\MONAR\Документальные фильмы\История России и мира\История Отечества в портретах\Диск 1\VIDEO_TS\VTS_08_0.VOBФормат : MPEG-PSРазмер файла : 10,0 КбайтПродолжительность : 40 мс.Режим общего битрейта : ПостоянныйОбщий поток : 2048 Кбит/сек
ВидеоИдентификатор : 224 (0xE0)Формат : MPEG VideoВерсия формата : Version 2Профиль формата : Main@MainНастройки формата : CustomMatrixПараметр BVOP формата : НетПараметр матрицы формата : ВыборочнаяПродолжительность : 40 мс.Вид битрейта : ПостоянныйМаксимальный битрейт : 9000 Кбит/секШирина : 720 пикселейВысота : 576 пикселейСоотношение сторон : 4:3Частота кадров : 25,000 кадров/секСтандарт вещания : PALЦветовое пространство : YUVСубдискретизация насыщенности : 4:2:0Битовая глубина : 8 битТип развёртки : ПрогрессивнаяПорядок развёртки : Верхнее поле первоеМетод сжатия : С потерямиВременной код первого кадра : 00:00:00:00Оригинал временного кода : Group of pictures headerОсновные цвета : BT.601 NTSCХарактеристики трансфера : BT.601Коэффициенты матрицы : BT.601
Меню
ОбщееПолное имя : U:\MONAR\Документальные фильмы\История России и мира\История Отечества в портретах\Диск 1\VIDEO_TS\VTS_08_1.VOBФормат : MPEG-PSРазмер файла : 355 МбайтПродолжительность : 13 м. 2 с.Режим общего битрейта : ПеременныйОбщий поток : 3808 Кбит/сек
ВидеоИдентификатор : 224 (0xE0)Формат : MPEG VideoВерсия формата : Version 2Профиль формата : Main@MainНастройки формата : CustomMatrix / BVOPПараметр BVOP формата : ДаПараметр матрицы формата : ВыборочнаяПараметр GOP формата : VariableСтруктура изображения : FrameПродолжительность : 40 мс.Вид битрейта : ПеременныйБитрейт : 3508 Кбит/секМаксимальный битрейт : 6900 Кбит/секШирина : 720 пикселейВысота : 576 пикселейСоотношение сторон : 4:3Частота кадров : 25,000 кадров/секСтандарт вещания : PALЦветовое пространство : YUVСубдискретизация насыщенности : 4:2:0Битовая глубина : 8 битТип развёртки : ЧересстрочнаяПорядок развёртки : Верхнее поле первоеМетод сжатия : С потерямиБит/(Пиксели*Кадры) : 0.338Временной код первого кадра : 00:00:00:00Оригинал временного кода : Group of pictures headerGOP, открыто/закрыто : ОткрытоGOP, открыто/закрыто на первом кадре : ЗакрытоРазмер потока : 17,1 Кбайт (0%)
АудиоИдентификатор : 192 (0xC0)Формат : MPEG AudioВерсия формата : Version 1Профиль формата : Layer 2Продолжительность : 13 м. 2 с.Вид битрейта : ПостоянныйБитрейт : 224 Кбит/секКаналы : 2 каналаЧастота : 48,0 КГцЧастота кадров : 41,667 кадра/сек (1152 SPF)Метод сжатия : С потерямиРазмер потока : 20,9 Мбайт (6%)
Меню
ОбщееПолное имя : U:\MONAR\Документальные фильмы\История России и мира\История Отечества в портретах\Диск 1\VIDEO_TS\VTS_09_0.BUPФормат : DVD VideoПрофиль формата : ProgramРазмер файла : 24,0 КбайтПродолжительность : 13 м. 28 с.Режим общего битрейта : ПеременныйОбщий поток : 243 бит/секFileExtension_Invalid : ifo
ВидеоИдентификатор : 224 (0xE0)Формат : MPEG VideoВерсия формата : Version 2Продолжительность : 13 м. 28 с.Вид битрейта : ПеременныйШирина : 720 пикселейВысота : 576 пикселейСоотношение сторон : 4:3Частота кадров : 25,000 кадров/секСтандарт вещания : PALМетод сжатия : С потерями
АудиоИдентификатор : 0 (0x0)Формат : MPEG AudioПрофиль формата : Version 1Продолжительность : 13 м. 28 с.Каналы : 2 каналаЧастота : 48,0 КГцМетод сжатия : С потерямиЯзык : English
МенюПродолжительность : 13 м. 28 с.00:00:00.000 : Chapter 100:01:59.480 : Chapter 200:03:59.320 : Chapter 300:05:59.200 : Chapter 400:07:59.720 : Chapter 500:09:59.320 : Chapter 600:11:59.320 : Chapter 700:13:28.320 : Chapter 8List (Audio) : 0
ОбщееПолное имя : U:\MONAR\Документальные фильмы\История России и мира\История Отечества в портретах\Диск 1\VIDEO_TS\VTS_09_0.IFOФормат : DVD VideoПрофиль формата : ProgramРазмер файла : 24,0 КбайтПродолжительность : 13 м. 28 с.Режим общего битрейта : ПеременныйОбщий поток : 243 бит/сек
ВидеоИдентификатор : 224 (0xE0)Формат : MPEG VideoВерсия формата : Version 2Продолжительность : 13 м. 28 с.Вид битрейта : ПеременныйШирина : 720 пикселейВысота : 576 пикселейСоотношение сторон : 4:3Частота кадров : 25,000 кадров/секСтандарт вещания : PALМетод сжатия : С потерями
АудиоИдентификатор : 0 (0x0)Формат : MPEG AudioПрофиль формата : Version 1Продолжительность : 13 м. 28 с.Каналы : 2 каналаЧастота : 48,0 КГцМетод сжатия : С потерямиЯзык : English
МенюПродолжительность : 13 м. 28 с.00:00:00.000 : Chapter 100:01:59.480 : Chapter 200:03:59.320 : Chapter 300:05:59.200 : Chapter 400:07:59.720 : Chapter 500:09:59.320 : Chapter 600:11:59.320 : Chapter 700:13:28.320 : Chapter 8List (Audio) : 0
ОбщееПолное имя : U:\MONAR\Документальные фильмы\История России и мира\История Отечества в портретах\Диск 1\VIDEO_TS\VTS_09_0.VOBФормат : MPEG-PSРазмер файла : 10,0 КбайтПродолжительность : 40 мс.Режим общего битрейта : ПостоянныйОбщий поток : 2048 Кбит/сек
ВидеоИдентификатор : 224 (0xE0)Формат : MPEG VideoВерсия формата : Version 2Профиль формата : Main@MainНастройки формата : CustomMatrixПараметр BVOP формата : НетПараметр матрицы формата : ВыборочнаяПродолжительность : 40 мс.Вид битрейта : ПостоянныйМаксимальный битрейт : 9000 Кбит/секШирина : 720 пикселейВысота : 576 пикселейСоотношение сторон : 4:3Частота кадров : 25,000 кадров/секСтандарт вещания : PALЦветовое пространство : YUVСубдискретизация насыщенности : 4:2:0Битовая глубина : 8 битТип развёртки : ПрогрессивнаяПорядок развёртки : Верхнее поле первоеМетод сжатия : С потерямиВременной код первого кадра : 00:00:00:00Оригинал временного кода : Group of pictures headerОсновные цвета : BT.601 NTSCХарактеристики трансфера : BT.601Коэффициенты матрицы : BT.601
Меню
ОбщееПолное имя : U:\MONAR\Документальные фильмы\История России и мира\История Отечества в портретах\Диск 1\VIDEO_TS\VTS_09_1.VOBФормат : MPEG-PSРазмер файла : 370 МбайтПродолжительность : 13 м. 27 с.Режим общего битрейта : ПеременныйОбщий поток : 3848 Кбит/сек
ВидеоИдентификатор : 224 (0xE0)Формат : MPEG VideoВерсия формата : Version 2Профиль формата : Main@MainНастройки формата : CustomMatrix / BVOPПараметр BVOP формата : ДаПараметр матрицы формата : ВыборочнаяПараметр GOP формата : VariableСтруктура изображения : FrameПродолжительность : 40 мс.Вид битрейта : ПеременныйБитрейт : 3547 Кбит/секМаксимальный битрейт : 6900 Кбит/секШирина : 720 пикселейВысота : 576 пикселейСоотношение сторон : 4:3Частота кадров : 25,000 кадров/секСтандарт вещания : PALЦветовое пространство : YUVСубдискретизация насыщенности : 4:2:0Битовая глубина : 8 битТип развёртки : ЧересстрочнаяПорядок развёртки : Верхнее поле первоеМетод сжатия : С потерямиБит/(Пиксели*Кадры) : 0.342Временной код первого кадра : 00:00:00:00Оригинал временного кода : Group of pictures headerGOP, открыто/закрыто : ОткрытоGOP, открыто/закрыто на первом кадре : ЗакрытоРазмер потока : 17,3 Кбайт (0%)
АудиоИдентификатор : 192 (0xC0)Формат : MPEG AudioВерсия формата : Version 1Профиль формата : Layer 2Продолжительность : 13 м. 27 с.Вид битрейта : ПостоянныйБитрейт : 224 Кбит/секКаналы : 2 каналаЧастота : 48,0 КГцЧастота кадров : 41,667 кадра/сек (1152 SPF)Метод сжатия : С потерямиРазмер потока : 21,6 Мбайт (6%)
Меню
ОбщееПолное имя : U:\MONAR\Документальные фильмы\История России и мира\История Отечества в портретах\Диск 1\VIDEO_TS\VTS_10_0.BUPФормат : DVD VideoПрофиль формата : ProgramРазмер файла : 24,0 КбайтПродолжительность : 13 м. 48 с.Режим общего битрейта : ПеременныйОбщий поток : 237 бит/секFileExtension_Invalid : ifo
ВидеоИдентификатор : 224 (0xE0)Формат : MPEG VideoВерсия формата : Version 2Продолжительность : 13 м. 48 с.Вид битрейта : ПеременныйШирина : 720 пикселейВысота : 576 пикселейСоотношение сторон : 4:3Частота кадров : 25,000 кадров/секСтандарт вещания : PALМетод сжатия : С потерями
АудиоИдентификатор : 0 (0x0)Формат : MPEG AudioПрофиль формата : Version 1Продолжительность : 13 м. 48 с.Каналы : 2 каналаЧастота : 48,0 КГцМетод сжатия : С потерямиЯзык : English
МенюПродолжительность : 13 м. 48 с.00:00:00.000 : Chapter 100:01:59.520 : Chapter 200:03:59.640 : Chapter 300:05:59.400 : Chapter 400:07:59.560 : Chapter 500:09:59.440 : Chapter 600:11:59.200 : Chapter 700:13:47.840 : Chapter 8List (Audio) : 0
ОбщееПолное имя : U:\MONAR\Документальные фильмы\История России и мира\История Отечества в портретах\Диск 1\VIDEO_TS\VTS_10_0.IFOФормат : DVD VideoПрофиль формата : ProgramРазмер файла : 24,0 КбайтПродолжительность : 13 м. 48 с.Режим общего битрейта : ПеременныйОбщий поток : 237 бит/сек
ВидеоИдентификатор : 224 (0xE0)Формат : MPEG VideoВерсия формата : Version 2Продолжительность : 13 м. 48 с.Вид битрейта : ПеременныйШирина : 720 пикселейВысота : 576 пикселейСоотношение сторон : 4:3Частота кадров : 25,000 кадров/секСтандарт вещания : PALМетод сжатия : С потерями
АудиоИдентификатор : 0 (0x0)Формат : MPEG AudioПрофиль формата : Version 1Продолжительность : 13 м. 48 с.Каналы : 2 каналаЧастота : 48,0 КГцМетод сжатия : С потерямиЯзык : English
МенюПродолжительность : 13 м. 48 с.00:00:00.000 : Chapter 100:01:59.520 : Chapter 200:03:59.640 : Chapter 300:05:59.400 : Chapter 400:07:59.560 : Chapter 500:09:59.440 : Chapter 600:11:59.200 : Chapter 700:13:47.840 : Chapter 8List (Audio) : 0
ОбщееПолное имя : U:\MONAR\Документальные фильмы\История России и мира\История Отечества в портретах\Диск 1\VIDEO_TS\VTS_10_0.VOBФормат : MPEG-PSРазмер файла : 10,0 КбайтПродолжительность : 40 мс.Режим общего битрейта : ПостоянныйОбщий поток : 2048 Кбит/сек
ВидеоИдентификатор : 224 (0xE0)Формат : MPEG VideoВерсия формата : Version 2Профиль формата : Main@MainНастройки формата : CustomMatrixПараметр BVOP формата : НетПараметр матрицы формата : ВыборочнаяПродолжительность : 40 мс.Вид битрейта : ПостоянныйМаксимальный битрейт : 9000 Кбит/секШирина : 720 пикселейВысота : 576 пикселейСоотношение сторон : 4:3Частота кадров : 25,000 кадров/секСтандарт вещания : PALЦветовое пространство : YUVСубдискретизация насыщенности : 4:2:0Битовая глубина : 8 битТип развёртки : ПрогрессивнаяПорядок развёртки : Верхнее поле первоеМетод сжатия : С потерямиВременной код первого кадра : 00:00:00:00Оригинал временного кода : Group of pictures headerОсновные цвета : BT.601 NTSCХарактеристики трансфера : BT.601Коэффициенты матрицы : BT.601
Меню
ОбщееПолное имя : U:\MONAR\Документальные фильмы\История России и мира\История Отечества в портретах\Диск 1\VIDEO_TS\VTS_10_1.VOBФормат : MPEG-PSРазмер файла : 380 МбайтПродолжительность : 13 м. 47 с.Режим общего битрейта : ПеременныйОбщий поток : 3849 Кбит/сек
ВидеоИдентификатор : 224 (0xE0)Формат : MPEG VideoВерсия формата : Version 2Профиль формата : Main@MainНастройки формата : CustomMatrix / BVOPПараметр BVOP формата : ДаПараметр матрицы формата : ВыборочнаяПараметр GOP формата : VariableСтруктура изображения : FrameПродолжительность : 40 мс.Вид битрейта : ПеременныйБитрейт : 3549 Кбит/секМаксимальный битрейт : 6900 Кбит/секШирина : 720 пикселейВысота : 576 пикселейСоотношение сторон : 4:3Частота кадров : 25,000 кадров/секСтандарт вещания : PALЦветовое пространство : YUVСубдискретизация насыщенности : 4:2:0Битовая глубина : 8 битТип развёртки : ЧересстрочнаяПорядок развёртки : Верхнее поле первоеМетод сжатия : С потерямиБит/(Пиксели*Кадры) : 0.342Временной код первого кадра : 00:00:00:00Оригинал временного кода : Group of pictures headerGOP, открыто/закрыто : ОткрытоGOP, открыто/закрыто на первом кадре : ЗакрытоРазмер потока : 17,3 Кбайт (0%)
АудиоИдентификатор : 192 (0xC0)Формат : MPEG AudioВерсия формата : Version 1Профиль формата : Layer 2Продолжительность : 13 м. 47 с.Вид битрейта : ПостоянныйБитрейт : 224 Кбит/секКаналы : 2 каналаЧастота : 48,0 КГцЧастота кадров : 41,667 кадра/сек (1152 SPF)Метод сжатия : С потерямиРазмер потока : 22,1 Мбайт (6%)
Меню

Скриншот меню

Скриншоты

Анаморфированные скриншоты

Обложка и диски

[Profile]  [PM] 
Display posts:    
Reply to topic

Current time is: 14-Dec 14:27

All times are UTC + 2



You cannot post new topics in this forum
You cannot reply to topics in this forum
You cannot edit your posts in this forum
You cannot delete your posts in this forum
You cannot vote in polls in this forum
You cannot attach files in this forum
You cannot download files in this forum