Я - Петербуржец (Л. Н. Махинько) [1996, видовой, документальный, VHSRip]

Reply to topic
 
Author
Message

Atila ®

Gender: Unknown

Longevity: 7 years 5 months

Posts: 2505

Reputation: 0 [+] [-]

Atila · Post 20-Jan-2019 16:10

[Quote] 

Я - Петербуржец
Дата/Год выпуска: 1996
Страна: Россия
Жанр: видовой, документальный
Продолжительность: 12x~10 минут (Общая продолжительность: 1:59:47)
Перевод: Не требуется
Режиссер: Л. Н. Махинько
Описание: Учебный фильм по истории и культуре Санкт-Петербурга.
Это VHSRIP ремастеринговый в DVD-VIDEO, имеется меню, правда с одной кнопкой запуска воспроизведения, и без навигации по частям. Понимаю - несовершенно, но что есть, то есть: в интернете данный фильм отсутствует.

Содержание:

1. Петербург
2. Петропавловская крепость
3. Нева
4. Дворцы Санкт-Петербурга
5. Сады и парки Санкт-Петербурга
6. Адмиралтейство
7. Архитектурные ансамбли
8. Ансамбль стрелки Васильевского острова
9. Медный всадник
10. Сенатская площадь
11. Дворцовая площадь
12. Михайловская площадь
Сэмпл: http://multi-up.com/1218414
качество: VHSRip
формат: DVD-Video
Видео: 720x576,4788kbps,25fps
Аудио: AC3,48kHz,224kbps

MediaInfo

GeneralComplete name                            : VIDEO_TS/VIDEO_TS.BUPFormat                                   : DVD VideoFormat profile                           : MenuFile size                                : 12.0 KiBOverall bit rate mode                    : VariableFileExtension_Invalid                    : ifo
VideoID : 224 (0xE0)Format : MPEG VideoFormat version : Version 2Bit rate mode : VariableWidth : 720 pixelsHeight : 576 pixelsDisplay aspect ratio : 4:3Frame rate : 25.000 FPSStandard : PALCompression mode : Lossy
AudioFormat : AC-3Format/Info : Audio Coding 3Channel(s) : 2 channelsSampling rate : 48.0 kHzCompression mode : LossyLanguage : Russian
GeneralComplete name : VIDEO_TS/VIDEO_TS.IFOFormat : DVD VideoFormat profile : MenuFile size : 12.0 KiBOverall bit rate mode : Variable
VideoID : 224 (0xE0)Format : MPEG VideoFormat version : Version 2Bit rate mode : VariableWidth : 720 pixelsHeight : 576 pixelsDisplay aspect ratio : 4:3Frame rate : 25.000 FPSStandard : PALCompression mode : Lossy
AudioFormat : AC-3Format/Info : Audio Coding 3Channel(s) : 2 channelsSampling rate : 48.0 kHzCompression mode : LossyLanguage : Russian
GeneralComplete name : VIDEO_TS/VIDEO_TS.VOBFormat : MPEG-PSFile size : 234 KiBDuration : 6 s 16 msOverall bit rate mode : VariableOverall bit rate : 319 kb/s
VideoID : 224 (0xE0)Format : MPEG VideoFormat version : Version 2Format profile : Main@MainFormat settings, BVOP : NoFormat settings, Matrix : DefaultFormat settings, GOP : N=15Format settings, picture structure : FrameDuration : 6 s 0 msBit rate mode : VariableBit rate : 216 kb/sMaximum bit rate : 7 500 kb/sWidth : 720 pixelsHeight : 576 pixelsDisplay aspect ratio : 16:9Frame rate : 25.000 FPSStandard : PALColor space : YUVChroma subsampling : 4:2:0Bit depth : 8 bitsScan type : InterlacedScan order : Bottom Field FirstCompression mode : LossyBits/(Pixel*Frame) : 0.021Time code of first frame : 00:00:00:00Time code source : Group of pictures headerGOP, Open/Closed : OpenGOP, Open/Closed of first frame : ClosedStream size : 158 KiB (68%)Color primaries : BT.601 PALTransfer characteristics : BT.470 System B/GMatrix coefficients : BT.470 System B/G
AudioID : 189 (0xBD)-128 (0x80)Format : AC-3Format/Info : Audio Coding 3Commercial name : Dolby DigitalMuxing mode : DVD-VideoDuration : 6 s 16 msBit rate mode : ConstantBit rate : 96.0 kb/sChannel(s) : 2 channelsChannel layout : L RSampling rate : 48.0 kHzFrame rate : 31.250 FPS (1536 SPF)Bit depth : 16 bitsCompression mode : LossyStream size : 70.5 KiB (30%)Service kind : Complete Main
Menu
GeneralComplete name : VIDEO_TS/VTS_01_0.BUPFormat : DVD VideoFormat profile : ProgramFile size : 84.0 KiBDuration : 1 h 59 minOverall bit rate mode : VariableOverall bit rate : 96 b/sFileExtension_Invalid : ifo
VideoID : 224 (0xE0)Format : MPEG VideoFormat version : Version 2Duration : 1 h 59 minBit rate mode : VariableWidth : 720 pixelsHeight : 576 pixelsDisplay aspect ratio : 4:3Frame rate : 25.000 FPSStandard : PALCompression mode : Lossy
AudioID : 128 (0x80)Format : AC-3Format/Info : Audio Coding 3Duration : 1 h 59 minChannel(s) : 2 channelsSampling rate : 48.0 kHzCompression mode : LossyLanguage : Russian
MenuDuration : 1 h 59 min00:00:00.000 : Chapter 100:00:22.000 : Chapter 200:10:29.000 : Chapter 300:20:37.000 : Chapter 400:30:33.000 : Chapter 500:40:36.000 : Chapter 600:50:36.000 : Chapter 701:00:39.000 : Chapter 801:10:21.000 : Chapter 901:20:20.000 : Chapter 1001:30:11.000 : Chapter 1101:40:02.000 : Chapter 1201:49:02.080 : Chapter 13List (Audio) : 0
GeneralComplete name : VIDEO_TS/VTS_01_0.IFOFormat : DVD VideoFormat profile : ProgramFile size : 84.0 KiBDuration : 1 h 59 minOverall bit rate mode : VariableOverall bit rate : 96 b/s
VideoID : 224 (0xE0)Format : MPEG VideoFormat version : Version 2Duration : 1 h 59 minBit rate mode : VariableWidth : 720 pixelsHeight : 576 pixelsDisplay aspect ratio : 4:3Frame rate : 25.000 FPSStandard : PALCompression mode : Lossy
AudioID : 128 (0x80)Format : AC-3Format/Info : Audio Coding 3Duration : 1 h 59 minChannel(s) : 2 channelsSampling rate : 48.0 kHzCompression mode : LossyLanguage : Russian
MenuDuration : 1 h 59 min00:00:00.000 : Chapter 100:00:22.000 : Chapter 200:10:29.000 : Chapter 300:20:37.000 : Chapter 400:30:33.000 : Chapter 500:40:36.000 : Chapter 600:50:36.000 : Chapter 701:00:39.000 : Chapter 801:10:21.000 : Chapter 901:20:20.000 : Chapter 1001:30:11.000 : Chapter 1101:40:02.000 : Chapter 1201:49:02.080 : Chapter 13List (Audio) : 0
GeneralComplete name : VIDEO_TS/VTS_01_0.VOBFormat : MPEG-PSFile size : 756 KiBDuration : 4 s 40 msOverall bit rate mode : VariableOverall bit rate : 1 533 kb/s
VideoID : 224 (0xE0)Format : MPEG VideoFormat version : Version 2Format profile : Main@MainFormat settings, BVOP : NoFormat settings, Matrix : DefaultFormat settings, GOP : N=12Duration : 4 s 40 msBit rate mode : VariableBit rate : 1 438 kb/sMaximum bit rate : 9 000 kb/sWidth : 720 pixelsHeight : 576 pixelsDisplay aspect ratio : 4:3Frame rate : 25.000 FPSStandard : PALColor space : YUVChroma subsampling : 4:2:0Bit depth : 8 bitsScan type : ProgressiveCompression mode : LossyBits/(Pixel*Frame) : 0.139Time code of first frame : 00:00:00:00Time code source : Group of pictures headerGOP, Open/Closed : OpenStream size : 709 KiB (94%)
AudioID : 189 (0xBD)-128 (0x80)Format : AC-3Format/Info : Audio Coding 3Commercial name : Dolby DigitalMuxing mode : DVD-VideoDuration : 4 s 0 msBit rate mode : ConstantBit rate : 64.0 kb/sChannel(s) : 2 channelsChannel layout : L RSampling rate : 48.0 kHzFrame rate : 31.250 FPS (1536 SPF)Bit depth : 16 bitsCompression mode : LossyStream size : 31.2 KiB (4%)Service kind : Complete Main
TextID : 189 (0xBD)-32 (0x20)Format : RLEFormat/Info : Run-length encodingMuxing mode : DVD-Video
Menu
GeneralComplete name : VIDEO_TS/VTS_01_1.VOBFormat : MPEG-PSFile size : 1 024 MiBDuration : 27 min 55 sOverall bit rate mode : ConstantOverall bit rate : 5 126 kb/s
VideoID : 224 (0xE0)Format : MPEG VideoFormat version : Version 2Format profile : Main@MainFormat settings, BVOP : NoFormat settings, Matrix : DefaultFormat settings, GOP : VariableDuration : 27 min 55 sBit rate mode : ConstantBit rate : 4 788 kb/sWidth : 720 pixelsHeight : 576 pixelsDisplay aspect ratio : 4:3Frame rate : 25.000 FPSStandard : PALColor space : YUVChroma subsampling : 4:2:0Bit depth : 8 bitsScan type : ProgressiveCompression mode : LossyBits/(Pixel*Frame) : 0.462Time code of first frame : 00:00:00:00Time code source : Group of pictures headerGOP, Open/Closed : OpenStream size : 959 MiB (94%)
AudioID : 189 (0xBD)-128 (0x80)Format : AC-3Format/Info : Audio Coding 3Commercial name : Dolby DigitalMuxing mode : DVD-VideoDuration : 27 min 55 sBit rate mode : ConstantBit rate : 224 kb/sChannel(s) : 2 channelsChannel layout : L RSampling rate : 48.0 kHzFrame rate : 31.250 FPS (1536 SPF)Bit depth : 16 bitsCompression mode : LossyStream size : 44.7 MiB (4%)Service kind : Complete Main
Menu
GeneralComplete name : VIDEO_TS/VTS_01_1.VOB.idx2File size : 4.28 MiB
GeneralComplete name : VIDEO_TS/VTS_01_2.VOBFormat : MPEG-PSFile size : 1 024 MiBDuration : 27 min 56 sOverall bit rate mode : ConstantOverall bit rate : 5 123 kb/s
VideoID : 224 (0xE0)Format : MPEG VideoFormat version : Version 2Format profile : Main@MainFormat settings, BVOP : NoFormat settings, Matrix : DefaultFormat settings, GOP : N=12Duration : 27 min 56 sBit rate mode : ConstantBit rate : 4 788 kb/sWidth : 720 pixelsHeight : 576 pixelsDisplay aspect ratio : 4:3Frame rate : 25.000 FPSStandard : PALColor space : YUVChroma subsampling : 4:2:0Bit depth : 8 bitsScan type : ProgressiveCompression mode : LossyBits/(Pixel*Frame) : 0.462Time code of first frame : 00:27:55:17Time code source : Group of pictures headerGOP, Open/Closed : OpenStream size : 959 MiB (94%)
AudioID : 189 (0xBD)-128 (0x80)Format : AC-3Format/Info : Audio Coding 3Commercial name : Dolby DigitalMuxing mode : DVD-VideoDuration : 27 min 56 sBit rate mode : ConstantBit rate : 224 kb/sChannel(s) : 2 channelsChannel layout : L RSampling rate : 48.0 kHzFrame rate : 31.250 FPS (1536 SPF)Bit depth : 16 bitsCompression mode : LossyStream size : 44.8 MiB (4%)Service kind : Complete Main
Menu
GeneralComplete name : VIDEO_TS/VTS_01_3.VOBFormat : MPEG-PSFile size : 1 024 MiBDuration : 27 min 56 sOverall bit rate mode : ConstantOverall bit rate : 5 123 kb/s
VideoID : 224 (0xE0)Format : MPEG VideoFormat version : Version 2Format profile : Main@MainFormat settings, BVOP : NoFormat settings, Matrix : DefaultFormat settings, GOP : N=12Duration : 27 min 56 sBit rate mode : ConstantBit rate : 4 788 kb/sWidth : 720 pixelsHeight : 576 pixelsDisplay aspect ratio : 4:3Frame rate : 25.000 FPSStandard : PALColor space : YUVChroma subsampling : 4:2:0Bit depth : 8 bitsScan type : ProgressiveCompression mode : LossyBits/(Pixel*Frame) : 0.462Time code of first frame : 00:55:52:20Time code source : Group of pictures headerGOP, Open/Closed : OpenStream size : 959 MiB (94%)
AudioID : 189 (0xBD)-128 (0x80)Format : AC-3Format/Info : Audio Coding 3Commercial name : Dolby DigitalMuxing mode : DVD-VideoDuration : 27 min 56 sBit rate mode : ConstantBit rate : 224 kb/sChannel(s) : 2 channelsChannel layout : L RSampling rate : 48.0 kHzFrame rate : 31.250 FPS (1536 SPF)Bit depth : 16 bitsCompression mode : LossyDelay relative to video : -320 msStream size : 44.8 MiB (4%)Service kind : Complete Main
Menu
GeneralComplete name : VIDEO_TS/VTS_01_4.VOBFormat : MPEG-PSFile size : 1 024 MiBDuration : 27 min 56 sOverall bit rate mode : ConstantOverall bit rate : 5 123 kb/s
VideoID : 224 (0xE0)Format : MPEG VideoFormat version : Version 2Format profile : Main@MainFormat settings, BVOP : NoFormat settings, Matrix : DefaultFormat settings, GOP : N=12Duration : 27 min 56 sBit rate mode : ConstantBit rate : 4 788 kb/sWidth : 720 pixelsHeight : 576 pixelsDisplay aspect ratio : 4:3Frame rate : 25.000 FPSStandard : PALColor space : YUVChroma subsampling : 4:2:0Bit depth : 8 bitsScan type : ProgressiveCompression mode : LossyBits/(Pixel*Frame) : 0.462Time code of first frame : 01:23:49:10Time code source : Group of pictures headerGOP, Open/Closed : OpenStream size : 959 MiB (94%)
AudioID : 189 (0xBD)-128 (0x80)Format : AC-3Format/Info : Audio Coding 3Commercial name : Dolby DigitalMuxing mode : DVD-VideoDuration : 27 min 56 sBit rate mode : ConstantBit rate : 224 kb/sChannel(s) : 2 channelsChannel layout : L RSampling rate : 48.0 kHzFrame rate : 31.250 FPS (1536 SPF)Bit depth : 16 bitsCompression mode : LossyDelay relative to video : -344 msStream size : 44.8 MiB (4%)Service kind : Complete Main
Menu
GeneralComplete name : VIDEO_TS/VTS_01_5.VOBFormat : MPEG-PSFile size : 294 MiBDuration : 8 min 0 sOverall bit rate mode : ConstantOverall bit rate : 5 125 kb/s
VideoID : 224 (0xE0)Format : MPEG VideoFormat version : Version 2Format profile : Main@MainFormat settings, BVOP : NoFormat settings, Matrix : DefaultFormat settings, GOP : N=12Duration : 8 min 0 sBit rate mode : ConstantBit rate : 4 788 kb/sWidth : 720 pixelsHeight : 576 pixelsDisplay aspect ratio : 4:3Frame rate : 25.000 FPSStandard : PALColor space : YUVChroma subsampling : 4:2:0Bit depth : 8 bitsScan type : ProgressiveCompression mode : LossyBits/(Pixel*Frame) : 0.462Time code of first frame : 01:51:46:00Time code source : Group of pictures headerGOP, Open/Closed : OpenStream size : 275 MiB (94%)
AudioID : 189 (0xBD)-128 (0x80)Format : AC-3Format/Info : Audio Coding 3Commercial name : Dolby DigitalMuxing mode : DVD-VideoDuration : 8 min 0 sBit rate mode : ConstantBit rate : 224 kb/sChannel(s) : 2 channelsChannel layout : L RSampling rate : 48.0 kHzFrame rate : 31.250 FPS (1536 SPF)Bit depth : 16 bitsCompression mode : LossyDelay relative to video : -208 msStream size : 12.8 MiB (4%)Service kind : Complete Main
Menu

Скриншоты

[Profile]  [PM] 
Display posts:    
Reply to topic

Current time is: 07-Dec 23:45

All times are UTC + 2



You cannot post new topics in this forum
You cannot reply to topics in this forum
You cannot edit your posts in this forum
You cannot delete your posts in this forum
You cannot vote in polls in this forum
You cannot attach files in this forum
You cannot download files in this forum