Площадь республики / Place de la republique (Луи Маль / Louis Malle) [1974, документальный, DVD5]

Reply to topic
 
Author
Message

Atila ®

Gender: Unknown

Longevity: 7 years 6 months

Posts: 2513

Reputation: 0 [+] [-]

Atila · Post 09-Jul-2019 18:30

[Quote] 

Площадь республики / Place de la république
Год выпуска: 1974
Страна: Франция
Жанр: документальный
Продолжительность: 01:30:51
Перевод: Профессиональный (многоголосый закадровый)
Русские субтитры: нет
Режиссер: Луи Маль / Louis Malle
Описание: Десять дней Луи Маль вместе со своей небольшой группой снимал этот фильм в рабочем районе Парижа. Режиссер не подгонял героев под готовую концепцию образа француза середины 70-х, он - наблюдатель. Он останавливал случайных прохожих, обращался к уличным торговцам, музыкантам, безработным. Он спрашивал их о жизни и смерти, о счастье и одиночестве, о политике и религии, спорил с ними, провоцировал, внимательно выслушивал даже самые бредовые монологи. Ему повстречались и оптимисты, и пессимисты, люди недоверчивые и открытые, реалисты и фантазеры. Одним словом, самые разные "обычные", "простые" люди…
Доп. информация: Здесь раздаётся издание Cinema Prestige, соответствующее постеру. Издание Criterion, отличающееся улучшенным качеством изображения и которое никак нельзя разыскать простым поиском по трекеру (ihln, если Вы случайно будете проходить мимо, то непременно, непременно обратите внимание на эту синтаксическую конструкцию а-ля Достоевский), раздаётся здесь .
Меню: есть, на русском, статичное, озвученное
Сэмпл: http://sendfile.su/1503272
Главы (разбивка по трекам): есть
Качество: DVD5
Формат: DVD Video
Видео кодек: MPEG2
Аудио кодек: AC3
Видео: PAL 4:3 (720x576), 4 864 kb/s, 25.000 FPS
Аудио: Русский, AC-3, 2 channels, 48.0 kHz, 192 kb/s
Аудио 2: Французский, AC-3, 2 channels, 48.0 kHz, 192 kb/s

DVDInfo

Size: 3.50 Gb ( 3 674 360 KBytes ) - DVD-5Enabled regions: 1, 2, 3, 4, 5, 6, 7, 8
VTS_01 : Play Length: 00:00:10 Video: PAL 4:3 (720x576) VBR
VTS_02 : Play Length: 00:00:07 Video: PAL 4:3 (720x576) VBR Audio: English (Dolby AC3, 6 ch)
VTS_03 : Play Length: 01:30:51 Video: PAL 4:3 (720x576) VBR Audio: Russian (Dolby AC3, 2 ch) Francais (Dolby AC3, 2 ch)
Menu Video: PAL 4:3 (720x576) VBRMenu Subtitles: Not specifiedMenu English Language Unit : Root Menu

MediaInfo

GeneralComplete name                            : PLACE_DE_LA_REPUBLIQUE\VIDEO_TS\VTS_03_1.VOBFormat                                   : MPEG-PSFile size                                : 1 024 MiBDuration                                 : 26 min 43 sOverall bit rate mode                    : VariableOverall bit rate                         : 5 355 kb/s
VideoID : 224 (0xE0)Format : MPEG VideoFormat version : Version 2Format profile : Main@MainFormat settings : BVOPFormat settings, BVOP : YesFormat settings, Matrix : DefaultFormat settings, GOP : M=3, N=13Format settings, picture structure : FieldDuration : 26 min 43 sBit rate mode : VariableBit rate : 4 864 kb/sMaximum bit rate : 7 000 kb/sWidth : 720 pixelsHeight : 576 pixelsDisplay aspect ratio : 4:3Frame rate : 25.000 FPSStandard : PALColor space : YUVChroma subsampling : 4:2:0Bit depth : 8 bitsScan type : InterlacedScan order : Top Field FirstCompression mode : LossyBits/(Pixel*Frame) : 0.469Time code of first frame : 01:00:10:18Time code source : Group of pictures headerGOP, Open/Closed : OpenStream size : 930 MiB (91%)Color primaries : BT.601 PALTransfer characteristics : BT.470 System B/GMatrix coefficients : BT.470 System B/G
Audio #1ID : 189 (0xBD)-128 (0x80)Format : AC-3Format/Info : Audio Coding 3Commercial name : Dolby DigitalMuxing mode : DVD-VideoDuration : 26 min 43 sBit rate mode : ConstantBit rate : 192 kb/sChannel(s) : 2 channelsChannel layout : L RSampling rate : 48.0 kHzFrame rate : 31.250 FPS (1536 SPF)Bit depth : 16 bitsCompression mode : LossyStream size : 36.7 MiB (4%)Service kind : Complete Main
Audio #2ID : 189 (0xBD)-129 (0x81)Format : AC-3Format/Info : Audio Coding 3Commercial name : Dolby DigitalMuxing mode : DVD-VideoDuration : 26 min 43 sBit rate mode : ConstantBit rate : 192 kb/sChannel(s) : 2 channelsChannel layout : L RSampling rate : 48.0 kHzFrame rate : 31.250 FPS (1536 SPF)Bit depth : 16 bitsCompression mode : LossyStream size : 36.7 MiB (4%)Service kind : Complete Main

Скриншоты меню

Скриншоты

[Profile]  [PM] 
Display posts:    
Reply to topic

Current time is: 13-Dec 09:24

All times are UTC + 2



You cannot post new topics in this forum
You cannot reply to topics in this forum
You cannot edit your posts in this forum
You cannot delete your posts in this forum
You cannot vote in polls in this forum
You cannot attach files in this forum
You cannot download files in this forum