Собибор, 14 октября 1943 года, 16 часов / Sobibor, 14 octobre 1943, 16 heures (Клод Ланцманн / Claude Lanzmann) [2001, Франция, Документальный, Военный, История, DVD9 (Custom)] Sub Eng, Rus (busiko) + Original Heb / Criterion Collection#663

Reply to topic
 
Author
Message

Atila ®

Gender: Unknown

Longevity: 7 years 5 months

Posts: 2502

Reputation: 0 [+] [-]

Atila · Post 14-Sep-2019 05:05

[Quote] 

Собибор, 14 октября 1943 года, 16 часов / Sobibor, 14 octobre 1943, 16 heures / Criterion Collection#663 Страна:ФранцияСтудия:France 2 Cinema, Les Films Aleph, Why Not Productions.Жанр:Документальный, Военный, ИсторияГод выпуска:2001
Продолжительность:01:42:05Производство:The Criterion Collection#663Перевод:СубтитрыСубтитры:Английские, Русские busiko
Премьера (мир):13.05.2001
Режиссер:Клод Ланцманн / Claude LanzmannВ ролях:Йехуда Лернер, Francine Kaufmann, Клод ЛанзманнОписание:Документальный фильм посвящен единственному успешному восстанию в нацистских лагерях смерти (не считая Треблинки), произошедших за время Второй мировой войны. Свидетельства одного из непосредственных участников событий раскрывают весь ужас этой чёрной для человечества страницы истории.-- --Доп. информация:Исходник найден в сети.Огромное Спасибо Всем, без чьей помощи этот релиз не состоялся бы!Сценарий:Клод ЛанцманнПродюсер:Паскаль КочетоОператор:Каролин Шампетье, Доминик ШапюиМонтаж:Шанталь Иман, Сабина Маму

Награды и номинации

Софт

PgcDemux 1.2.0.5 -> разделение компонентов диска на файлы.
Subtitle Workshop, MaestroSBT, DVD SubEdit -> субтитры.
MuxMan DVD authoring Professional -> мультиплексирование и авторинг.
DVDRemake Pro 3.6.4 -> реавторинг DVD.
DVD Shrink 3.2 -> Сэмпл.

Бонусы:(Без перевода)

--Three additional films by director Claude Lanzmann: A Visitor from the Living (1999, 68 minutes); Sobibor, October 14, 1943, 4 p.m. (2001, 102 minutes)
--Interview with Lanzmann from 2003 about A Visitor from the Living and Sobibor
Меню:Английский, статичное, озвученное.Тип релиза:DVD9 (Custom)Контейнер:DVD-Video
Видео:NTSC 16:9 (720x480) VBR, Auto Letterboxed, 5841 Кбит/сек, 23,976 (24000/1001) кадра/сек Аудио:Иврит:AC3, 2 ch, 48.0 KHz, 192 Кбит/сек / ОригиналФормат субтитров:prerendered (DVD/IDX+SUB)

Dvd Info

Title: диск 6
Size: 7.61 Gb ( 7 983 412,00 KBytes ) - DVD-9
Enabled regions: 1, 2, 3, 4, 5, 6, 7, 8
VTS_01 :
Play Length: 00:00:00
Video: NTSC 4:3 (720x480) VBR
VTS_02 :
Play Length: 00:13:58
Video: NTSC 4:3 (720x480) VBR
Audio:
Francais (Dolby AC3, 1 ch)
Subtitles:
English
VTS_03 :
Play Length: 01:07:59
Video: NTSC 4:3 (720x480) VBR
Audio:
Francais (Dolby AC3, 1 ch)
Subtitles:
English
VTS_04 :
Play Length: 01:42:05
Video: NTSC 16:9 (720x480) VBR, Auto Letterboxed
Audio:
Hebrew (Dolby AC3, 2 ch)
Subtitles:
English
Russian
VTS_05 :
Play Length: 00:00:00
Video: NTSC 4:3 (720x480) VBR

Mediainfo

Общее
Полное имя : F:\Sobibor, 14 octobre 1943, 16 heures DVD-9_Сustom_Criterion#663\диск 6\VIDEO_TS\VTS_04_1.VOB
Формат : MPEG-PS
Размер файла : 1024 Мбайт
Продолжительность : 23 м. 15 с.
Режим общего битрейта : Переменный
Общий поток : 6156 Кбит/сек
Видео
Идентификатор : 224 (0xE0)
Формат : MPEG Video
Версия формата : Version 2
Профиль формата : Main@Main
Настройки формата : CustomMatrix / BVOP
Параметр BVOP формата : Да
Параметр матрицы формата : Выборочная
Параметр GOP формата : Variable
Продолжительность : 23 м. 15 с.
Вид битрейта : Переменный
Битрейт : 5841 Кбит/сек
Максимальный битрейт : 9800 Кбит/сек
Ширина : 720 пикселей
Высота : 480 пикселей
Соотношение сторон : 16:9
Частота кадров : 23,976 (24000/1001) кадра/сек
Цветовое пространство : YUV
Субдискретизация насыщенности : 4:2:0
Битовая глубина : 8 бит
Тип развёртки : Прогрессивная
Порядок развёртки : 2:3 Pulldown
Метод сжатия : С потерями
Бит/(Пиксели*Кадры) : 0.705
Временной код первого кадра : 01:00:00:00
Оригинал временного кода : Group of pictures header
Размер потока : 972 Мбайт (95%)
Аудио
Идентификатор : 189 (0xBD)-128 (0x80)
Формат : AC-3
Формат/Информация : Audio Coding 3
Режим смешивания : DVD-Video
Продолжительность : 23 м. 15 с.
Вид битрейта : Постоянный
Битрейт : 192 Кбит/сек
Каналы : 2 канала
Расположение каналов : Front: L R
Частота : 48,0 КГц
Частота кадров : 31,250 кадров/сек (1536 SPF)
Битовая глубина : 16 бит
Метод сжатия : С потерями
Размер потока : 31,9 Мбайт (3%)
ServiceKind/String : Complete Main
Текст #1
Идентификатор : 189 (0xBD)-32 (0x20)
Формат : RLE
Формат/Информация : Run-length encoding
Режим смешивания : DVD-Video
Продолжительность : 23 м. 7 с.
Задержка видео : 5 с. 338 мс.
Текст #2
Идентификатор : 189 (0xBD)-33 (0x21)
Формат : RLE
Формат/Информация : Run-length encoding
Режим смешивания : DVD-Video
Продолжительность : 23 м. 7 с.
Задержка видео : 5 с. 338 мс.
Текст #3
Идентификатор : 189 (0xBD)-34 (0x22)
Формат : RLE
Формат/Информация : Run-length encoding
Режим смешивания : DVD-Video
Продолжительность : 23 м. 5 с.
Задержка видео : 5 с. 338 мс.

Скриншоты меню


Скриншоты фильма

Скриншоты доп. материалов


Релиз: Уважаемые пользователи!Найдите пару минут поблагодарить релизера и высказаться в топике раздачи.Ваше мнение - бальзам для раздающего и пища для ума остальным пользователям.Мои раздачи
[Profile]  [PM] 
Display posts:    
Reply to topic

Current time is: 05-Dec 19:12

All times are UTC + 2



You cannot post new topics in this forum
You cannot reply to topics in this forum
You cannot edit your posts in this forum
You cannot delete your posts in this forum
You cannot vote in polls in this forum
You cannot attach files in this forum
You cannot download files in this forum