(Pop) Шура / Shura — Коллекция (6CD) — 1997–2004, APE (image+.cue), lossless

Reply to topic
 
Author
Message

23andrey231 ®

Gender: Unknown

Longevity: 10 years

Posts: 142

Reputation: 0 [+] [-]

23andrey231 · Post 18-Oct-2009 10:45

[Quote] 

SHURA- Жанр: Pop
Год выпуска диска: 1997–2004
Производитель диска: Sweden, Россия
Аудио кодек: APE
Тип рипа: image+.cue
Битрейт аудио: lossless
Продолжительность: указана отдельно к каждому диску
Дополнительная информация:
CD рипованы лично мной на одном и том же оборудовании.
Сканы — полные, т.е. диски, ковры и полностью буклеты.
Формат сканов - *.TIFF, 300 dpi.
Приятного прослушивания!

1997 - Shura


Продолжительность: 0.43.18
Трэклист:
01. Холодная луна [0:04:02.25]
02. Don-don-don [0:04:45.12]
03. Порушка-Пораня [0:03:54.00]
04. Never [0:04:34.38]
05. Are you ready? [0:05:28.57]
06. Зимушка-зима [0:04:07.38]
07. Отшумели летние дожди [0:04:16.67]
08. I know [0:04:40.68]
09. Нам хорошо [0:04:05.60]
10. Луна-2 [0:03:21.60]

EAC LOG FILE


Exact Audio Copy V0.99 prebeta 5 from 4. May 2009
EAC extraction logfile from 23. September 2009, 17:39
Shura / Shura
Used drive : MAD DOG MD-16XDVD9A2 Adapter: 3 ID: 0
Read mode : Secure
Utilize accurate stream : Yes
Defeat audio cache : Yes
Make use of C2 pointers : No
Read offset correction : 48
Overread into Lead-In and Lead-Out : No
Fill up missing offset samples with silence : Yes
Delete leading and trailing silent blocks : No
Null samples used in CRC calculations : Yes
Used interface : Installed external ASPI interface
Used output format : Internal WAV Routines
Sample format : 44.100 Hz; 16 Bit; Stereo
TOC of the extracted CD
Track | Start | Length | Start sector | End sector
---------------------------------------------------------
1 | 0:00.10 | 4:02.25 | 10 | 18184
2 | 4:02.35 | 4:45.12 | 18185 | 39571
3 | 8:47.47 | 3:54.00 | 39572 | 57121
4 | 12:41.47 | 4:34.38 | 57122 | 77709
5 | 17:16.10 | 5:28.57 | 77710 | 102366
6 | 22:44.67 | 4:07.38 | 102367 | 120929
7 | 26:52.30 | 4:16.67 | 120930 | 140196
8 | 31:09.22 | 4:40.68 | 140197 | 161264
9 | 35:50.15 | 4:05.60 | 161265 | 179699
10 | 39:56.00 | 3:21.60 | 179700 | 194834
Range status and errors
Selected range
Filename E:\TORRENT\SHURA\1997 - Shura\Shura - Shura.wav
Peak level 94.4 %
Range quality 99.9 %
Test CRC C0C1CE22
Copy CRC C0C1CE22
Copy OK
No errors occurred
AccurateRip summary
Track 1 not present in database
Track 2 not present in database
Track 3 not present in database
Track 4 not present in database
Track 5 not present in database
Track 6 not present in database
Track 7 not present in database
Track 8 not present in database
Track 9 not present in database
Track 10 not present in database
None of the tracks are present in the AccurateRip database
End of status report

1998 - Shura 2


Продолжительность: 0.38.14
Трэклист:
01. Не верь слезам [0:03:13.37]
02. День за окном [0:03:57.65]
03. Отшумели летние дожди [0:04:13.65]
04. Вечность [0:04:19.28]
05. Мы разные [0:04:07.65]
06. Три пути [0:03:57.25]
07. Хороводная [0:03:27.60]
08. Мотивчик [0:03:58.47]
09. Нам хорошо (Remix) [0:03:19.68]
10. Отшумели летние дожди (Remix) [0:03:37.57]

EAC LOG FILE

Exact Audio Copy V0.99 prebeta 5 from 4. May 2009
EAC extraction logfile from 5. September 2009, 0:14
Шура / Shura 2
Used drive : MAD DOG MD-16XDVD9A2 Adapter: 3 ID: 0
Read mode : Secure
Utilize accurate stream : Yes
Defeat audio cache : Yes
Make use of C2 pointers : No
Read offset correction : 48
Overread into Lead-In and Lead-Out : No
Fill up missing offset samples with silence : Yes
Delete leading and trailing silent blocks : No
Null samples used in CRC calculations : Yes
Used interface : Installed external ASPI interface
Used output format : Internal WAV Routines
Sample format : 44.100 Hz; 16 Bit; Stereo
TOC of the extracted CD
Track | Start | Length | Start sector | End sector
---------------------------------------------------------
1 | 0:00.10 | 3:13.37 | 10 | 14521
2 | 3:13.47 | 3:57.65 | 14522 | 32361
3 | 7:11.37 | 4:13.65 | 32362 | 51401
4 | 11:25.27 | 4:19.28 | 51402 | 70854
5 | 15:44.55 | 4:07.65 | 70855 | 89444
6 | 19:52.45 | 3:57.25 | 89445 | 107244
7 | 23:49.70 | 3:27.60 | 107245 | 122829
8 | 27:17.55 | 3:58.47 | 122830 | 140726
9 | 31:16.27 | 3:19.68 | 140727 | 155719
10 | 34:36.20 | 3:37.57 | 155720 | 172051
Range status and errors
Selected range
Filename E:\TORRENT\SHURA\1998 - Shura 2\Шура - Shura 2.wav
Peak level 99.9 %
Range quality 99.9 %
Test CRC 4850B2B6
Copy CRC 4850B2B6
Copy OK
No errors occurred
AccurateRip summary
Track 1 not present in database
Track 2 not present in database
Track 3 not present in database
Track 4 not present in database
Track 5 not present in database
Track 6 not present in database
Track 7 not present in database
Track 8 not present in database
Track 9 not present in database
Track 10 not present in database
None of the tracks are present in the AccurateRip database
End of status report

2001 - Благодарю второе дыхание


Продолжительность: 0.44.35
Трэклист:
01. Целовал [0:03:42.03]
02. Что случилось с нами [0:04:26.39]
03. Старый художник [0:04:15.51]
04. Сделай шаг [0:04:03.50]
05. Беспризорник [0:04:39.04]
06. Артист [0:04:07.10]
07. А просто осень пришла [0:04:05.30]
08. Московские окна [0:03:26.09]
09. Вот и кончилась любовь [0:03:51.01]
10. Рябина [0:03:49.27]
11. Твори добро [0:04:08.46]

EAC LOG FILE


Exact Audio Copy V0.99 prebeta 5 from 4. May 2009
EAC extraction logfile from 22. October 2009, 15:43
Shura / Благодарю второе дыхание
Used drive : MAD DOG MD-16XDVD9A2 Adapter: 3 ID: 0
Read mode : Secure
Utilize accurate stream : Yes
Defeat audio cache : Yes
Make use of C2 pointers : No
Read offset correction : 48
Overread into Lead-In and Lead-Out : No
Fill up missing offset samples with silence : Yes
Delete leading and trailing silent blocks : No
Null samples used in CRC calculations : Yes
Used interface : Installed external ASPI interface
Used output format : Internal WAV Routines
Sample format : 44.100 Hz; 16 Bit; Stereo
TOC of the extracted CD
Track | Start | Length | Start sector | End sector
---------------------------------------------------------
1 | 0:00.00 | 3:42.03 | 0 | 16652
2 | 3:42.03 | 4:26.39 | 16653 | 36641
3 | 8:08.42 | 4:15.51 | 36642 | 55817
4 | 12:24.18 | 4:03.50 | 55818 | 74092
5 | 16:27.68 | 4:39.04 | 74093 | 95021
6 | 21:06.72 | 4:07.10 | 95022 | 113556
7 | 25:14.07 | 4:05.30 | 113557 | 131961
8 | 29:19.37 | 3:26.09 | 131962 | 147420
9 | 32:45.46 | 3:51.01 | 147421 | 164746
10 | 36:36.47 | 3:49.27 | 164747 | 181948
11 | 40:25.74 | 4:08.46 | 181949 | 200594
Range status and errors
Selected range
Filename E:\TORRENT\SHURA\2001 - Благодарю второе дыхание\Shura - Благодарю второе дыхание.wav
Peak level 100.0 %
Range quality 99.9 %
Test CRC 654651A2
Copy CRC 654651A2
Copy OK
No errors occurred
AccurateRip summary
Track 1 not present in database
Track 2 not present in database
Track 3 not present in database
Track 4 not present in database
Track 5 not present in database
Track 6 not present in database
Track 7 not present in database
Track 8 not present in database
Track 9 not present in database
Track 10 not present in database
Track 11 not present in database
None of the tracks are present in the AccurateRip database
End of status report

2003 - NEWS!


Продолжительность: 42.45
Трэклист:
01. Скажи, пожалуйста: "Алло!" [0:02:37.61]
02. Кружится, вертится [0:03:35.50]
03. Годик [0:03:38.40]
04. Мама, йо! [0:03:05.42]
05. Мира и добра (Твори добро 2) [0:03:39.43]
06. По щекам [0:03:54.37]
07. Снег с дождем [0:04:05.60]
08. Твой мир [0:04:43.51]
09. Все не так [0:03:42.06]
10. Папа [0:02:16.47]
11. Хочется любить [0:03:52.60]
12. Who is любовь? [0:03:32.02]

EAC LOG FILE

Exact Audio Copy V0.99 prebeta 5 from 4. May 2009
EAC extraction logfile from 5. September 2009, 0:40
Шура / News!
Used drive : MAD DOG MD-16XDVD9A2 Adapter: 3 ID: 0
Read mode : Secure
Utilize accurate stream : Yes
Defeat audio cache : Yes
Make use of C2 pointers : No
Read offset correction : 48
Overread into Lead-In and Lead-Out : No
Fill up missing offset samples with silence : Yes
Delete leading and trailing silent blocks : No
Null samples used in CRC calculations : Yes
Used interface : Installed external ASPI interface
Used output format : Internal WAV Routines
Sample format : 44.100 Hz; 16 Bit; Stereo
TOC of the extracted CD
Track | Start | Length | Start sector | End sector
---------------------------------------------------------
1 | 0:00.00 | 2:37.61 | 0 | 11835
2 | 2:37.61 | 3:35.50 | 11836 | 28010
3 | 6:13.36 | 3:38.40 | 28011 | 44400
4 | 9:52.01 | 3:05.42 | 44401 | 58317
5 | 12:57.43 | 3:39.43 | 58318 | 74785
6 | 16:37.11 | 3:54.37 | 74786 | 92372
7 | 20:31.48 | 4:05.60 | 92373 | 110807
8 | 24:37.33 | 4:43.51 | 110808 | 132083
9 | 29:21.09 | 3:42.06 | 132084 | 148739
10 | 33:03.15 | 2:16.47 | 148740 | 158986
11 | 35:19.62 | 3:52.60 | 158987 | 176446
12 | 39:12.47 | 3:32.02 | 176447 | 192348
Range status and errors
Selected range
Filename E:\TORRENT\SHURA\2003 - NEWS!\Шура - News!.wav
Peak level 100.0 %
Range quality 100.0 %
Test CRC C99DF4D2
Copy CRC C99DF4D2
Copy OK
No errors occurred
AccurateRip summary
Track 1 not present in database
Track 2 not present in database
Track 3 not present in database
Track 4 not present in database
Track 5 not present in database
Track 6 not present in database
Track 7 not present in database
Track 8 not present in database
Track 9 not present in database
Track 10 not present in database
Track 11 not present in database
Track 12 not present in database
None of the tracks are present in the AccurateRip database
End of status report

2004 - Любимые Песни.Ru


Продолжительность: 0.55.00
Трэклист:
01. Холодная луна [0:04:01.26]
02. Скажи, пожалуйста, 'Алло!' [0:02:38.23]
03. Годик [0:03:39.74]
04. Мама, йо! [0:03:06.62]
05. Мира и добра [0:03:40.13]
06. Кружится, вертится [0:03:36.55]
07. По щекам [0:03:55.09]
08. Отшумели летние дожди [0:04:16.71]
09. Всё не так [0:03:42.51]
10. Нам хорошо [0:04:04.73]
11. Твой мир [0:04:44.26]
12. Хочется любить [0:03:53.13]
13. Папа [0:02:17.38]
14. Who is Любовь? [0:03:34.07]
15. Запретная любовь (feat. И.Бережная) [0:03:47.41]

EAC LOG FILE

Exact Audio Copy V0.99 prebeta 5 from 4. May 2009
EAC extraction logfile from 13. September 2009, 3:17
Шура / Любимые песни.Ru
Used drive : MAD DOG MD-16XDVD9A2 Adapter: 3 ID: 0
Read mode : Secure
Utilize accurate stream : Yes
Defeat audio cache : Yes
Make use of C2 pointers : No
Read offset correction : 48
Overread into Lead-In and Lead-Out : No
Fill up missing offset samples with silence : Yes
Delete leading and trailing silent blocks : No
Null samples used in CRC calculations : Yes
Used interface : Installed external ASPI interface
Used output format : Internal WAV Routines
Sample format : 44.100 Hz; 16 Bit; Stereo
TOC of the extracted CD
Track | Start | Length | Start sector | End sector
---------------------------------------------------------
1 | 0:00.00 | 4:01.26 | 0 | 18100
2 | 4:01.26 | 2:38.23 | 18101 | 29973
3 | 6:39.49 | 3:39.74 | 29974 | 46472
4 | 10:19.48 | 3:06.62 | 46473 | 60484
5 | 13:26.35 | 3:40.13 | 60485 | 76997
6 | 17:06.48 | 3:36.55 | 76998 | 93252
7 | 20:43.28 | 3:55.09 | 93253 | 110886
8 | 24:38.37 | 4:16.71 | 110887 | 130157
9 | 28:55.33 | 3:42.51 | 130158 | 146858
10 | 32:38.09 | 4:04.73 | 146859 | 165231
11 | 36:43.07 | 4:44.26 | 165232 | 186557
12 | 41:27.33 | 3:53.13 | 186558 | 204045
13 | 45:20.46 | 2:17.38 | 204046 | 214358
14 | 47:38.09 | 3:34.07 | 214359 | 230415
15 | 51:12.16 | 3:47.41 | 230416 | 247481
Range status and errors
Selected range
Filename E:\TORRENT\SHURA\2004 - Любимые песни.Ru\Шура - Любимые песни.Ru.wav
Peak level 100.0 %
Range quality 99.9 %
Test CRC 3716B357
Copy CRC 3716B357
Copy OK
No errors occurred
AccurateRip summary
Track 1 not present in database
Track 2 not present in database
Track 3 not present in database
Track 4 not present in database
Track 5 not present in database
Track 6 not present in database
Track 7 not present in database
Track 8 not present in database
Track 9 not present in database
Track 10 not present in database
Track 11 not present in database
Track 12 not present in database
Track 13 not present in database
Track 14 not present in database
Track 15 not present in database
None of the tracks are present in the AccurateRip database
End of status report

2004 - Любовное Настроение


Продолжительность: 0.56.45
Трэклист:
01. Отшумели летние дожди [0:04:12.08]
02. День за окном [0:03:57.39]
03. Не верь слезам [0:03:10.49]
04. Холодная луна [0:04:01.50]
05. Нам хорошо [0:04:01.54]
06. Сказка [0:02:59.62]
07. Три пути [0:03:54.74]
08. Мы разные [0:04:06.64]
09. Мотивчик [0:03:57.34]
10. Вечность [0:04:16.28]
11. Порушка-Пораня [0:03:51.66]
12. Зимушка-зима [0:04:06.09]
13. Don-Don [0:04:42.40]
14. Are You Ready? [0:05:24.68]

EAC LOG FILE

Exact Audio Copy V0.99 prebeta 5 from 4. May 2009
EAC extraction logfile from 13. September 2009, 2:46
Шура / Любовное Настроение
Used drive : MAD DOG MD-16XDVD9A2 Adapter: 3 ID: 0
Read mode : Secure
Utilize accurate stream : Yes
Defeat audio cache : Yes
Make use of C2 pointers : No
Read offset correction : 48
Overread into Lead-In and Lead-Out : No
Fill up missing offset samples with silence : Yes
Delete leading and trailing silent blocks : No
Null samples used in CRC calculations : Yes
Used interface : Installed external ASPI interface
Used output format : Internal WAV Routines
Sample format : 44.100 Hz; 16 Bit; Stereo
TOC of the extracted CD
Track | Start | Length | Start sector | End sector
---------------------------------------------------------
1 | 0:00.00 | 4:12.08 | 0 | 18907
2 | 4:12.08 | 3:57.39 | 18908 | 36721
3 | 8:09.47 | 3:10.49 | 36722 | 51020
4 | 11:20.21 | 4:01.50 | 51021 | 69145
5 | 15:21.71 | 4:01.54 | 69146 | 87274
6 | 19:23.50 | 2:59.62 | 87275 | 100761
7 | 22:23.37 | 3:54.74 | 100762 | 118385
8 | 26:18.36 | 4:06.64 | 118386 | 136899
9 | 30:25.25 | 3:57.34 | 136900 | 154708
10 | 34:22.59 | 4:16.28 | 154709 | 173936
11 | 38:39.12 | 3:51.66 | 173937 | 191327
12 | 42:31.03 | 4:06.09 | 191328 | 209786
13 | 46:37.12 | 4:42.40 | 209787 | 230976
14 | 51:19.52 | 5:24.68 | 230977 | 255344
Range status and errors
Selected range
Filename E:\TORRENT\SHURA\2004 - Любовное Настроение\Шура - Любовное Настроение.wav
Peak level 100.0 %
Range quality 100.0 %
Test CRC 9F489DED
Copy CRC 9F489DED
Copy OK
No errors occurred
AccurateRip summary
Track 1 not present in database
Track 2 not present in database
Track 3 not present in database
Track 4 not present in database
Track 5 not present in database
Track 6 not present in database
Track 7 not present in database
Track 8 not present in database
Track 9 not present in database
Track 10 not present in database
Track 11 not present in database
Track 12 not present in database
Track 13 not present in database
Track 14 not present in database
None of the tracks are present in the AccurateRip database
End of status report
[Profile]  [PM] 

санос

Gender: Unknown

Longevity: 1 year 2 months

Posts: 1

Reputation: 0 [+] [-]

санос · Post 23-Jun-2018 00:55 (after 8 years 8 months)

[Quote] 

Спасибо за проделанную работу !
[Profile]  [PM] 
Display posts:    
Reply to topic

Current time is: 22-Sep 12:11

All times are UTC + 2



You cannot post new topics in this forum
You cannot reply to topics in this forum
You cannot edit your posts in this forum
You cannot delete your posts in this forum
You cannot vote in polls in this forum
You cannot attach files in this forum
You cannot download files in this forum